#TITLE:Verflucht;
#ARTIST:Tyrfing;
#BANNER:Verflucht-bn.png;
#BACKGROUND:Verflucht-bg.png;
#JACKET:Verflucht-jacket.png;
#MUSIC:Verflucht.ogg;
#SAMPLESTART:13.333;
#SAMPLELENGTH:20;
#DISPLAYBPM:360;
#BPMS:0=360;
#BGCHANGES:;

//---------------dance-single - ----------------
#NOTES:
     dance-single:
     :
     Beginner:
     6:
     :
0000
0000
0000
0000
,
0000
0000
0000
0000
,
0000
0000
0000
0000
,
0000
0000
0000
0000
,
0001
0000
0000
0000
,
0000
0000
0000
0000
,
1000
0000
0000
0000
,
0010
0000
0000
0000
,
1000
0000
0000
0000
,
0001
0000
0000
0000
,
0100
0000
0100
0000
,
0100
0000
0010
0000
,
1000
0000
0000
0000
,
0001
0000
0000
0000
,
0010
0000
0000
0000
,
0001
0000
0000
0000
,
0100
0000
0000
0000
,
0010
0000
0000
0000
,
1000
0000
1000
0000
,
1000
0000
0001
0000
,
0100
0000
0000
0000
,
0010
0000
1000
0000
,
0001
0000
0000
0000
,
0010
0000
0100
0000
,
0010
0000
0000
0000
,
0001
0000
0100
0000
,
0001
0000
0000
0000
,
1000
0000
0010
0000
,
1000
0000
0000
0000
,
0100
0000
0010
0000
,
0001
0000
0000
0000
,
0100
0000
0001
0000
,
1000
0000
1000
0000
,
0001
0000
0001
0000
,
1000
0000
0001
0000
,
0100
0000
0100
0000
,
0010
0000
0010
0000
,
0010
0000
0010
0000
,
0010
0000
0010
0000
,
0010
0000
0000
0000
,
1000
0000
0000
0000
,
1000
0000
0000
0000
,
0001
0000
0000
0000
,
1000
0000
0001
0000
,
0100
0000
0100
0000
,
0100
0000
0100
0000
,
0100
0000
0100
0000
,
0100
0000
0000
0000
,
0010
0000
0000
0000
,
1000
0000
0000
0000
,
0001
0000
0000
0000
,
1001
0000
0000
0000
,
0002
0000
0000
0000
,
0000
0000
0003
0000
,
1000
0000
1000
0000
,
1000
0000
0010
0000
,
2000
0000
0000
0000
,
0000
0000
3000
0000
,
0001
0000
0001
0000
,
1000
0000
1000
0000
,
0020
0000
0000
0000
,
0000
0000
0030
0000
,
0100
0000
0100
0000
,
0100
0000
0001
0000
,
0200
0000
0000
0000
,
0000
0000
0300
0000
,
0110
0000
0000
0000
,
1001
0000
0000
0000
,
0001
0000
0010
0000
,
0001
0000
0000
0000
,
1000
0000
0100
0000
,
1000
0000
0000
0000
,
0010
0000
1000
0000
,
0010
0000
0000
0000
,
1000
0000
0001
0000
,
0010
0000
0100
0000
,
0010
0000
0001
0000
,
1000
0000
0000
0000
,
0001
0000
0010
0000
,
0001
0000
0000
0000
,
1000
0000
0001
0000
,
1000
0000
0000
0000
,
0010
0000
0010
0000
,
0010
0000
1000
0000
,
0100
0000
0000
0000
,
1000
0000
0000
0000
,
0001
0000
0001
0000
,
1000
0000
0001
0000
,
0010
0000
0000
0000
,
0001
0000
0000
0000
,
0100
0000
0010
0000
,
1000
0000
1000
0000
,
0010
0000
0000
0000
,
1000
0000
0000
0000
,
0100
0000
0010
0000
,
0001
0000
1000
0000
,
0001
0000
0001
0000
,
1000
0000
1000
0000
,
0001
0000
0010
0000
,
0100
0000
1000
0000
,
0100
0000
0000
0000
,
0000
0000
0000
0000
,
0000
0000
0000
0000
,
0000
0000
0000
0000
,
0000
0000
0000
0000
,
0000
0000
0000
0000
,
0000
0000
0000
0000
,
0000
0000
0000
0000
,
0000
0000
0000
0000
,
0000
0000
0000
0000
,
0000
0000
0000
0000
,
0000
0000
0000
0000
,
0000
0000
0000
0000
,
0000
0000
0000
0000
,
0000
0000
0000
0000
,
0000
0000
0000
0000
,
2000
0000
0000
0000
,
0000
0000
3000
0000
,
0010
0000
0010
0000
,
0010
0000
1000
0000
,
0002
0000
0000
0000
,
0000
0000
0003
0000
,
0010
0000
0010
0000
,
0001
0000
1000
0000
,
0200
0000
0000
0000
,
0000
0000
0300
0000
,
1000
0000
1000
0000
,
1000
0000
0001
0000
,
0020
0000
0000
0000
,
0000
0000
0030
0000
,
0110
0000
0000
0000
,
1001
0000
0000
0000
,
0110
0000
0000
0000
,
0001
0000
0100
0000
,
0001
0000
1000
0000
,
0010
0000
0100
0000
,
0001
0000
0000
0000
,
1000
0000
0100
0000
,
0010
0000
0001
0000
,
1000
0000
0001
0000
,
0100
0000
0000
0000
,
0010
0000
0100
0000
,
0010
0000
0000
0000
,
1000
0000
0100
0000
,
0001
0000
0000
0000
,
0010
0000
0000
0000
,
0001
0000
1000
0000
,
0010
0000
0100
0000
,
0010
0000
1000
0000
,
0010
0000
0100
0000
,
0001
0000
0010
0000
,
0100
0000
0010
0000
,
0001
0000
1000
0000
,
0001
0000
1000
0000
,
0010
0000
1000
0000
,
0100
0000
0010
0000
,
0001
0000
0100
0000
,
0001
0000
0010
0000
,
0001
0000
0100
0000
,
0010
0000
1000
0000
,
0100
0000
0010
0000
,
0100
0000
0010
0000
,
0001
0000
0001
0000
,
0001
0000
0001
0000
,
1000
0000
0000
0000
;

//---------------dance-single - ----------------
#NOTES:
     dance-single:
     :
     Easy:
     11:
     :
0000
0000
0000
0000
,
0000
0000
0000
0000
,
0000
0000
0000
0000
,
0000
0000
0000
0000
,
0001
0000
1000
0000
,
0010
0000
1000
0000
,
0100
0000
0010
0000
,
0001
0000
0100
0000
,
0010
0000
0100
0000
,
0001
0000
1000
0000
,
0100
0000
0010
0001
,
0000
1000
0001
0000
,
0100
0000
0001
0000
,
0010
0000
0100
0000
,
1000
0000
0010
0000
,
1000
0000
0001
0000
,
1000
0000
0100
0000
,
0010
0000
0001
0000
,
0100
0010
0100
0010
,
0100
0010
0100
0000
,
0001
0000
1000
0010
,
1000
0000
1000
0100
,
0010
0000
0001
0100
,
0001
0000
0010
0100
,
1000
0000
0001
0100
,
0010
0000
1000
0001
,
1000
0000
0100
0010
,
0001
1000
0001
0100
,
0010
0000
1000
0100
,
1000
0010
0100
0001
,
1000
0000
0010
0100
,
0001
0000
0001
1000
,
0100
0000
0010
0001
,
1000
0010
0100
0001
,
1000
0001
1000
0010
,
0100
0001
0010
0100
,
1000
0000
1000
0000
,
1000
0000
1000
0000
,
1000
0001
1000
0001
,
0200
0000
0000
0300
,
0001
0000
0000
0010
,
0000
0000
0001
0000
,
0000
1000
0000
0000
,
0010
0000
0100
0000
,
0001
0000
0001
0000
,
0001
0000
0001
0000
,
0001
1000
0001
1000
,
0200
0000
0000
0300
,
1000
0000
0000
0010
,
0000
0000
0100
0000
,
0000
0001
0000
0000
,
0200
0000
0020
0330
,
1000
0010
1000
0010
,
1000
0010
1000
0000
,
0001
0010
0001
0010
,
0001
0000
0100
0010
,
1000
0000
1000
0100
,
1000
0100
1000
0000
,
0001
0100
0001
0100
,
0001
0000
0010
0000
,
0001
0000
0100
0010
,
0100
0010
0100
0000
,
0001
1000
0001
1000
,
0001
0000
0010
0100
,
1000
0010
1000
0010
,
1000
0010
1000
0000
,
0100
0010
0100
0010
,
0002
0000
2000
3003
,
0010
0000
1000
0000
,
0100
0000
0010
0000
,
0001
0000
0100
0000
,
0001
1000
0010
0100
,
0001
0000
0010
0000
,
0001
0000
0100
0000
,
0010
0000
1000
0000
,
0100
0010
0001
0000
,
1000
0000
0010
0000
,
1000
0000
0100
0000
,
0010
0000
0001
0000
,
0100
0010
1000
0001
,
0100
0000
0001
0000
,
0010
0000
0100
0000
,
1000
0001
1000
0001
,
1000
0001
1000
0000
,
1001
0000
0110
0000
,
0001
0100
0010
1000
,
0100
0000
0010
0000
,
0001
1000
0100
0000
,
1010
0000
0101
0000
,
0010
0001
0010
0100
,
1000
0000
0001
0000
,
1000
0010
0100
0000
,
0001
1000
0001
0000
,
1100
0000
0011
0000
,
1000
0010
1000
0000
,
0001
0000
0010
0100
,
1000
0001
1000
0001
,
0100
0010
1000
0000
,
0001
0010
0001
0010
,
0100
1000
0010
1000
,
0100
0000
0000
0000
,
0000
0000
0000
0000
,
0000
0000
0000
0000
,
0000
0000
0000
0000
,
0000
0000
0000
0000
,
0000
0000
0000
0000
,
0000
0000
0000
0000
,
0000
0000
0000
0000
,
0000
0000
0000
0000
,
0000
0000
0000
0000
,
0000
0000
0000
0000
,
0000
0000
0000
0000
,
0000
0000
0000
0000
,
0000
0000
0000
0000
,
0000
0000
0000
0000
,
0000
0000
0000
0000
,
1000
0001
1000
0001
,
1000
0001
1000
0000
,
0010
0100
0010
0100
,
0010
0000
1000
0100
,
0010
0000
0001
0100
,
0001
0100
0001
0000
,
1000
0010
1000
0010
,
1000
0000
0001
0000
,
0010
0001
0010
0001
,
0010
0001
0010
0000
,
0100
1000
0100
1000
,
0100
0000
1000
0001
,
0100
0000
0010
1000
,
0010
1000
0010
0000
,
1000
0001
0010
0100
,
2000
0000
0002
3003
,
0100
0000
0010
1000
,
0001
0000
0010
0100
,
0000
0000
1000
0010
,
1000
0000
0001
0100
,
0010
0000
1000
0001
,
1000
0000
0100
0010
,
0001
0000
1000
0000
,
0001
0000
0100
0010
,
0100
0000
0001
1000
,
0010
0000
1000
0100
,
0000
0000
0010
0001
,
0100
0000
0001
1000
,
0001
0000
0010
0000
,
0001
0000
1000
0010
,
0100
0000
0001
0000
,
1000
0001
0020
0030
,
0001
0000
0010
0000
,
0001
0000
0100
0010
,
1000
0000
0100
0000
,
1000
0000
0001
1000
,
0010
0000
0100
0001
,
1000
0000
0100
0010
,
0001
0000
1000
0001
,
1000
0000
0010
0100
,
0010
1000
0100
0010
,
0001
0000
1000
0001
,
0000
0100
0010
1000
,
0010
0000
1000
0001
,
0010
0001
0010
0100
,
1000
0000
0010
0100
,
0001
0000
0001
1000
,
0100
0000
0010
0001
,
2000
0000
0000
0000
,
0000
0000
0000
0000
,
0000
0000
0000
0000
,
0000
0000
0000
0000
,
0000
0000
0000
0000
,
3000
0000
0000
0000
;

//---------------dance-single - ----------------
#NOTES:
     dance-single:
     :
     Medium:
     14:
     :
0000
0000
0000
0000
,
0000
0000
0000
0000
,
0000
0000
0000
0000
,
0000
0000
0000
0000
,
0001
0010
0100
1000
,
0010
0100
0001
0000
,
1000
0010
0100
0010
,
1000
0001
0100
0000
,
0001
1000
0001
0100
,
0010
1000
0100
0000
,
0010
0001
0010
0100
,
1000
0001
0100
0000
,
0010
1000
0001
1000
,
0100
0010
0001
0000
,
1000
0010
1000
0100
,
0010
0001
1000
0000
,
0010
0100
0010
1000
,
0100
0010
0001
0000
,
1000
1000
1000
1000
,
1000
0001
0100
0000
,
0010
0000
0000
1000
0000
0001
0000
0000
,
0010
0000
0000
0001
0000
0000
0100
0000
,
1000
0000
0000
0010
0000
1000
0000
0000
,
0100
0000
0000
0010
0000
0000
0001
0000
,
1000
0000
0000
0001
0000
0100
0000
0000
,
0001
0000
0000
0010
0000
0000
1000
0000
,
0100
0000
0000
0010
0000
0001
0000
1000
,
0001
0000
0000
0100
0010
0000
1000
0000
,
0100
0000
0000
0010
0000
0001
0000
0000
,
0100
0000
0000
0001
0000
0000
1000
0000
,
0010
0000
1000
0001
0000
1000
0001
0000
,
0100
0000
0000
0010
1000
0000
0001
0000
,
0010
0000
0000
0001
0000
0100
0000
0000
,
1000
0010
0000
1000
0010
0000
0100
0000
,
0001
0000
0010
0100
0000
1000
0000
0001
,
0100
0010
0000
0010
1000
0000
0001
0000
,
0100
0100
0100
0100
,
0100
0100
0100
0100
,
0100
0100
0100
0100
,
0202
0000
0000
0303
,
0010
1000
0000
0100
,
0001
0000
0010
0001
,
0000
0100
1000
0000
,
0001
0000
0100
0010
,
1000
1000
1000
1000
,
1000
1000
1000
1000
,
1000
1000
1000
1000
,
0202
0000
0000
0303
,
0001
0010
0000
0100
,
1000
0000
0010
0100
,
0000
0001
1000
0000
,
0002
0000
2000
3003
,
0010
0010
0010
0010
,
0010
0010
0010
0100
,
0001
0001
0001
0001
,
0001
0000
1000
1000
,
1000
0010
0010
0010
,
0010
0010
0010
0100
,
0001
0001
0001
0001
,
0001
0000
1000
0100
1000
0000
0001
0100
,
0001
0010
0010
0010
,
0010
0010
0010
0001
,
1000
1000
1000
1000
,
1000
0000
0010
0010
,
0010
0100
0100
0100
,
0100
0100
0100
0001
,
1000
1000
1000
1000
,
0010
0000
1000
0001
1000
0000
0000
0000
,
0010
0100
0010
0100
,
0001
0010
0001
1000
,
0010
1000
0100
0010
,
0001
0100
0001
0010
,
0100
1000
0010
0100
,
1000
0100
0001
0010
,
1000
0010
0100
0001
,
0100
1000
0010
0100
,
0001
0010
0001
0100
,
0010
0100
0001
1000
,
0100
0001
0100
1000
,
0010
0100
0001
1000
,
0100
0010
0001
0100
,
0001
0010
0001
1000
,
0010
0010
0010
0010
,
1000
0001
1000
0001
1000
0000
0000
0000
,
0010
0100
0001
0010
,
0001
0100
0010
1000
,
0100
0010
0001
0100
,
0001
0000
1000
0000
0100
0010
0100
0000
,
1000
0010
0100
1000
,
0100
0001
0010
1000
,
0010
0100
0010
0001
,
1000
0010
1000
0000
0001
0100
0001
0000
,
0100
0010
0100
0001
,
1000
0100
0001
0010
,
0100
0010
0001
1000
,
0010
0000
1000
0000
0001
0100
0001
0000
,
0010
0010
0010
0010
,
0001
0001
1000
1000
,
0010
0100
0010
0100
,
0001
1000
0001
1000
0001
1000
0001
1000
,
0200
0000
0000
0000
,
0000
0000
0000
0000
,
0000
0000
0000
0000
,
0000
0000
0000
0000
,
0000
0000
0000
0000
,
0000
0000
0000
0000
,
0000
0000
0000
0000
,
0000
0000
0000
0000
,
0300
0000
0000
0000
,
0000
0000
0000
0000
,
0000
0000
0000
0000
,
0000
0000
0000
0000
,
0000
0000
0000
0000
,
0000
0000
0000
0000
,
0000
0000
0000
0000
,
0000
0000
0000
0000
,
0010
0010
0010
0010
,
0010
0010
0010
0001
,
0100
0100
0100
0100
,
0100
0000
0010
0010
,
0010
1000
1000
1000
,
1000
1000
1000
0100
,
0010
0010
0010
0010
,
0010
0000
0001
1000
0001
0000
1000
0001
,
1000
0100
0100
0100
,
0100
0100
0100
1000
,
0001
0001
0001
0001
,
0001
0000
0100
0100
,
0010
0010
0010
0010
,
0010
0010
0010
1000
,
0100
0010
0100
0010
,
0001
1000
0001
1000
,
0010
1000
0000
0000
0001
0000
0100
0000
,
0001
0100
0000
0010
0000
0000
1000
0000
,
0100
0010
0100
1000
,
0001
0100
0010
1000
,
0100
1000
0000
0000
0001
0000
1000
0000
,
0010
0100
0000
0001
0000
1000
0100
0000
,
0010
0000
0001
0000
0100
0000
0010
1000
,
0010
0000
0000
0100
0000
0001
1000
0000
,
0100
0010
0000
0000
0001
0000
1000
0010
,
1000
0001
0000
0100
0000
0000
0010
0000
,
1000
0000
0100
0000
0010
0000
0001
0100
,
0001
0000
0000
0010
0000
0000
0100
0000
,
1000
0010
0000
0000
0100
0000
0001
0000
,
0010
0001
0000
0100
0000
0000
1000
0000
,
0010
0010
1000
1000
,
0001
0100
1000
0000
,
0001
0010
0001
0100
,
0010
0100
0001
0010
,
1000
0100
0010
0100
,
0010
0001
0100
1000
,
0010
1000
0001
0100
,
0001
0010
1000
0001
,
1000
0001
0010
1000
,
0100
0010
0100
1000
,
0001
0100
0010
0100
,
0001
0010
1000
0010
,
0001
0100
0010
0100
,
0001
0010
1000
0100
,
0010
0001
0010
1000
,
0100
0010
0100
1000
,
0010
0100
0001
1000
,
0001
0010
0001
0100
,
2000
0000
0000
0000
,
0000
0000
0000
0000
,
0000
0000
0000
0000
,
0000
0000
0000
0000
,
0000
0000
0000
0000
,
3000
0000
0000
0000
;

//---------------dance-single - ----------------
#NOTES:
     dance-single:
     :
     Hard:
     17:
     :
0000
0000
0000
0000
,
0000
0000
0000
0000
,
0000
0000
0000
0000
,
0000
0000
0000
0000
,
0001
0100
0010
0000
1000
0000
0100
0000
,
1000
0001
0100
0000
,
0001
0010
0001
0100
,
0010
1000
0001
0000
,
1000
0100
0010
0000
0001
0000
0100
0000
,
0010
1000
0001
0000
,
0100
0010
1000
0000
0001
0000
1000
0100
,
0010
0000
0001
0000
1000
0010
0100
0000
,
0001
1000
0010
0000
0100
0000
0001
0010
,
0100
1000
0001
0000
,
1000
0010
1000
0001
,
0010
0100
1000
0000
,
0001
1000
0010
0000
0100
0000
0001
0000
,
1000
0100
0010
0000
,
0001
0000
0001
0000
0001
0000
1000
0100
,
1000
0000
0001
0100
0001
0000
0000
0000
,
0010
0001
0010
0100
0000
1000
0001
0000
,
0100
0010
0000
0100
0001
0000
1000
0000
,
0010
0000
1000
0100
0000
0010
0001
0000
,
0100
0001
0000
1000
0010
0000
0100
0000
,
0001
0000
0010
0001
0000
1000
0100
0000
,
1000
0010
0100
0001
0000
1000
0001
0000
,
0010
0000
0001
1000
0000
0010
0000
0100
,
0010
1000
0000
0100
1000
0000
0001
0000
,
0100
0000
0001
0010
0000
0001
1000
0000
,
0010
1000
0000
0010
0100
0001
1000
0000
,
0100
0000
0010
0001
0000
1000
0001
0000
,
0010
0100
0000
1000
0100
0010
0001
0000
,
0100
0000
0010
1000
0000
0001
0100
0000
,
0001
0010
0000
0001
1000
0100
0010
0000
,
0001
0100
0001
0100
0001
0100
0001
0100
,
0001
1000
0000
0010
1000
0000
0100
0000
,
1001
0000
0001
0000
0001
0000
1000
0100
,
1000
1000
1000
1000
,
0010
0010
0010
0100
,
0202
0000
0000
0303
,
0010
0001
0100
0001
,
0010
0000
1000
0100
,
0010
0100
1000
0000
,
0001
0100
0010
1000
,
0001
0001
0001
0001
,
0001
0001
0001
0001
,
0100
0100
0100
0010
,
0202
0000
0000
0303
,
1000
0001
0010
0001
,
1000
0000
0010
0100
,
0001
0100
0010
0000
,
1000
0100
0010
0000
0002
0000
0003
0000
,
1000
0010
1000
0010
1000
0000
0010
1000
,
0010
0000
1000
0010
1000
0000
0010
1000
,
0010
1000
0010
1000
0010
0000
1000
0010
,
1000
0000
0110
0110
,
0001
0010
0001
0010
0001
0000
0010
0001
,
0010
0000
0001
0010
0001
0000
0010
0001
,
0010
0001
0010
0001
0010
0000
0001
0010
,
0001
0000
0010
0100
1000
0000
0010
0100
,
0001
1000
0001
1000
0001
0000
1000
0001
,
1000
0000
0001
1000
0001
0000
1000
0001
,
1000
0001
1000
0001
1000
0000
0001
1000
,
0001
0000
1001
1001
,
0100
0001
0100
0001
0100
0000
0001
0100
,
0001
0000
0100
0001
0100
0000
0001
0100
,
0010
0000
1000
0001
0000
0110
0000
0001
,
1000
0000
0100
0010
0002
0000
0003
0000
,
1000
0010
0100
0001
,
0010
0100
1000
0000
0010
0100
0001
0000
,
1000
0001
1000
0010
,
0100
0001
0010
0000
0001
1000
0010
0100
,
0001
0010
0100
1000
,
0010
0000
1000
0100
0010
0000
0001
1000
,
0100
0010
0001
0100
,
0001
0010
0100
0010
0001
0100
0010
0100
,
0001
1000
0100
0010
,
0100
1000
0001
0000
1000
0010
0100
0000
,
0001
0010
0001
1000
,
0010
0100
0010
0000
1000
0100
0010
0001
,
0100
0010
0100
0001
,
0010
0100
1000
0010
1000
0001
0100
0010
,
1000
1000
1000
1000
,
1000
0100
0010
0001
0100
0000
0000
0000
,
0001
0000
0100
0010
0000
0100
0010
0000
,
1000
0100
0010
0001
0100
0000
0010
0000
,
1000
0000
0001
0100
0000
0010
0100
0000
,
0001
0000
1000
0000
0100
0010
0100
1000
,
0001
0000
1000
0010
0000
0100
0001
0000
,
0010
0001
0010
0100
1000
0010
0100
0001
,
1000
0000
0010
0100
0000
0001
0000
1000
,
0100
0010
0001
0100
0001
1000
0010
0000
,
0100
0000
0001
1000
0000
1000
0001
0000
,
0010
0000
0001
0100
0010
0000
1000
0001
,
0100
0010
0000
1000
0000
0001
0000
0010
,
0001
0100
0010
1000
0100
0010
0001
1000
,
0001
0001
0001
0001
,
1000
0100
1000
0000
0001
0100
0001
0000
,
0010
0100
0010
0001
0100
0010
1000
0001
,
1000
0100
0010
0001
1000
0100
1000
0001
,
0100
0000
0000
0000
,
0000
0000
0000
0000
,
0000
0000
0000
0000
,
0000
0000
0000
0000
,
0000
0000
0000
0000
,
0000
0000
0000
0000
,
0000
0000
0000
0000
,
0000
0000
0000
0000
,
0000
0000
0000
0000
,
0000
0000
0000
0000
,
0000
0000
0000
0000
,
0000
0000
0000
0000
,
0000
0000
0000
0000
,
0000
0000
0000
0000
,
0000
0000
0000
0000
,
0000
0000
0000
0000
,
0001
0100
0001
0100
0001
0000
0100
0001
,
0100
0000
0001
0100
0001
0000
0100
0001
,
0100
0001
0100
0001
0100
0000
0001
0100
,
0001
0000
1010
1010
,
1000
0100
1000
0100
1000
0000
0100
1000
,
0100
0000
1000
0100
1000
0000
0100
1000
,
0100
1000
0100
1000
0100
0000
1000
0100
,
1000
0000
0001
0100
0010
0000
1000
0100
,
0010
0001
0010
0001
0010
0000
0001
0010
,
0001
0000
0010
0001
0010
0000
0001
0010
,
0001
0010
0001
0010
0001
0000
0010
0001
,
0010
0000
0101
0101
,
1000
0001
1000
0001
1000
0000
0001
1000
,
0001
0000
1000
0001
1000
0000
0001
1000
,
0010
0100
0010
0100
0010
0100
0010
0100
,
0001
1000
0001
1000
0010
0100
0001
1000
,
0100
0010
0000
0001
0000
0000
1000
0010
,
1000
0100
0000
0010
0000
0001
0100
0000
,
0010
0000
1000
0000
0100
0000
1000
0001
,
0100
0000
0010
1000
0000
1000
0100
0000
,
0010
0001
0000
1000
0000
0000
0001
0100
,
0010
0000
1000
0100
0000
0100
0010
0000
,
0001
1000
0000
1000
0010
0000
1000
0100
,
0010
0000
0001
0100
0000
0010
1000
0000
,
0100
0010
0000
0010
0001
0000
1000
0001
,
1000
0010
0000
0100
0000
0001
1000
0000
,
0100
0010
0001
0000
1000
0000
0001
0100
,
0010
0000
1000
0001
0000
1000
0100
0000
,
0010
0001
0100
0000
0010
0000
1000
0001
,
1000
0000
0100
0010
0000
0100
0010
0000
,
0001
0001
1000
1000
,
0001
0000
0100
0010
2000
0000
3000
0000
,
0100
0010
0001
0000
0100
0000
0001
1000
,
0010
0000
0100
0001
0000
0001
1000
0000
,
0010
1000
0100
0010
,
0001
0100
0010
1000
0000
1000
0001
0000
,
0010
0000
0100
0000
1000
0000
0001
0100
,
0001
0000
0010
0001
0000
1000
0100
0000
,
1000
0010
0000
0100
0001
0000
1000
0000
,
0100
0000
1000
0010
0000
1000
0001
0000
,
0100
0000
0010
0000
0100
0000
0001
1000
,
0010
1000
0100
0010
0000
0001
1000
0000
,
0010
0100
0001
1000
,
0001
0010
0100
1000
0100
0010
0001
0000
,
1000
0010
0100
0001
,
1000
0100
0010
0001
,
0100
0010
0100
0010
0100
0010
0100
0010
,
1000
0000
0010
0100
0010
0100
1000
0001
,
2000
0000
0000
0000
,
0000
0000
0000
0000
,
0000
0000
0000
0000
,
0000
0000
0000
0000
,
0000
0000
0000
0000
,
3000
0000
0000
0000
;

//---------------dance-single - ----------------
#NOTES:
     dance-single:
     :
     Challenge:
     18:
     :
0000
0000
0000
0000
,
0000
0000
0000
0000
,
0000
0000
0000
0000
,
0000
0000
0000
0000
,
0001
0100
0010
0000
1000
0000
0001
0000
,
0010
0100
1000
0000
0001
0000
0000
0000
,
0100
0010
1000
0000
0100
0000
0010
0000
,
0001
0000
0100
0010
1000
0000
0100
0000
,
0010
0001
1000
0001
0010
0000
0100
0000
,
1000
0000
0010
0100
0001
0000
1000
0000
,
0010
1000
0001
0000
0010
0000
0100
1000
,
0001
0100
0020
0000
,
1030
0100
0010
0000
0001
0000
0100
0010
,
1000
0001
0100
0000
,
0010
0100
0001
0100
0010
0000
1000
0001
,
0010
0001
1000
0100
,
1000
0010
0100
0000
0001
0000
0010
0000
,
0001
0000
0100
0010
1000
0000
0000
0000
,
0001
0000
0001
0000
0001
0000
0010
0100
,
1000
0000
0010
0100
0002
0000
0000
0000
,
0013
0001
0010
0100
0000
0100
1000
0000
,
0010
1000
0000
0010
0100
0001
1000
0000
,
0100
0000
0010
0001
0000
0001
1000
0000
,
0010
0100
0000
0010
1000
0001
0100
0000
,
0001
0010
0100
1000
0000
1000
0001
0000
,
0100
0010
0000
1000
0100
0010
0001
0000
,
0100
0001
0010
0100
0000
1000
0010
0100
,
0001
0010
0000
0001
1000
0010
0100
0000
,
0001
0010
0001
1000
0000
1000
0010
0100
,
0010
1000
0010
0100
0000
0001
1000
0000
,
0100
0000
0010
0100
0000
1000
0001
0000
,
0100
0001
0100
0010
1000
0001
0100
0000
,
0001
0001
0001
0001
,
1000
1000
1000
1000
,
0100
0010
0100
0010
0001
1000
0001
1000
,
0001
0010
0100
1000
0100
0010
0001
0000
,
1001
0000
0001
0000
0001
0000
1000
0100
,
0001
0001
1000
1000
,
0010
0010
0010
0100
,
0202
0000
0000
0303
,
1000
0100
0001
1000
,
0010
0001
0100
0010
,
1000
0100
0001
0010
,
0001
0100
0010
1000
,
0100
0100
0100
0100
,
1000
1000
1000
1000
,
0001
0001
0001
1000
,
0202
0000
0000
0303
,
0010
0010
1000
0100
,
0100
0010
0001
0001
,
0100
1000
1000
0001
,
1000
0010
0100
0001
0020
0000
0030
0000
,
0001
0100
0001
0100
0001
0100
0001
0100
,
0001
0100
0001
0100
0001
0000
1000
0100
,
1000
0100
1000
0100
1000
0100
1000
0100
,
1000
0000
0110
0110
,
0001
0010
0001
0010
0001
0010
0001
0010
,
0001
0010
0001
0010
0001
0000
1000
0010
,
1000
0010
1000
0010
1000
0010
1000
0010
,
1000
0000
0001
0100
0010
0100
0001
1000
,
0010
1000
0010
1000
0010
1000
0010
1000
,
0010
1000
0010
1000
0010
0000
0100
0001
,
0100
0001
0100
0001
0100
0001
0100
0001
,
0100
0000
0000
0000
1001
0000
0010
0100
,
0001
0010
0001
0010
0001
0010
0001
0010
,
0001
0010
0001
0010
0001
0000
1000
0100
,
1000
0100
0010
0100
1000
0010
0100
0010
,
1000
0000
0001
0100
0020
0000
0030
0000
,
1000
0000
0001
0100
0010
0000
1000
0100
,
0010
0000
0001
0100
0010
1000
0100
0010
,
0001
1000
0010
1000
0000
0100
0010
0001
,
0000
1000
0010
0100
0010
1000
0001
0000
,
0010
0001
0010
0100
1000
0010
0100
0010
,
1000
0000
0001
0100
0010
1000
0001
1000
,
0100
0000
0010
0001
1000
0000
0010
1000
,
0001
0100
0010
1000
0100
1000
0001
0100
,
0010
0000
1000
0100
0000
0100
0010
0001
,
0100
0010
0100
0001
1000
0010
1000
0001
,
0100
0010
0100
0001
0000
1000
0100
0010
,
0000
0001
0010
0001
0100
0010
1000
0001
,
0100
0000
0010
1000
0000
0010
0100
0001
,
1000
0100
1000
0010
0100
1000
0100
0001
,
0010
0010
0010
0010
,
0010
0001
0100
0010
1000
0001
0100
0000
,
0010
0000
1000
0100
0000
1000
0001
0000
,
0100
0010
0100
0001
0010
0100
1000
0010
,
0100
0000
0001
1000
0000
0010
0100
0000
,
0001
0010
0100
0001
0100
1000
0010
0100
,
0001
0000
1000
0100
0000
0100
0010
0000
,
0100
0010
0100
1000
0001
0100
0010
1000
,
0100
0000
1000
0001
0000
0100
0010
0000
,
0100
0001
0010
0100
1000
0010
1000
0001
,
0010
0000
0001
1000
0000
1000
0100
0000
,
0010
0100
0001
0100
1000
0010
0100
0001
,
0100
0000
0010
1000
0000
1000
0001
0000
,
0100
0010
1000
0001
0010
1000
0010
0001
,
0100
0010
0010
0010
,
1000
0100
0010
0001
1000
0010
0100
0001
,
0010
1000
0010
0001
0100
0010
0100
1000
,
0100
0001
0100
0010
1000
0100
0010
0001
,
0100
0000
0000
0000
,
0000
0000
0000
0000
,
0000
0000
0000
0000
,
0000
0000
0000
0000
,
0000
0000
0000
0000
,
0000
0000
0000
0000
,
0000
0000
0000
0000
,
0000
0000
0000
0000
,
0000
0000
0000
0000
,
0000
0000
0000
0000
,
0000
0000
0000
0000
,
0000
0000
0000
0000
,
0000
0000
0000
0000
,
0000
0000
0000
0000
,
0000
0000
0000
0000
,
0000
0000
0000
0000
,
1000
0010
1000
0010
1000
0010
1000
0010
,
1000
0010
1000
0010
1000
0000
0001
0010
,
0001
0010
0001
0010
0001
0010
0001
0010
,
0001
0000
0000
0000
1000
0100
0010
0001
,
0100
0010
0100
0010
0100
0010
0100
0010
,
0100
0010
0100
0010
0100
0000
0001
1000
,
0001
1000
0001
1000
0001
1000
0001
1000
,
0001
0000
1000
0100
0010
0000
0001
0100
,
0010
1000
0010
1000
0010
1000
0010
1000
,
0010
1000
0010
1000
0010
0000
0100
0001
,
0100
0001
0100
0001
0100
0001
0100
0001
,
0100
0000
1010
1010
,
0100
1000
0100
1000
0100
1000
0100
1000
,
0100
1000
0100
1000
0100
0000
0010
0001
,
1000
0010
1000
0010
0100
0001
0100
0001
,
0010
0001
0010
0001
1000
0100
1000
0100
,
0010
0001
0100
0010
0000
1000
0001
0000
,
1000
0010
0000
0100
0001
0000
0010
0100
,
1000
0010
0100
0010
1000
0100
0010
0100
,
0010
0001
1000
0010
0000
0100
0001
0000
,
0010
0001
1000
0001
0010
0000
0100
1000
,
0001
0000
0100
0010
0000
0010
1000
0000
,
0100
1000
0000
0001
0100
0000
0010
1000
,
0001
0000
1000
0100
0000
0010
0001
0000
,
0100
0010
0000
0100
0001
0010
0100
1000
,
0010
0100
0010
1000
0000
1000
0001
0000
,
0010
0100
0010
0001
0100
0010
1000
0001
,
0100
0010
1000
0100
0000
0100
1000
0000
,
0001
0010
0000
0001
1000
0010
0100
0001
,
0010
0100
0010
0001
0000
0001
1000
0100
,
1000
0000
1000
0000
1000
0000
0010
0100
,
0001
0000
0010
0100
2000
0000
3000
0000
,
0001
0100
0010
0100
0001
0010
0100
0010
,
0001
0000
1000
0010
0000
1000
0010
0000
,
0100
0001
0010
0100
1000
0001
1000
0010
,
0100
0000
0001
1000
0000
1000
0100
0000
,
0010
0001
0000
0010
0100
1000
0010
0100
,
0001
0000
1000
0001
0000
1000
0001
0000
,
0100
0010
1000
0001
0010
0000
0001
0100
,
0010
1000
0100
0010
0001
0100
1000
0000
,
0001
0100
0010
0100
0010
1000
0100
1000
,
0001
0100
0010
1000
0100
0010
0001
0000
,
0010
0000
0010
0000
0010
0000
0001
0100
,
0010
1000
0010
1000
0100
0010
0001
0000
,
1000
0001
1000
0001
1000
0001
1000
0001
,
1000
0001
1000
0001
1000
0000
0010
0100
,
0010
0100
0010
0100
0010
0100
0010
0100
,
0010
0000
1000
0100
0010
0001
0100
0010
,
2000
0000
0000
0000
,
0000
0000
0000
0000
,
0000
0000
0000
0000
,
0000
0000
0000
0000
,
0000
0000
0000
0000
,
3000
0000
0000
0000
;
