#VERSION:0.83;
#TITLE:Vampin' Magic;
#SUBTITLE:;
#ARTIST:uma;
#TITLETRANSLIT:;
#SUBTITLETRANSLIT:;
#ARTISTTRANSLIT:;
#GENRE:;
#ORIGIN:;
#CREDIT:;
#BANNER:Vampin' Magic-bn.png;
#BACKGROUND:Vampin' Magic-bg.png;
#PREVIEWVID:;
#JACKET:Vampin' Magic-jacket.png;
#CDIMAGE:;
#DISCIMAGE:;
#LYRICSPATH:;
#CDTITLE:;
#MUSIC:Vampin' Magic.ogg;
#OFFSET:0.000000;
#SAMPLESTART:22.971001;
#SAMPLELENGTH:20.000000;
#SELECTABLE:YES;
#DISPLAYBPM:175.000000;
#BPMS:0.000=175.000;
#STOPS:;
#DELAYS:;
#WARPS:;
#TIMESIGNATURES:0.000=4=4;
#TICKCOUNTS:0.000=4;
#COMBOS:0.000=1;
#SPEEDS:0.000=1.000=0.000=0;
#SCROLLS:0.000=1.000;
#FAKES:;
#LABELS:0.000=Song Start;
#BGCHANGES:;
#KEYSOUNDS:;
#ATTACKS:
;

//---------------dance-single - ----------------
#NOTEDATA:;
#CHARTNAME:;
#STEPSTYPE:dance-single;
#DESCRIPTION:;
#CHARTSTYLE:;
#DIFFICULTY:Hard;
#METER:12;
#RADARVALUES:0.611231,0.640529,0.387434,0.000000,0.673798,508.000000,462.000000,46.000000,0.000000,0.000000,0.000000,0.000000,0.000000,0.000000,0.611231,0.640529,0.387434,0.000000,0.673798,508.000000,462.000000,46.000000,0.000000,0.000000,0.000000,0.000000,0.000000,0.000000;
#CREDIT:;
#DISPLAYBPM:175.000000;
#NOTES:
0000
0000
0000
0000
,
0000
0000
0000
0000
,
0000
0000
0000
0000
,
0000
0000
0000
0000
,
0000
0000
0000
0000
,
0001
0000
0000
0000
0000
1000
0100
0000
0000
0000
0000
1000
,
0100
0000
0100
0010
0000
0010
0001
0000
0000
1000
0000
0000
,
0010
0000
0000
0000
0000
0100
0001
0000
0000
1000
0000
1000
,
0100
0000
0000
0100
0000
0000
0100
0000
0000
0010
0000
0010
,
0001
0000
1000
0001
0000
1000
0001
0000
0000
0100
0000
0100
,
0010
0000
0010
1000
0000
1000
0010
0000
0000
0010
0000
0100
,
0001
0000
0001
1000
0000
1000
0001
0000
0001
0010
0000
0010
,
0100
0100
0100
1100
,
0101
0000
0000
0010
0000
0000
1000
0000
0010
0100
0000
0001
,
0010
0000
0010
0100
0000
0100
0010
0000
0000
0001
0000
1000
,
0100
0000
1000
0010
0000
1000
0001
0000
1000
0001
0000
0010
,
0100
0000
0000
0100
0000
0000
0100
0000
0000
1000
0000
0001
,
1000
0000
0000
0110
0000
0000
0001
0000
0001
0100
0000
0100
,
0010
0000
1000
0001
0000
1000
0100
0000
0100
0010
0000
0000
,
0001
0000
0000
0011
0000
0000
1000
0000
1000
0001
0000
0001
,
0100
0000
0000
0001
0000
1000
0001
0000
0010
0100
0000
0000
,
1100
0000
0000
0101
0000
0000
1000
0000
0010
0100
0000
0001
,
1000
0000
1000
0100
0000
0100
1000
0000
1000
0001
0000
0000
,
1001
0000
0000
0110
0000
0000
0100
0000
0001
0100
0000
0100
,
0010
0000
0000
1010
0000
0000
0101
0000
0000
1000
0000
0001
,
0100
0000
0000
0100
0000
0010
1000
0000
0010
1000
0000
0001
,
0100
0000
0100
0010
0000
0010
0100
0000
0001
1000
0000
0000
,
0100
0000
0000
1000
0000
0001
0010
0000
0010
0100
0000
1000
,
0100
0000
0100
0010
0000
0010
0001
0000
1000
0010
0000
0000
,
1001
0000
0000
0100
0000
0001
1000
0000
0000
0010
0000
1000
,
0010
0000
0010
0100
0000
0100
0010
0000
1000
0001
0000
0000
,
0011
0000
0000
0100
0000
0001
0010
0000
0100
1000
0001
1000
,
0001
0000
0000
1000
0010
0100
0001
0000
0000
0110
0000
0000
,
1001
0000
0000
0000
0000
0100
0010
0000
0000
1000
0000
0001
,
1000
0000
0000
0100
0000
0100
0010
0000
0000
0001
0000
0000
,
0100
0000
0000
0000
0000
0001
1000
0000
0000
0010
0000
1000
,
0100
0000
0000
1000
0000
0001
1000
0000
0000
1100
0000
0000
,
0011
0000
0000
0100
0000
0100
0010
0000
0000
1000
0000
1000
,
0010
0000
0000
0100
0000
0001
1000
0000
0000
1010
0000
0000
,
0101
0000
0000
1000
0000
0001
0010
0000
0000
0100
0000
0100
,
1000
0001
0011
1010
,
0100
0000
0100
0001
0000
1000
0001
0000
0000
0010
0000
0010
,
0001
0000
0000
0001
0000
0100
1000
0000
0000
0010
0000
1000
,
0100
0000
0000
1000
0000
1000
0001
0000
0001
1000
0000
0010
,
0100
0100
0100
0101
,
1100
0000
0000
0001
0000
1000
0100
0000
0000
0010
0000
0001
,
1000
0000
0000
1000
0000
0001
0010
0000
0000
0001
0000
1000
,
0100
0000
0000
0100
0000
0000
0100
0000
0000
0100
1000
0001
,
0100
0100
0100
0000
,
0110
0000
0000
0000
0000
1000
0001
0000
0000
0000
0000
0010
,
0001
0000
0010
0001
0000
0010
0001
0000
0000
0100
0000
0000
,
1000
0000
0000
0000
0000
0010
0100
0000
0000
0001
0000
1000
,
0001
0000
0001
0010
0000
0010
0001
0000
0000
1000
0000
0000
,
1010
0000
0000
0000
0000
0100
0001
0000
0000
0000
0000
0100
,
0001
0000
0001
1000
0000
1000
0001
0000
0000
0100
0000
0000
,
0010
0000
0000
0000
0000
1000
0001
0000
0000
1000
0000
1000
,
0100
0100
0100
0110
,
1001
0000
0000
0000
0000
0100
0010
0000
0000
0000
0000
0100
,
0001
0000
1000
0001
0000
0010
0100
0000
0000
1000
0000
0000
,
0010
0000
0000
0100
0000
0001
1000
0000
0000
0010
0000
1000
,
0100
0000
0100
0010
0000
0010
0001
0000
0000
0011
0000
0000
,
1100
0000
0000
0001
0000
0001
1000
0000
0000
0010
0000
0100
,
0001
0000
0100
0001
0000
1000
0100
0000
0000
0010
0000
0000
,
0011
0000
0000
0100
0000
0100
0001
0000
0000
1000
0000
0001
,
0100
0100
0100
0000
,
1010
0000
0000
0101
0000
0000
1000
0000
1000
0001
0000
0001
,
0010
0000
0010
0001
0000
0001
1000
0000
1000
0010
0000
0000
,
1001
0000
0000
1100
0000
0000
0010
0000
0001
0010
0000
0100
,
1000
0000
0000
0001
0000
1000
0001
0000
0100
0010
0000
0000
,
0101
0000
0000
1100
0000
0000
0010
0000
1000
0001
0000
0100
,
0001
0000
0010
0001
0000
0010
0100
0000
0100
1000
0000
0000
,
1001
0000
0000
1010
0000
0000
0100
0000
0100
0001
0000
0001
,
1000
0000
0000
0110
0000
0000
1001
0000
0000
0100
0000
0100
,
0010
0000
1000
0001
0000
0000
1000
0000
0100
0010
0000
0001
,
0100
0000
0000
0010
0000
0010
1000
0000
1000
0001
0000
0000
,
0100
0000
0000
0101
0000
0000
1000
0000
1000
0001
0000
0001
,
0010
0000
0001
0100
0000
0010
1000
0000
0000
1000
0000
0000
,
1100
0000
0000
0011
0000
0000
0100
0000
0001
0010
0000
0100
,
1000
0000
0010
1000
0000
0001
1000
0000
0010
0100
0000
0000
,
0001
0000
0001
1000
0000
1000
0001
0000
0001
1000
0000
1000
,
0100
1100
0101
0000
,
0010
1000
0010
1000
,
0100
0010
0001
0000
,
0100
0000
0100
0001
0000
0001
1000
0000
1000
0010
0100
0001
,
1000
1010
0101
0000
;

//---------------dance-single - ----------------
#NOTEDATA:;
#CHARTNAME:;
#STEPSTYPE:dance-single;
#DESCRIPTION:;
#CHARTSTYLE:;
#DIFFICULTY:Medium;
#METER:10;
#RADARVALUES:0.513771,0.569359,0.471658,0.000000,0.328476,427.000000,371.000000,56.000000,0.000000,0.000000,0.000000,0.000000,0.000000,0.000000,0.513771,0.569359,0.471658,0.000000,0.328476,427.000000,371.000000,56.000000,0.000000,0.000000,0.000000,0.000000,0.000000,0.000000;
#CREDIT:;
#DISPLAYBPM:175.000000;
#NOTES:
0000
0000
0000
0000
,
0000
0000
0000
0000
,
0000
0000
0000
0000
,
0000
0000
0000
0000
,
0000
0000
0000
0000
,
0001
0000
1000
0000
,
0001
0000
0001
0100
0000
0100
0010
0000
0000
1000
0000
0000
,
0100
0000
0000
0000
0000
0000
1000
0000
0000
0001
0000
1000
,
0010
0010
0010
0000
,
0100
0000
0000
0001
0000
0000
0010
0000
0000
0100
0000
0100
,
1000
0000
0000
0001
0000
0000
1000
0000
0000
0010
0000
1000
,
0100
0000
0000
1000
0000
1000
0001
0000
0000
0010
0000
0001
,
0100
0100
0100
0101
,
1100
0000
0000
0010
0000
0000
0001
0000
0000
0100
0000
0010
,
1000
0000
0000
0001
0000
0000
1000
0000
0000
0100
0000
0010
,
0001
0000
0000
0100
0000
0010
1000
0000
0000
0001
0000
1000
,
0100
0000
0000
0100
0000
0000
0100
0000
0000
1000
0000
1000
,
0001
0000
0000
0110
0000
0000
1001
0000
0000
0100
0000
0100
,
0010
0000
0000
1000
0000
1000
0001
0000
0000
0010
0000
0000
,
0100
0000
0000
1100
0000
0000
0101
0000
0000
0010
0000
1000
,
0001
0000
0000
1000
0000
0100
0010
0000
0000
0001
0000
0000
,
0100
0000
0000
1010
0000
0000
0101
0000
0000
1000
0000
1000
,
0001
0000
0000
0010
0000
0001
0100
0000
0000
0110
0000
0000
,
1001
0000
0000
0010
0000
0000
0110
0000
0000
0100
0000
0001
,
1000
1100
0011
0000
,
1001
0000
0000
0000
0000
0100
1000
0000
0000
0000
0000
0001
,
0100
0000
0000
0010
0000
0010
1000
0000
0000
0001
0000
0000
,
0010
0000
0000
0001
0000
0000
0100
0000
0000
0010
0000
1000
,
0010
0000
0100
0001
0000
1000
0000
0000
0100
0010
0000
0000
,
0011
0000
0000
0000
0000
1000
0001
0000
0000
0000
0000
1000
,
0100
0000
0000
1000
0000
0001
0100
0000
0000
0010
0000
0000
,
1010
0000
0000
0001
0000
1000
0001
0000
0000
0010
0000
0100
,
1000
1100
0101
0000
,
0110
0000
0000
0000
0000
0001
1000
0000
0000
1000
0000
0100
,
0010
0001
0100
0101
,
1100
0000
0000
1000
0000
0010
1000
0000
0000
0010
0000
0100
,
0001
0011
1100
0000
,
1001
0000
0000
1000
0000
1000
0001
0000
0000
0010
0000
0001
,
0100
0010
1000
0001
,
0010
0000
0000
0001
0000
0001
1000
0000
0000
0001
0000
0001
,
0100
0010
1010
0011
,
0100
0000
0000
1000
0000
0001
1000
0000
0000
0010
0000
0100
,
0001
0010
0100
1000
,
0010
0000
0000
1000
0000
0001
1000
0000
0000
0001
0000
0010
,
0100
0100
0100
0110
,
1001
0000
0000
0010
0000
0100
0001
0000
0000
1000
0000
1000
,
0001
0010
0001
1000
,
0100
0000
0000
0100
0000
0000
0100
0000
0000
0100
0000
1000
,
0100
0000
1000
0100
0000
0000
0100
0000
0000
0000
0000
0000
,
1100
0000
0101
0000
,
1000
0010
1000
0001
,
0010
0000
0000
0000
0000
0001
1000
0000
0000
0001
0000
0000
,
0100
0010
1000
0100
,
0010
0000
0000
0000
0000
0000
0001
0000
0000
0000
0000
1000
,
0001
1000
0010
0100
,
0001
0000
0000
0000
0000
0010
0001
0000
0000
1000
0000
0010
,
0100
0100
0100
0110
,
1001
0000
0000
0000
0000
1000
0100
0000
0000
0000
0000
1000
,
0010
0010
1000
0001
,
0100
0000
0000
0001
0000
1000
0001
0000
0000
0000
0000
0000
,
0010
0000
0001
0100
0000
0000
0010
0000
0000
1010
0000
0000
,
0101
0000
0000
1000
0000
0000
0001
0000
0000
0010
0000
0001
,
0100
0000
0000
0010
0000
1000
0001
0000
0000
1100
0000
0000
,
0101
0000
0000
1010
0000
0000
0101
0000
0000
1000
0000
1000
,
0001
0011
1100
0000
,
0010
0000
0000
0010
0000
0000
1000
0000
1000
0001
0000
0001
,
0100
0000
0000
0001
0000
1000
0100
0000
0000
0010
0000
0000
,
0001
0000
0000
1000
0000
0000
0001
0000
0000
0010
0000
0001
,
0100
0000
0000
0010
0000
0010
1000
0000
0000
0001
0000
0000
,
0010
0010
0100
1000
,
0001
0000
0000
1000
0000
1000
0010
0000
0010
0100
0000
0000
,
0110
0000
0000
0001
0000
0000
1001
0000
0000
0100
0000
0010
,
1000
0000
0000
1100
0000
0000
0011
0000
0000
1000
0000
1000
,
0001
0000
0000
1010
0000
0000
1100
0000
0000
0010
0000
0001
,
0100
0000
0000
0010
0000
1000
0010
0000
1000
0100
0000
0000
,
0110
0000
0000
0011
0000
0000
0100
0000
0001
1000
0000
0001
,
0100
0010
1010
0101
,
1100
0000
0000
0001
0000
0000
1000
0000
1000
0010
0000
0000
,
0100
0000
0000
0001
0000
1000
0001
0000
0000
1001
0000
0000
,
0010
0000
0000
0100
0000
0000
0010
0000
1000
0010
0000
0100
,
0001
0101
1100
0000
,
1000
1000
0001
0001
,
1000
0001
1000
0000
,
0010
0000
0000
0001
0000
0001
1000
0000
0000
0010
0000
1000
,
0100
1010
0101
0000
;

//---------------dance-single - ----------------
#NOTEDATA:;
#CHARTNAME:;
#STEPSTYPE:dance-single;
#DESCRIPTION:;
#CHARTSTYLE:;
#DIFFICULTY:Easy;
#METER:7;
#RADARVALUES:0.372995,0.462604,0.252674,0.000000,0.000000,310.000000,280.000000,30.000000,0.000000,0.000000,0.000000,0.000000,0.000000,0.000000,0.372995,0.462604,0.252674,0.000000,0.000000,310.000000,280.000000,30.000000,0.000000,0.000000,0.000000,0.000000,0.000000,0.000000;
#CREDIT:;
#DISPLAYBPM:175.000000;
#NOTES:
0000
0000
0000
0000
,
0000
0000
0000
0000
,
0000
0000
0000
0000
,
0000
0000
0000
0000
,
0000
0000
0000
0000
,
0001
0000
1000
0000
,
0001
0001
1000
0100
,
0010
0000
0001
1000
,
0001
0100
0100
0000
,
0010
1000
0001
0000
,
1000
0100
1000
0000
,
0010
0010
1000
0001
,
0100
0100
0100
0110
,
1001
0010
1000
0100
,
1000
0001
0001
0010
,
0001
0100
0010
1000
,
0100
0100
0100
0110
,
1001
0100
0001
0010
,
0001
0100
0010
1000
,
0100
0100
0010
0010
,
0001
1000
0001
0000
,
0100
0001
0010
0001
,
1000
0001
0010
0100
,
1000
1000
0001
0001
,
0100
0010
0100
0000
,
1001
0000
0110
0000
,
1000
0010
1000
0001
,
0010
0000
0001
0100
,
1000
1000
1000
0001
,
1001
0000
0110
0000
,
1000
0010
0100
0001
,
0010
0001
0010
0100
,
1000
1000
1000
0000
,
0001
0000
1000
0000
,
0001
0010
0001
0100
,
0010
0000
1000
0000
,
0100
1000
1100
0101
,
0010
0000
0100
0001
,
1000
0001
0010
0100
,
1000
0010
1000
0001
,
0100
0010
1010
0101
,
1000
1000
1000
0100
,
0001
0010
0100
1000
,
0010
1000
0010
1000
,
0100
0100
0100
0000
,
1000
0001
0010
0001
,
0100
0010
1000
0001
,
0100
0100
0100
0100
,
0100
0100
0100
0000
,
0110
0000
1001
0000
,
0100
0001
1000
0000
,
0001
0000
0010
0000
,
0001
0100
1000
0010
,
0100
0000
0100
0000
,
0100
0001
1000
0100
,
0010
0000
0010
0001
,
1000
1000
0001
0110
,
1001
0000
0100
0000
,
0010
0100
0010
0100
,
0001
0000
1000
0000
,
0010
0010
0010
1010
,
0101
0000
1000
0100
,
1000
0010
0100
0001
,
0011
0100
1000
0001
,
1001
0110
1001
0000
,
0010
0010
1000
0001
,
1000
0100
0100
0010
,
0100
0010
0001
0100
,
0001
1000
0001
0000
,
0010
0001
0010
0100
,
1000
0010
0100
0001
,
1000
1000
0001
0001
,
0010
0001
0100
0010
,
1010
0101
1000
0100
,
1000
0001
0010
0100
,
1100
0011
0100
0001
,
1000
0010
0101
1100
,
0001
0001
1000
1000
,
0001
0010
0100
0010
,
0001
0100
1000
0010
,
1000
0001
0100
0000
,
0010
0010
0010
0010
,
0010
0010
0010
0000
,
1010
0000
0001
1000
,
0100
0100
1001
0000
;

//---------------dance-single - ----------------
#NOTEDATA:;
#CHARTNAME:;
#STEPSTYPE:dance-single;
#DESCRIPTION:;
#CHARTSTYLE:;
#DIFFICULTY:Beginner;
#METER:5;
#RADARVALUES:0.215375,0.284680,0.067380,0.000000,0.000000,179.000000,171.000000,8.000000,0.000000,0.000000,0.000000,0.000000,0.000000,0.000000,0.215375,0.284680,0.067380,0.000000,0.000000,179.000000,171.000000,8.000000,0.000000,0.000000,0.000000,0.000000,0.000000,0.000000;
#CREDIT:;
#DISPLAYBPM:175.000000;
#NOTES:
// measure 0
0000
0000
0000
0000
,  // measure 1
0000
0000
0000
0000
,  // measure 2
0000
0000
0000
0000
,  // measure 3
0000
0000
0000
0000
,  // measure 4
0000
0000
0000
0000
,  // measure 5
0001
0000
0001
0000
,  // measure 6
0001
0000
0100
0000
,  // measure 7
0010
0000
0010
0000
,  // measure 8
1000
1000
1000
0000
,  // measure 9
0001
0000
1000
0000
,  // measure 10
0001
0000
0010
0000
,  // measure 11
0100
0000
1000
0000
,  // measure 12
0100
0100
0100
0000
,  // measure 13
1000
0000
0001
0000
,  // measure 14
1000
0000
0010
0000
,  // measure 15
0100
0000
0001
0000
,  // measure 16
0100
0100
0100
0000
,  // measure 17
0010
0010
0010
0000
,  // measure 18
1000
0000
0001
0000
,  // measure 19
0010
0010
0010
0000
,  // measure 20
0100
0000
1000
0000
,  // measure 21
0001
0001
0001
0000
,  // measure 22
1000
0000
0010
0000
,  // measure 23
1000
0000
0001
0000
,  // measure 24
0100
0100
0100
0000
,  // measure 25
1001
0000
0110
0000
,  // measure 26
1000
0000
0000
0000
,  // measure 27
1001
0000
0110
0000
,  // measure 28
0001
0000
1000
0000
,  // measure 29
0100
0000
0100
0000
,  // measure 30
0100
0000
0000
0000
,  // measure 31
1000
0000
1000
0000
,  // measure 32
0001
0001
0001
0000
,  // measure 33
0010
0000
0000
0000
,  // measure 34
0001
0000
0100
0000
,  // measure 35
0001
0000
1000
0000
,  // measure 36
0010
0000
0100
0000
,  // measure 37
0001
0000
0000
0000
,  // measure 38
1000
0000
0000
0000
,  // measure 39
0100
0000
0010
0000
,  // measure 40
0100
0000
1000
1000
,  // measure 41
1000
0000
0001
0000
,  // measure 42
0010
0000
0001
0000
,  // measure 43
0100
0000
0010
0000
,  // measure 44
0100
0100
0100
0000
,  // measure 45
0010
0000
1000
0000
,  // measure 46
0001
0000
1000
0000
,  // measure 47
0100
0000
0100
0000
,  // measure 48
0100
0100
0100
0000
,  // measure 49
0110
0000
0000
0000
,  // measure 50
0000
0000
0000
0000
,  // measure 51
0000
0000
0000
0000
,  // measure 52
0000
0000
0000
0000
,  // measure 53
0001
0000
0000
0000
,  // measure 54
1000
0000
0000
0000
,  // measure 55
0001
0000
0000
0000
,  // measure 56
0010
0010
0010
0000
,  // measure 57
1001
0000
0100
0000
,  // measure 58
0001
0000
1000
0000
,  // measure 59
0001
0000
0010
0000
,  // measure 60
0100
0000
1000
0000
,  // measure 61
0010
0000
0010
0000
,  // measure 62
0100
0000
0100
0000
,  // measure 63
0010
0000
1000
0000
,  // measure 64
0001
0001
0001
0000
,  // measure 65
0010
0010
0010
0010
,  // measure 66
0010
0000
0001
0000
,  // measure 67
1000
0000
0001
0000
,  // measure 68
1000
0000
0100
0000
,  // measure 69
1000
1000
1000
0000
,  // measure 70
0010
0000
0100
0000
,  // measure 71
0010
0000
1000
0000
,  // measure 72
0001
0001
0001
0000
,  // measure 73
0010
0100
0010
0100
,  // measure 74
0010
0000
0001
0000
,  // measure 75
1000
0010
1000
0010
,  // measure 76
1000
0000
0100
0000
,  // measure 77
0010
0001
0010
0000
,  // measure 78
0001
1000
0001
0000
,  // measure 79
0100
0001
0100
0001
,  // measure 80
0100
0001
0100
0000
,  // measure 81
0010
0000
1000
0000
,  // measure 82
0001
0000
0100
0000
,  // measure 83
0001
0000
1000
0000
,  // measure 84
0110
0000
1001
0000
;
