#TITLE:Valkyrie dimension;
#SUBTITLE:;
#ARTIST:Spriggan;
#TITLETRANSLIT:;
#SUBTITLETRANSLIT:;
#ARTISTTRANSLIT:;
#GENRE:;
#CREDIT:;
#BANNER:Valkyrie dimension-bn.png;
#BACKGROUND:Valkyrie dimension-bg.png;
#LYRICSPATH:;
#CDTITLE:;
#MUSIC:Valkyrie dimension.ogg;
#OFFSET:0.000000;
#SAMPLESTART:2.680000;
#SAMPLELENGTH:20.000000;
#SELECTABLE:YES;
#DISPLAYBPM:90.000000:240.000000;
#BPMS:0.000000=90.000000
,16.000000=98.000000
,20.000000=116.000000
,24.000000=134.000000
,28.000000=152.500000
,32.000000=170.000000
,36.000000=187.500000
,40.000000=204.000000
,44.000000=222.000000
,48.000000=240.000000
,68.000000=186.000000
,316.000000=195.000000
;
#STOPS:
;
#BGCHANGES:0.000=Valkyrie dimension.avi=1.000=0=0=0=StretchNoLoop====,
332.000=Valkyrie dimension-bg.png=1.000=1=0=0=StretchNoLoop==CrossFade==,
99999=-nosongbg-=1.000=0=0=0 // don't automatically add -songbackground-
;
#KEYSOUNDS:;
#ATTACKS:;

//---------------dance-single - ----------------
#NOTES:
     dance-single:
     :
     Hard:
     16:
     0.858438,1.202242,0.428607,0.051433,0.561475,701.000000,651.000000,50.000000,6.000000,0.000000,0.000000,0.858438,1.202242,0.428607,0.051433,0.561475,701.000000,651.000000,50.000000,6.000000,0.000000,0.000000:
0000
0000
0000
0000
,
0001
0100
0010
1000
0100
0010
0011
0000
,
0001
1000
0010
0100
0010
1000
1100
0000
,
0010
1000
0001
1000
0100
0010
0110
0000
,
0001
0100
0010
1000
0010
0100
0101
0000
,
1000
0010
1000
0001
0000
0010
0001
0100
,
0010
1000
0010
0100
0000
0001
1000
0100
,
1000
0010
1000
0001
0000
0010
0100
0000
,
1000
0001
0100
0000
0001
0010
1000
0000
,
0100
0010
0100
1000
0010
1000
1001
0000
,
0001
0010
0001
0100
0010
1000
1010
0000
,
1000
0001
0010
0001
0100
0010
0110
0000
,
0010
1000
0100
0010
0001
0100
0101
0000
,
1000
0100
0001
0010
0100
0001
0010
1000
,
0001
0100
0001
1000
0010
0100
0010
1000
,
0100
0010
1000
0001
0100
1000
0010
0001
,
0100
1000
0001
0010
0001
0100
0010
1000
,
2200
0000
0000
0300
,
3001
0010
0001
0100
1000
0010
1001
0000
,
0100
0000
0001
0000
0010
0000
0000
0000
0001
1000
0001
0000
0100
0000
0010
0000
,
1000
0000
0100
0000
1000
0000
0010
0000
0100
0001
0100
0000
0010
0000
1000
0000
,
0100
0000
0010
0000
0001
0000
0000
0000
1000
0001
1000
0000
0010
0000
0000
0000
,
0100
0001
0000
0100
0001
0000
0010
0000
0100
1000
0000
1000
0010
0000
0000
0000
,
0100
0000
0001
0000
0010
0000
0001
0000
1000
0010
1000
0000
0100
0000
0010
0000
,
0001
0100
0001
0000
1000
0000
0010
0000
1000
0000
0100
0000
0001
0000
0000
0000
,
0010
0001
0010
0000
0100
0000
0000
0000
1000
0010
1000
0000
0001
0000
0000
0000
,
0100
0010
0100
0000
0001
0000
1000
0010
0100
0010
1000
0000
0001
0000
0100
0000
,
0001
0010
0001
0000
1000
0000
0010
0000
1000
0100
1000
0000
0001
0000
0100
0000
,
0001
0000
0010
0000
1000
0000
0100
0000
1000
0001
0100
0000
0010
0000
1000
0000
,
0100
0000
0010
0000
0001
1000
0000
0001
1000
0000
0010
0000
0100
0000
0001
1000
,
0001
0010
0000
0010
0100
0000
1000
0000
0010
0100
0000
0000
0001
1000
0100
0000
,
1000
0000
0001
0000
0010
0000
0100
1000
0001
1000
0100
0000
0010
0000
0001
0000
,
0100
0010
0100
0000
0001
0000
0001
0000
0001
0000
1000
0000
0010
0000
0100
0000
,
0001
0010
0100
0000
1000
0000
0001
0000
1000
0010
0100
0000
0001
0000
1000
0010
,
0100
0001
0100
0000
0010
1000
0010
0000
1000
0100
1000
0000
0001
0010
0001
0000
,
0101
0000
0010
1000
0001
0000
1000
0100
,
0000
0010
0001
1000
1001
0000
0000
0000
,
0110
1000
0000
0100
1000
0010
0001
0000
,
0100
0001
0010
0000
0011
0000
0000
0100
,
1010
0001
0000
1000
0010
0000
1000
0100
,
0000
0010
0001
0000
0101
0010
0000
1000
,
0001
0010
0001
0100
,
1000
0010
1000
0001
1000
0100
0010
0001
,
0110
1000
0000
1100
0001
0000
0010
0001
,
0100
0010
1000
0001
0000
1000
0010
0100
,
1001
0010
0000
0101
1000
0000
0010
1000
,
0100
0010
0001
1000
0000
0001
0100
0010
,
1010
0100
0000
0101
1000
0010
1000
0001
,
1000
0100
0010
0001
0000
0100
0010
1000
,
0110
0000
0001
0000
0000
0000
0011
0000
0100
0000
1000
0000
0010
0000
1000
0001
,
1000
0010
1000
0001
1000
0100
0010
0001
,
0101
0010
0000
1010
0001
1000
1100
0010
,
0001
0101
0010
1000
1100
0010
0011
0100
,
1001
0010
0000
1010
0001
0100
0110
1000
,
0001
0011
1000
0100
1100
0010
0101
1000
,
1010
0001
0000
0110
1000
0010
1001
0100
,
0001
1010
1000
0100
0011
1000
1100
0010
,
0101
1000
0000
1001
0010
1000
1100
0010
,
0001
0110
1000
0001
0011
0100
1010
1000
,
0001
0000
0100
0000
0001
0000
0010
0000
0100
1000
0010
1000
0100
0010
0001
1000
,
0002
0000
0000
0000
0000
0000
0103
0010
1000
0010
0100
0001
1000
0001
0010
0100
,
1000
0000
0010
1000
0000
1000
0100
0000
0010
0001
0000
0001
0100
0000
0010
0100
,
0001
0000
0000
1000
0000
0000
0001
0000
0010
0100
0000
0100
1000
0000
0001
1000
,
0010
0000
0000
0100
0000
0000
0001
0000
1000
0100
0000
1000
0001
0000
0010
0000
,
0001
0000
0100
0010
0000
0100
0010
0000
1000
0100
0000
1000
0010
0100
0001
1000
,
0100
0000
0010
0001
0000
0001
0100
0000
0010
1000
0000
1000
0100
0000
1000
0001
,
0010
0000
0001
0100
0000
0001
0100
0000
0010
1000
0000
0010
1000
0000
0001
0000
,
0010
0000
0001
0100
0000
0010
1000
0000
0100
0000
0010
0001
0000
1000
0100
0000
,
1000
0000
0010
0100
0000
0000
0001
1000
0001
0010
0100
0010
0001
0100
0010
1000
,
0001
0000
0000
0000
1001
0000
0000
0000
0010
1000
0000
0100
0010
0000
0001
1000
,
0001
0000
0000
0100
0000
0000
0010
0000
1000
0100
0000
1000
0100
0010
0001
1000
,
0001
0000
0000
0010
0000
0000
0001
0000
1000
0010
0000
1000
0100
0010
0001
0000
,
0100
0000
0010
1000
0000
0010
0100
0000
0001
1000
0000
0001
1000
0100
0010
0001
,
0100
0000
0010
1000
0000
1000
0001
0000
1000
0100
0000
0100
0010
0000
0001
1000
,
0001
0000
0000
0100
0000
0000
0010
0000
1000
0001
0000
1000
0100
0000
0010
0000
,
0001
0000
1000
0010
0000
1000
0100
0000
0010
0000
0100
1000
0000
0001
1000
0000
,
0010
0000
0100
0010
0000
0100
0010
0000
1000
0000
0001
0100
0000
0001
1000
0000
,
0202
0000
0000
0000
,
0000
0000
0000
0300
,
1003
0001
1000
0001
1000
0001
1000
0001
1000
0001
1000
0001
1000
0001
1000
0001
,
1000
0001
1000
0001
1000
0001
1000
0001
1000
0001
1000
0001
1000
0001
1000
0001
,
0020
0000
0000
0000
,
0000
0000
0000
0000
,
0000
0000
0000
0000
,
0000
0000
0000
0000
,
0030
0000
0000
0000
;

//---------------dance-single - ----------------
#NOTES:
     dance-single:
     :
     Medium:
     13:
     0.586579,0.655769,0.342886,0.068577,0.210017,479.000000,439.000000,40.000000,8.000000,0.000000,0.000000,0.586579,0.655769,0.342886,0.068577,0.210017,479.000000,439.000000,40.000000,8.000000,0.000000,0.000000:
0000
0000
0000
0000
,
0001
1000
0010
0000
0000
1000
0100
0000
,
0010
0001
0100
0000
0000
0001
1000
0000
,
0100
0010
0001
0000
0000
1000
0001
0000
,
0100
0010
1000
0000
0001
0010
0100
0000
,
1000
0001
1000
0010
0000
0100
0000
0001
,
0010
0100
0000
1000
0000
0010
0000
1000
,
0001
0000
0101
0000
0001
0010
1000
0000
,
0100
0010
0001
0000
1000
0001
0100
0000
,
0010
1000
0010
0100
0010
0000
0110
0000
,
0001
0010
0001
0000
1000
0100
1000
0000
,
0001
0010
0100
0000
1000
0001
0100
0000
,
0001
1000
0001
1000
0010
0100
0001
0000
,
0010
0000
0001
0000
0100
0000
0010
0000
1000
0000
0100
0000
,
1000
0000
0001
0000
1000
0000
0010
0000
0100
0000
0001
0000
,
0010
0000
0100
0000
0010
0000
0001
0000
1000
0000
0100
0000
,
1000
0000
0010
0000
1000
0000
0100
0000
0010
0000
0002
0000
,
2000
0000
0000
0003
,
3001
1000
0001
1000
0100
0010
0001
0000
,
1000
0001
0100
0000
0001
0010
1000
0100
,
1000
0000
0010
1000
0100
0010
0001
1000
,
0010
0000
0101
0000
1000
0001
0100
0000
,
0001
0010
0001
0100
0001
0010
1000
0100
,
0010
0000
0001
0100
0001
1000
0010
0100
,
0001
0000
1000
1000
1000
0000
0110
0000
,
1000
0100
0010
0000
0001
1000
0100
0000
,
0010
0001
0010
0100
1000
0010
1000
0001
,
0100
0010
1000
0000
0001
0010
0001
0100
,
1000
0000
0010
1000
0010
0100
0001
1000
,
0001
0000
0011
0000
1000
0100
0001
0010
,
0001
0100
0001
0010
0001
0100
1000
0010
,
0100
0001
1001
0000
0010
1000
0010
0100
,
0001
0000
0010
0010
0010
0000
0110
0000
,
1100
1000
0001
0000
0100
0010
1000
0000
,
0001
0010
0001
0000
1000
0010
1000
0001
,
0100
0000
0010
0000
1000
0000
0001
0010
,
0001
0000
0100
0000
1010
0000
0000
0001
,
0001
0000
0000
0010
0100
0000
1000
0000
,
0010
0100
0101
0000
,
1001
0000
0000
0001
1000
0000
0100
0000
,
0000
0010
0000
0000
0011
0000
0000
1000
,
0001
0010
0001
0100
,
1000
0010
1000
0001
1000
0100
0010
0001
,
0101
0000
0000
1100
0000
0000
0001
0000
,
1000
0001
1000
0100
0000
0010
0000
0001
,
0101
0000
0000
1010
0000
0000
0100
0000
,
0010
0000
1000
0001
0000
1000
0000
0100
,
0110
0000
0000
1001
0000
0000
0010
0000
,
1000
0100
1000
0001
0000
0010
0000
0100
,
1100
0000
0000
0011
0000
0000
1000
0001
,
1000
0010
0100
0001
1000
0100
0010
0001
,
0101
0000
0000
1100
0000
0000
1010
0000
,
1000
0001
0100
0000
1001
0000
0101
0000
,
0110
0000
0000
1010
0000
0000
1100
0000
,
0010
0001
0100
0000
0101
0000
1010
0000
,
1001
0000
0000
0110
1000
0000
0101
0000
,
0001
0010
0100
0000
1100
0000
0011
0000
,
1010
0000
0000
0110
0001
0000
0101
0000
,
1000
0001
0010
0001
0100
0010
1000
0001
,
0200
0000
0320
0000
,
2030
0000
0000
3001
1000
0001
1000
0100
,
0010
0000
0000
0001
0000
0000
0100
0000
0000
0001
0000
0000
1000
0000
0010
0000
,
0100
0000
0000
0001
0000
0000
1000
0000
0010
0000
0000
0000
1000
0000
0100
0000
,
0001
0000
0000
0010
0000
0000
0001
0000
0000
0100
0000
0000
0010
0000
1000
0000
,
0010
0000
0000
0100
0000
0000
0001
0000
1000
0000
0010
0000
1000
0000
0001
0000
,
0100
0000
0000
0010
0000
0000
1000
0000
0000
0001
0000
0000
0100
0000
0010
0000
,
1000
0000
0000
0100
0000
0000
0010
0000
0000
0001
0000
0000
1000
0000
0001
0000
,
0010
0000
0000
0010
0000
0000
0010
0000
0001
0000
0000
0001
0000
0000
0001
0000
,
0100
0000
0000
0010
0000
0000
1000
0000
0001
0000
0010
0000
0001
0000
1000
0000
,
0010
0000
1001
0000
1000
0100
0001
0000
,
0010
0000
0000
0001
0000
0000
0100
0000
0000
0010
0000
0000
1000
0000
0001
0000
,
1000
0000
0000
0100
0000
0000
1000
0000
0000
0010
0000
0000
0001
0000
0100
0000
,
0010
0000
0000
1000
0000
0000
0001
0000
1000
0000
0000
0000
0100
0000
0010
0000
,
0001
0000
0000
0100
0000
0000
0001
0000
0000
0100
0000
0000
0010
0000
1000
0000
,
0100
0000
0000
0010
0000
0000
0001
0000
1000
0000
0000
0000
0001
0000
0010
0000
,
0100
0000
0000
0100
0000
0000
0100
0000
1000
0000
0000
1000
0000
0000
1000
0000
,
0010
0000
0000
1000
0000
0000
0001
0000
1000
0000
0000
0100
0000
0000
0010
0000
,
0022
0000
0000
0000
,
0000
0000
0000
0030
,
1003
0001
0000
0000
1000
0010
0000
0000
0100
0001
0000
0000
0100
0010
0000
0000
,
1000
0100
0000
0000
0010
0001
0000
0000
1000
0010
0000
0000
0100
0001
0000
0000
,
0020
0000
0000
0000
,
0000
0000
0000
0000
,
0000
0000
0000
0000
,
0000
0000
0000
0000
,
0030
0000
0000
0000
;

//---------------dance-single - ----------------
#NOTES:
     dance-single:
     :
     Easy:
     7:
     0.366153,0.486040,0.257164,0.274308,0.000000,299.000000,269.000000,30.000000,32.000000,0.000000,0.000000,0.366153,0.486040,0.257164,0.274308,0.000000,299.000000,269.000000,30.000000,32.000000,0.000000,0.000000:
0000
0000
0000
0000
,
0001
0010
0000
1000
,
0100
0010
0000
0001
,
0100
0010
0000
1000
,
0001
1000
0000
0100
,
0010
0000
0001
0000
,
0100
0000
1000
0000
,
0010
0000
1000
0001
,
0100
0000
0010
0100
,
0001
0000
0010
0000
,
1000
0000
0100
0000
,
1000
0010
1000
0010
,
0100
0001
0100
0001
,
0010
0010
0010
0010
,
0010
0010
0010
0010
,
0010
0010
0010
0010
,
0010
0010
0010
0010
,
2002
0000
0000
0003
,
0001
0001
3001
1001
,
0020
1030
0020
0100
,
0001
0100
1000
0001
,
1000
1000
0001
0001
,
1000
0100
1000
0130
,
0002
0010
1000
0100
,
0100
0010
0100
1000
,
0010
0010
1000
1003
,
0200
0010
1000
0301
,
0200
0310
2000
0010
,
0001
0100
0100
0001
,
0010
0001
0100
0010
,
0001
0001
0100
3100
,
1001
0010
1000
0100
,
0110
0001
0100
1000
,
1010
0000
0011
0000
,
1000
0100
1000
0001
,
0020
0000
0001
0100
,
0000
1000
0031
0000
,
0200
0000
0010
1000
,
0000
0010
0301
0000
,
2000
0000
0100
0001
,
0000
0010
3001
0000
,
0020
0000
0000
0000
,
1000
0001
0100
0130
,
0110
0000
0000
0110
0000
0000
0001
0000
,
1000
0000
0000
0010
0000
0100
0000
0000
,
0101
0000
0000
0101
0000
0000
1000
0000
,
0010
1000
0100
0001
,
1001
0000
0000
1001
0000
0000
0100
0000
,
0010
0000
0000
1000
0000
0001
0000
0000
,
1100
0000
0000
1100
0000
0000
0010
0000
,
0001
0100
0001
1000
,
0020
0000
0000
2030
0000
0000
3200
0000
,
0000
0320
0000
0000
0031
0000
0101
0000
,
2000
0000
0000
3002
0000
0000
2003
0000
,
0000
3020
0000
0000
0130
0000
0101
0000
,
0200
0000
0000
0302
0000
0000
0203
0000
,
0000
0320
0000
0000
1030
0000
1010
0000
,
2000
0000
0000
3002
0000
0000
0203
0000
,
0000
0302
0000
0000
0013
0000
0011
0000
,
2000
0000
3002
0000
,
0203
0000
0010
0301
,
0100
0010
1000
1100
,
0001
0010
0100
1100
,
0010
0010
1000
0100
,
1000
0010
0001
0100
,
0001
0010
0001
0101
,
1000
0010
1000
1100
,
0010
0010
0001
0001
,
0100
0010
1000
0001
,
0110
1001
0010
1000
,
0100
0000
0010
0000
0001
1000
0001
0000
,
1000
0010
1000
0100
,
0010
0000
0001
0000
0100
0010
0100
0000
,
0001
1000
0010
1000
,
0100
0000
0010
0000
0001
0100
0001
0000
,
1001
0010
1001
0100
,
1001
0010
1001
0100
,
2010
0000
0000
0000
,
0000
0000
0000
0000
,
3001
0001
1000
1000
,
0010
1000
0100
0001
,
1001
0000
0000
0000
;

//---------------dance-single - ----------------
#NOTES:
     dance-single:
     :
     Beginner:
     2:
     0.132256,0.243020,0.137154,0.068577,0.000000,108.000000,92.000000,16.000000,8.000000,0.000000,0.000000,0.132256,0.243020,0.137154,0.068577,0.000000,108.000000,92.000000,16.000000,8.000000,0.000000,0.000000:
// measure 0
0000
0000
0000
0000
,  // measure 1
0001
0000
0000
0000
,  // measure 2
1000
0000
0000
0000
,  // measure 3
0010
0000
0000
0000
,  // measure 4
0100
0000
0000
0000
,  // measure 5
0001
0000
0000
0000
,  // measure 6
0010
0000
0000
0000
,  // measure 7
0100
0000
0000
0000
,  // measure 8
1000
0000
0000
0000
,  // measure 9
0010
0000
0000
0000
,  // measure 10
1000
0000
0000
0000
,  // measure 11
0001
0000
0000
0000
,  // measure 12
0100
0000
0000
0000
,  // measure 13
0110
0000
0000
0000
,  // measure 14
0000
0000
0000
0000
,  // measure 15
0000
0000
0000
0000
,  // measure 16
0000
0000
0000
0000
,  // measure 17
1001
0000
0000
0000
,  // measure 18
0000
0000
0000
0000
,  // measure 19
0010
0000
2000
0000
,  // measure 20
0000
0000
0000
0000
,  // measure 21
0000
0000
0000
0000
,  // measure 22
0000
0000
3000
0000
,  // measure 23
0002
0000
0000
0000
,  // measure 24
0000
0000
0000
0000
,  // measure 25
0000
0000
0003
0000
,  // measure 26
0200
0000
0300
0000
,  // measure 27
0100
0000
0002
0000
,  // measure 28
0000
0000
0000
0000
,  // measure 29
0000
0000
0000
0000
,  // measure 30
0000
0000
0003
0000
,  // measure 31
1001
0000
0000
0000
,  // measure 32
0110
0000
0000
0000
,  // measure 33
0001
0000
1000
0000
,  // measure 34
0010
0000
0100
0000
,  // measure 35
0020
0000
0000
0000
,  // measure 36
0000
0000
0030
0000
,  // measure 37
2000
0000
0000
0000
,  // measure 38
0000
0000
3000
0000
,  // measure 39
0200
0000
0000
0000
,  // measure 40
0000
0000
0300
0000
,  // measure 41
0020
0000
0030
0000
,  // measure 42
0001
0000
1000
0000
,  // measure 43
1001
0000
1001
0000
,  // measure 44
0000
0000
0000
0000
,  // measure 45
0110
0000
0110
0000
,  // measure 46
0000
0000
0000
0000
,  // measure 47
1001
0000
1001
0000
,  // measure 48
0000
0000
0000
0000
,  // measure 49
0110
0000
0110
0000
,  // measure 50
1000
0000
0001
0000
,  // measure 51
0010
0000
0000
0001
,  // measure 52
0000
0000
0100
0000
,  // measure 53
0010
0000
0000
1000
,  // measure 54
0000
0000
0100
0000
,  // measure 55
1000
0000
0000
0001
,  // measure 56
0000
0000
0100
0000
,  // measure 57
0001
0000
0000
1000
,  // measure 58
0000
0000
0010
0000
,  // measure 59
0110
0000
0000
0000
,  // measure 60
0000
0000
1000
1000
,  // measure 61
1000
0000
0001
0000
,  // measure 62
1000
0000
0010
0000
,  // measure 63
0100
0000
0100
0000
,  // measure 64
0001
0000
0001
0000
,  // measure 65
0010
0000
0001
0000
,  // measure 66
0100
0000
0010
0000
,  // measure 67
1000
0000
1000
0000
,  // measure 68
0001
0000
1000
0000
,  // measure 69
0000
1001
0000
0000
,  // measure 70
0010
0000
0100
0000
,  // measure 71
0010
0000
1000
0000
,  // measure 72
0100
0000
0010
0000
,  // measure 73
0001
0000
0100
0000
,  // measure 74
0001
0000
0100
0000
,  // measure 75
0010
0000
0010
0000
,  // measure 76
1000
0000
0001
0000
,  // measure 77
0110
0000
0000
0000
,  // measure 78
0000
0000
0000
0000
,  // measure 79
1000
0000
0000
0000
,  // measure 80
0001
0000
0000
0000
,  // measure 81
1001
0000
0000
0000
;
