#TITLE:Valkyrie dimension;
#SUBTITLE:(25th Anniversary Special);
#ARTIST:Spriggan;
#TITLETRANSLIT:;
#SUBTITLETRANSLIT:;
#ARTISTTRANSLIT:;
#GENRE:;
#CREDIT:;
#MUSIC:Valkyrie dimension (25th Anniversary Special).ogg;
#BANNER:Valkyrie dimension (25th Anniversary Special)-bn.png;
#BACKGROUND:Valkyrie dimension (25th Anniversary Special)-bg.png;
#CDTITLE:;
#SAMPLESTART:30.204;
#SAMPLELENGTH:20.000;
#SELECTABLE:YES;
#OFFSET:0.875;
#BPMS:0.000=90.000
,16.000=98.000
,20.000=116.000
,24.000=134.000
,28.000=152.500
,32.000=170.000
,36.000=187.500
,40.000=204.000
,44.000=222.000
,48.000=240.000
,68.000=186.000
,316.000=195.000
;
#STOPS:;
#BGCHANGES:;
#FGCHANGES:;

//--------------- dance-single - ----------------
#NOTES:
     dance-single:
     :
     Challenge:
     18:
     0,0,0,0,0:
0000
0000
0000
0000
,
0001
1000
0010
1000
0100
0010
0011
0000
,
0100
0001
1000
0010
1000
0100
1100
0000
,
0001
0010
1000
0100
0010
0001
0101
0000
,
1000
0001
0010
0100
1000
0010
1010
0000
,
0001
0100
0010
1000
0100
0001
1001
0000
,
0010
1000
0100
0010
0001
0100
0110
0000
,
0001
0100
1000
0001
0010
0100
1100
0000
,
0010
1000
0001
0010
0100
1000
0110
0000
,
0001
0100
0010
1000
1100
0001
0101
0000
,
0010
0100
0001
1000
1001
0010
1010
0000
,
0100
0010
0001
1000
1010
0100
0011
0000
,
1000
0001
0010
0100
1100
0001
0110
0000
,
0001
0000
0000
0000
0000
0000
0000
0000
0000
0000
0000
0000
0000
0000
0000
0000
0000
0000
0000
0010
0000
0000
0000
0000
0000
0000
0000
0000
0000
0000
0000
0000
0000
0000
0000
0000
0000
0000
0100
0000
0000
0000
0000
0000
0000
0000
0000
0000
0000
0000
0000
0000
0000
0000
0000
0000
0000
0000
1000
0000
0000
0000
0000
0000
0000
0000
0000
0000
0000
0000
0000
0000
0000
0000
0000
0000
0000
0010
0000
0000
0000
0000
0000
0000
0000
0000
0000
0000
0000
0000
0000
0000
0000
0000
0000
0000
0100
0000
0000
0000
0000
0000
0000
0000
0000
0000
0000
0000
0000
0000
0000
0000
0000
0000
0000
0001
0000
0000
0000
0000
0000
0000
0000
0000
0000
0000
0000
0000
0000
0000
0000
0000
0000
0000
1000
0000
0000
0000
0000
0000
0000
0000
0000
0000
0000
0000
0000
0000
0000
0000
0000
0000
0000
0000
0100
0000
0000
0000
0000
0000
0000
0000
0000
0000
0000
0000
0000
0000
0000
0000
0000
0000
0000
0010
0000
0000
0000
0000
0000
0000
0000
0000
0000
0000
0000
0000
0000
0000
0000
0000
0000
0000
,
0001
0000
0000
0000
0000
0000
0000
0000
0000
0000
0000
0000
0000
0000
0000
0000
0000
0000
0000
1000
0000
0000
0000
0000
0000
0000
0000
0000
0000
0000
0000
0000
0000
0000
0000
0000
0000
0000
0001
0000
0000
0000
0000
0000
0000
0000
0000
0000
0000
0000
0000
0000
0000
0000
0000
0000
0000
0000
0100
0000
0000
0000
0000
0000
0000
0000
0000
0000
0000
0000
0000
0000
0000
0000
0000
0000
0000
0010
0000
0000
0000
0000
0000
0000
0000
0000
0000
0000
0000
0000
0000
0000
0000
0000
0000
0000
1000
0000
0000
0000
0000
0000
0000
0000
0000
0000
0000
0000
0000
0000
0000
0000
0000
0000
0000
0100
0000
0000
0000
0000
0000
0000
0000
0000
0000
0000
0000
0000
0000
0000
0000
0000
0000
0000
0010
0000
0000
0000
0000
0000
0000
0000
0000
0000
0000
0000
0000
0000
0000
0000
0000
0000
0000
0000
0100
0000
0000
0000
0000
0000
0000
0000
0000
0000
0000
0000
0000
0000
0000
0000
0000
0000
0000
1000
0000
0000
0000
0000
0000
0000
0000
0000
0000
0000
0000
0000
0000
0000
0000
0000
0000
0000
,
0001
0000
0000
0000
0000
0000
0000
0000
0000
0000
0000
0000
0000
0000
0000
0000
0000
0000
0000
0010
0000
0000
0000
0000
0000
0000
0000
0000
0000
0000
0000
0000
0000
0000
0000
0000
0000
0000
0100
0000
0000
0000
0000
0000
0000
0000
0000
0000
0000
0000
0000
0000
0000
0000
0000
0000
0000
0000
1000
0000
0000
0000
0000
0000
0000
0000
0000
0000
0000
0000
0000
0000
0000
0000
0000
0000
0000
0001
0000
0000
0000
0000
0000
0000
0000
0000
0000
0000
0000
0000
0000
0000
0000
0000
0000
0000
1000
0000
0000
0000
0000
0000
0000
0000
0000
0000
0000
0000
0000
0000
0000
0000
0000
0000
0000
0010
0000
0000
0000
0000
0000
0000
0000
0000
0000
0000
0000
0000
0000
0000
0000
0000
0000
0000
0100
0000
0000
0000
0000
0000
0000
0000
0000
0000
0000
0000
0000
0000
0000
0000
0000
0000
0000
0000
0001
0000
0000
0000
0000
0000
0000
0000
0000
0000
0000
0000
0000
0000
0000
0000
0000
0000
0000
0010
0000
0000
0000
0000
0000
0000
0000
0000
0000
0000
0000
0000
0000
0000
0000
0000
0000
0000
,
0100
0000
0000
0000
0000
0000
0000
0000
0000
0000
0000
0000
0000
0000
0000
0000
0000
0000
0000
0010
0000
0000
0000
0000
0000
0000
0000
0000
0000
0000
0000
0000
0000
0000
0000
0000
0000
0000
0100
0000
0000
0000
0000
0000
0000
0000
0000
0000
0000
0000
0000
0000
0000
0000
0000
0000
0000
0000
1000
0000
0000
0000
0000
0000
0000
0000
0000
0000
0000
0000
0000
0000
0000
0000
0000
0000
0000
0010
0000
0000
0000
0000
0000
0000
0000
0000
0000
0000
0000
0000
0000
0000
0000
0000
0000
0000
0100
0000
0000
0000
0000
0000
0000
0000
0000
0000
0000
0000
0000
0000
0000
0000
0000
0000
0000
0001
0000
0000
0000
0000
0000
0000
0000
0000
0000
0000
0000
0000
0000
0000
0000
0000
0000
0000
1000
0000
0000
0000
0000
0000
0000
0000
0000
0000
0000
0000
0000
0000
0000
0000
0000
0000
0000
0000
0100
0000
0000
0000
0000
0000
0000
0000
0000
0000
0000
0000
0000
0000
0000
0000
0000
0000
0000
0010
0000
0000
0000
0000
0000
0000
0000
0000
0000
0000
0000
0000
0000
0000
0000
0000
0000
0000
,
0002
0000
0000
0000
,
1003
0010
0100
0010
1000
0100
0010
0100
1000
0010
0100
0001
1000
0000
0000
0000
,
1001
0000
0010
0000
1000
0000
0100
0000
0010
0001
1000
0000
0001
0000
0100
0000
,
0010
0100
0001
0000
1000
0000
1000
0000
0100
0010
0001
0000
0100
0000
0100
0000
,
0010
0000
1000
0000
0001
0000
0010
0100
0010
0001
1000
0000
0010
0000
0100
0000
,
0001
0010
0100
0000
1000
0000
1000
0000
0010
1000
0001
1000
0100
0000
0100
0000
,
0010
0000
0001
0000
0100
0000
1000
0000
0100
0001
0010
0000
1000
0000
0010
0001
,
0100
0010
1000
0000
0100
0000
0100
0000
0010
0001
1000
0000
0001
0100
0010
1000
,
0001
0000
0010
0000
1000
0000
0100
0010
0100
1000
0001
0000
0100
0000
0010
1000
,
0001
0100
0010
0000
1000
0100
0010
0000
0001
1000
0001
0000
0100
0010
1000
0001
,
0100
0000
0010
0000
1000
0000
0001
0000
1000
0100
0010
0000
0001
0000
0100
0000
,
0010
1000
0001
0000
0010
0000
0010
0000
0100
1000
0001
0000
0100
0010
1000
0000
,
0001
0000
0010
0000
1000
0000
0100
0000
0010
0100
1000
0000
0001
0100
0010
0000
,
1000
0100
0010
0000
0001
0100
0001
0010
0100
1000
0001
0000
0100
0000
0010
0000
,
1010
0000
0001
0000
0100
0000
0010
0000
1000
0100
1000
0000
0001
0000
0010
0000
,
0001
0100
1000
0000
1010
0000
0110
0000
0101
0000
0010
0000
1000
0001
1000
0010
,
0100
0000
0100
0000
0001
0000
1000
0000
0010
1000
0100
0000
1000
0000
0001
0000
,
0010
1000
0001
0100
0001
0100
1000
0010
1000
0010
0100
0001
1000
0001
0010
0100
,
1000
0010
0100
0010
0100
1000
0100
0002
,
0000
0010
0013
0100
1000
0001
0100
0000
,
0010
1000
0001
1000
0100
0001
0100
0010
,
0100
1000
0001
1000
0010
0100
0010
0000
,
1000
0001
0010
1000
0010
0100
0001
0100
,
0010
0001
0100
0010
1000
0100
0010
0000
,
0001
0100
0010
0100
0001
0010
0100
1000
,
0010
0000
1000
0000
0100
0000
0010
0000
0001
1000
0001
0000
0100
0010
0100
0000
,
0110
0010
1000
0101
0001
0100
1000
0000
,
0010
1000
0100
0020
0000
0032
0000
0103
,
1010
0001
1000
1100
0001
0100
0010
1000
,
0100
0010
0001
2000
0000
3020
0000
0130
,
1001
0010
0001
1100
0001
0010
1000
0100
,
0010
0100
1000
0002
0000
2003
0000
3010
,
0101
0010
0100
1001
0010
1000
0001
0000
,
1000
0010
0001
0100
0110
0110
1000
0001
,
1010
0100
0001
0011
0100
1000
1001
0010
,
1000
0100
0001
0011
0100
0110
0010
1001
,
1100
0001
0010
0110
1000
0010
0101
1000
,
0001
0010
0100
1100
0010
1001
0100
0110
,
0101
1000
0001
0011
0100
0010
1001
0010
,
1000
0100
0001
0011
0100
0110
0010
1001
,
0110
0001
1000
1100
0010
0001
0101
0010
,
1000
0000
0100
0000
0001
0000
1010
0000
0100
0001
1000
0000
0100
1000
0001
0000
,
1000
0001
0100
0010
0001
0010
1000
0001
1000
0010
1000
0100
0001
0100
0010
0100
,
0001
1000
0010
0100
0010
0100
0001
0100
1000
0001
1000
0100
0010
1000
0010
0001
,
0100
0000
0010
1000
0000
0001
0010
0000
1000
0100
0000
1000
0001
0000
0010
0100
,
1000
0000
0010
0100
0000
0001
0010
0000
1000
0100
0010
0000
0001
1000
0010
0100
,
0001
0010
0100
1000
0000
0010
1000
0000
0100
0001
0000
0010
0001
0100
1000
0000
,
0010
1000
0100
0010
0000
0001
1000
0000
0100
0010
0000
0100
1000
0010
0100
0001
,
0010
0000
0100
1000
0000
0010
0100
0000
0010
1000
0000
0001
0010
0000
1000
0001
,
0100
0000
0010
1000
0000
0100
1000
0000
0001
0010
0100
0010
0001
0000
1000
0000
,
0010
1000
0100
0010
0000
0001
0100
0000
0001
0010
0001
1000
0000
1000
0100
0000
,
0010
0100
1000
0001
0000
0100
0010
0100
0001
0010
1000
0010
0100
0010
1000
0010
,
0001
0000
0100
0010
1000
0001
0010
0000
0100
1000
0010
0100
0001
0000
1000
0100
,
1000
0000
0001
0010
0000
1000
0001
0000
0100
0010
0100
0001
1000
0100
0010
0001
,
0100
0000
0010
0100
0000
0001
1000
0000
0001
0100
0000
1000
0010
0100
0001
0000
,
0010
0000
0100
1000
0000
1000
0001
0000
0100
0010
0000
0100
0001
0010
0001
1000
,
0100
1000
0010
0001
0000
1000
0100
0000
0010
0001
0000
0001
1000
0000
0010
0100
,
0010
0000
1000
0001
0000
0010
0100
0000
1000
0010
0001
0010
1000
0100
0001
0000
,
0010
0100
1000
0010
0001
0100
1000
0000
0001
1000
0100
0010
0100
1000
0001
0000
,
0010
0001
0100
0010
1000
0100
0001
0000
1000
0010
0100
0001
1000
0100
0010
0000
,
0012
0000
0000
0000
,
0000
0000
0000
0000
,
1003
0010
0001
0001
0010
0001
0100
0001
0100
0001
0010
0010
0001
0100
1000
0100
,
0010
0100
1000
0100
1000
0001
1000
0100
0001
0100
0010
1000
0010
1000
0010
1000
,
0200
0000
0000
0000
,
0000
0000
0000
0000
,
0000
0000
0000
0000
,
0300
0000
0000
0000
;
