#TITLE:VIRTUAL MIND;
#SUBTITLE:;
#ARTIST:Brian Morris feat. Thomas;
#TITLETRANSLIT:;
#SUBTITLETRANSLIT:;
#ARTISTTRANSLIT:;
#GENRE:;
#CREDIT:;
#BANNER:VIRTUAL MIND-bn.png;
#BACKGROUND:VIRTUAL MIND-bg.png;
#LYRICSPATH:;
#CDTITLE:;
#MUSIC:VIRTUAL MIND.ogg;
#OFFSET:0.000000;
#SAMPLESTART:22.966999;
#SAMPLELENGTH:20.000000;
#SELECTABLE:YES;
#DISPLAYBPM:128.000000;
#BPMS:0.000000=128.009995
;
#STOPS:15.750000=0.469000,
111.000000=0.469000
;
#BGCHANGES:;
#KEYSOUNDS:;
#ATTACKS:;

//---------------dance-single - ----------------
#NOTES:
     dance-single:
     :
     Hard:
     14:
     0.643080,0.641414,0.093297,0.046648,0.758035,386.000000,378.000000,8.000000,4.000000,0.000000,0.000000,0.643080,0.641414,0.093297,0.046648,0.758035,386.000000,378.000000,8.000000,4.000000,0.000000,0.000000:
0000
0000
0000
0000
,
0000
0000
0000
0000
,
0000
0000
0000
0000
,
0000
0000
0000
0000
,
0010
0001
0000
1000
0000
0001
0200
0000
0000
0000
0010
0000
0310
0000
0000
0000
,
1000
0010
0000
0100
0000
0010
2000
0000
0000
0000
0001
0000
3001
0000
0000
0000
,
0010
0001
0000
0010
0000
0100
2000
0000
0000
0000
0010
0000
3010
0000
0000
0000
,
1000
0001
0000
1000
0100
0000
0010
0000
0001
1000
0001
0000
1001
0000
0000
0000
,
0100
0000
0100
0000
0000
0000
0001
1000
0001
0000
0010
0001
0010
0000
0100
0000
,
1000
0000
1000
0000
0000
0000
0001
0100
0001
0000
0100
0010
0100
0000
0001
0000
,
1000
0000
1000
0000
0000
0000
0010
1000
0010
0000
0100
0001
0100
0000
0010
0000
,
1000
0000
0100
0000
1000
0001
1000
0000
0000
0000
0010
0100
0010
0000
0000
0000
,
0100
0001
0000
0001
0010
0000
0010
0100
0000
0100
1000
0001
1000
0000
0000
0000
,
0010
0000
0100
0000
0010
0000
1000
0001
0000
1000
0100
0010
0001
0000
0100
0000
,
0001
1000
0001
0000
1000
0010
1000
0000
0010
0000
0100
0000
0001
0010
0001
0010
,
0100
0000
1000
0000
0000
0000
0010
0000
0100
0001
1000
0001
0100
0001
1000
0001
,
0100
0000
0010
0000
1000
0000
0001
0010
0100
0000
1000
0000
0000
0000
0010
0100
,
0001
0000
1000
0000
0001
0100
0001
0100
0010
0000
1000
0000
0100
0010
0100
1000
,
0000
0000
0001
0100
0001
0000
0010
0000
0100
1000
0001
0000
0100
0010
1000
0000
,
0000
0000
0001
0010
0001
0000
1000
0010
1000
0000
0101
0000
0000
0000
0010
0100
,
0001
0000
1010
0000
0000
0000
1000
0100
0010
0000
0011
0000
0000
0000
0100
0001
,
1000
0000
0010
0000
0100
0000
0001
1000
0001
0000
0000
0000
1100
0000
0010
0100
,
0001
0000
0110
0000
1000
0001
0000
0000
0010
0000
0001
0100
0000
0001
0100
0000
,
0020
0000
0000
1000
0000
1030
0010
0100
0001
0000
0000
0000
1000
0000
0001
0100
,
0001
0000
0010
0000
0100
0000
1000
0010
0000
1000
0100
0010
0001
0000
0000
0000
,
0100
0000
0000
0000
0001
0000
0010
0100
0000
1000
0001
1000
0100
0000
0000
0000
,
0010
0000
0001
0000
1000
0000
0001
0100
0000
0010
1000
0010
0100
0000
0001
1000
,
0001
0000
0000
0010
0000
0001
0100
0000
0010
1000
0010
0100
0001
1000
0100
1000
,
0001
0000
0100
0000
0010
0000
0100
0000
0001
1000
0001
1000
0000
0000
0100
0000
,
0010
0001
0010
0000
0100
1000
0100
0000
1000
0001
0100
0010
0000
0000
0000
0000
,
0100
0000
0000
0001
0000
0000
1000
0000
0010
0000
0010
0000
0100
0000
0001
0000
,
0010
0000
0000
0100
0000
0000
1000
0000
0001
0100
0001
0100
0010
1000
0010
1000
,
0100
0010
0001
0100
1000
0010
0001
1000
,
0001
0000
0100
0000
0010
1000
0000
1000
0000
0100
0000
1000
0000
0001
0000
0100
,
0000
0010
1000
0100
0001
0010
0001
0100
,
1000
0010
0000
1000
0010
0000
0100
0001
0010
0100
0000
0100
1000
0000
0001
0100
,
0001
0000
1000
0100
0000
0000
0010
0001
0100
0000
0010
1000
0100
0000
0010
0001
,
1000
0000
0001
0100
0000
0000
0010
1000
0001
0000
0010
0100
1000
0000
0001
1000
,
0100
0000
0010
0000
0000
0000
0001
1000
0001
0000
0100
0010
0000
0010
1000
0000
,
0100
0000
0000
0010
0000
0010
0001
0000
1000
0001
0100
0010
0000
0000
0000
0000
,
1000
0010
0000
0010
0100
0000
0100
0001
0000
0001
0010
0100
1000
0000
0000
0000
,
0001
0000
0100
0000
0010
0000
0100
0001
0000
1000
0100
1000
0001
0000
0010
0000
,
0001
0000
0100
0000
0010
1000
0010
0100
0000
0000
0001
1000
0001
0010
0100
1000
,
0000
0000
0010
0100
1000
0000
0010
0100
0001
0000
1000
0001
0100
0000
0110
0000
,
1001
0000
0000
0000
;

//---------------dance-single - ----------------
#NOTES:
     dance-single:
     :
     Medium:
     10:
     0.463151,0.513131,0.093297,0.000000,0.192424,278.000000,270.000000,8.000000,0.000000,0.000000,0.000000,0.463151,0.513131,0.093297,0.000000,0.192424,278.000000,270.000000,8.000000,0.000000,0.000000,0.000000:
0000
0000
0000
0000
,
0000
0000
0000
0000
,
0000
0000
0000
0000
,
0000
0000
0000
0000
,
0010
0000
0000
0001
0000
0000
1000
0000
0010
0000
0000
0100
0000
0000
0001
0000
,
0010
0000
0000
0100
0000
0000
1000
0000
0001
0000
0000
1000
0000
0000
0100
0000
,
1000
0000
0000
0010
0000
0000
1000
0000
0001
0000
0000
0100
0000
0000
0001
0000
,
0010
0000
0000
0001
0100
0000
0010
0000
1000
0001
0000
0000
1001
0000
0000
0000
,
0010
0010
0000
1000
0100
1000
0001
0100
,
0010
0010
0000
0100
0001
1000
0001
1000
,
0100
0100
0000
0010
0001
0010
0100
1000
,
0001
0100
0001
1000
0000
0010
0010
0000
,
0100
0010
0000
0000
1000
0000
0000
0001
0000
0000
1000
0000
0100
0000
0000
0000
,
0000
0000
0010
0000
0001
0000
0000
0100
0000
0000
0010
0000
1000
0000
0000
0000
,
0100
1000
0010
1000
0001
1000
0010
0100
,
0001
1000
0000
0001
0010
0100
1000
0010
,
0100
0001
0010
0001
1000
0100
0000
1000
,
0001
1000
0010
0100
0010
1000
0001
0100
,
0000
0001
0010
0100
1000
0010
1000
0001
,
0000
0100
0010
0100
0001
0001
0000
1000
,
0100
0100
0010
0001
0000
1000
0010
0000
,
0100
0000
0001
0000
0000
0000
1000
0001
1000
0000
0000
0000
0101
0000
0000
0000
,
0010
0010
0100
0001
0000
1000
0100
1000
,
0001
0000
0000
0100
0000
0000
0001
1000
0001
0000
0000
0000
1010
0000
0000
0000
,
0001
0010
0001
0100
0010
1000
0001
0000
,
1100
0000
0000
0000
0010
0000
0001
1000
0000
0001
1000
0000
0100
0000
0000
0000
,
0011
0000
0000
0000
0100
0000
0010
1000
0000
0010
1000
0000
0001
0000
0000
0000
,
0110
0000
0001
1000
0000
0001
1000
0000
0010
0000
0100
0000
0001
0000
1000
0100
,
1000
0010
1000
0001
0010
0100
0000
1000
,
0010
0100
0010
1000
0001
0100
0000
0000
,
0001
0000
0000
0001
0000
0000
0001
0000
1000
0000
0010
0000
1000
0000
0100
0000
,
0010
0000
0000
0010
0000
0000
0010
0000
0001
0000
0100
0000
0001
0000
1000
0000
,
0010
0100
0001
0000
0010
0100
1000
0000
,
0001
0000
0100
0000
1000
0000
0010
0000
0000
0001
0000
0100
0000
0100
0000
0100
,
0000
0001
0010
0100
1000
0010
1000
0001
,
0100
0000
0001
0010
0001
0100
1000
0000
,
0010
0010
0000
1000
0100
0010
0001
0100
,
0001
0001
0000
1000
0010
1000
0100
0010
,
0001
0000
0001
0000
0000
0000
0100
0000
0010
0000
0000
1000
0000
0000
0001
0000
,
0011
0000
0100
1000
0010
0100
0001
0000
,
1000
0001
0000
0000
0010
0000
0000
0001
0000
0000
0100
0010
0100
0000
0000
0000
,
0000
0000
0001
0000
1000
0000
0000
0010
0000
0000
0100
0000
0001
0000
0000
0000
,
0010
0100
1000
0001
0000
0100
0010
1000
,
0000
0000
0001
0000
0010
0000
0001
0000
0100
0000
0010
1000
0010
0000
0100
0000
,
1001
0000
0000
0000
;

//---------------dance-single - ----------------
#NOTES:
     dance-single:
     :
     Easy:
     8:
     0.346530,0.384849,0.349862,0.058310,0.052479,208.000000,178.000000,30.000000,5.000000,0.000000,0.000000,0.346530,0.384849,0.349862,0.058310,0.052479,208.000000,178.000000,30.000000,5.000000,0.000000,0.000000:
0000
0000
0000
0000
,
0000
0000
0000
0000
,
0000
0000
0000
0000
,
0000
0000
0000
0000
,
0010
0000
0000
0001
0000
0000
2000
0000
0000
0000
0000
0000
3000
0000
0000
0000
,
0010
0000
0000
0100
0000
0000
0002
0000
0000
0000
0000
0000
0003
0000
0000
0000
,
0010
0000
0000
0100
0000
0000
2000
0000
0000
0000
0000
0000
3000
0000
0000
0000
,
0101
0000
1100
0000
0010
0100
0001
0000
,
1001
0000
0000
0000
0010
1000
0100
0000
,
0110
0000
0000
0000
0001
1000
0100
0000
,
1100
0000
0000
0000
0010
0100
0001
0000
,
1000
0100
1000
0000
0000
0001
0100
0000
,
0101
0000
1100
0000
0010
1000
0001
0000
,
0000
0000
0110
0000
0001
0100
0001
0000
,
0010
0000
0001
0000
0010
0100
1000
0000
,
0001
0100
0000
0000
0001
1000
0001
1000
,
0010
0000
1010
0000
0101
0000
0000
1000
,
0001
0000
0010
0000
0001
0000
0100
0010
,
0000
0000
1000
0000
0100
0000
1000
0001
,
0000
0010
0001
0000
0100
0010
0000
1000
,
0100
1100
0001
0101
,
0010
0000
0000
0000
0000
0000
1000
0001
0000
0000
0000
0000
0000
0000
0100
0000
,
0010
1010
0001
0011
,
0100
0000
0000
0000
0000
0000
1000
0001
0000
0000
0000
0000
0000
0000
0000
0000
,
0110
0001
0100
1000
,
1001
0010
1000
0100
,
0110
0001
0010
1000
,
1001
0000
0010
0000
1000
0100
0002
0000
,
0013
0000
0001
0000
0100
0010
1000
0000
,
0001
0000
1000
0000
0010
0100
0001
0000
,
0011
0000
1100
0000
0001
0100
1000
0000
,
1010
0000
0101
0000
1000
0100
0001
0000
,
0020
0001
0100
0031
,
1000
0000
0000
0000
0001
0000
0000
0000
0000
0100
0000
0010
0000
0100
0000
0001
,
0000
0010
1000
0100
,
1000
0000
0001
0000
0010
0100
1000
0000
,
1001
0000
0000
0000
0010
1000
0100
0000
,
0110
0000
0000
0000
0010
0001
0100
0000
,
1010
0000
0000
0000
0001
0100
0010
0000
,
0101
0000
0000
1000
0010
0100
0001
0000
,
0101
0000
1100
0000
0010
1000
0001
0000
,
0000
0000
0110
0000
0001
0100
1000
0000
,
0010
0000
1000
0001
0000
1000
0100
0000
,
0010
0001
0010
0100
1000
0001
0100
0000
,
1001
0000
0000
0000
;

//---------------dance-single - ----------------
#NOTES:
     dance-single:
     :
     Beginner:
     3:
     0.158271,0.205253,0.163269,0.000000,0.000000,95.000000,81.000000,14.000000,0.000000,0.000000,0.000000,0.158271,0.205253,0.163269,0.000000,0.000000,95.000000,81.000000,14.000000,0.000000,0.000000,0.000000:
0000
0000
0000
0000
,
0000
0000
0000
0000
,
0000
0000
0000
0000
,
0000
0000
0000
0000
,
0010
0010
0000
0000
,
0100
0100
0000
0000
,
0001
0001
0000
0000
,
1000
1000
0000
0000
,
1001
0000
0010
0000
,
0110
0000
0001
0000
,
1001
0000
0100
0000
,
0010
0010
0000
0000
,
1000
1000
1000
0000
,
0001
0000
0100
0000
,
0001
0001
0001
0000
,
0010
0000
0100
0000
,
0110
0000
1000
0000
,
0001
0001
0001
0000
,
0100
0000
0010
0000
,
0100
0000
0001
0000
,
1001
0000
0000
0000
,
0100
0000
0010
0000
,
0110
0000
0000
0000
,
1000
1000
1000
0000
,
0110
0000
0000
0000
,
1001
0000
0000
0000
,
0110
0000
0000
0000
,
1001
0000
0000
0000
,
0010
0010
0010
0000
,
0100
0100
0100
0000
,
0001
0000
0010
0000
,
0001
0000
1000
0000
,
0100
0000
0000
0000
,
0010
0000
0000
0000
,
0001
0000
0000
0000
,
1000
0000
0100
0000
,
0110
0000
0001
0000
,
1001
0000
0100
0000
,
0110
0000
1000
0000
,
0100
0000
1000
0000
,
0001
0001
0001
0000
,
0100
0100
0100
0000
,
0010
0000
1000
0000
,
0001
0001
0001
0000
,
1001
0000
0000
0000
;

//---------------dance-single - ----------------
#NOTES:
     dance-single:
     :
     Challenge:
     17:
     0.971285,0.923637,0.093297,0.000000,1.755143,583.000000,575.000000,8.000000,0.000000,0.000000,0.000000,0.971285,0.923637,0.093297,0.000000,1.755143,583.000000,575.000000,8.000000,0.000000,0.000000,0.000000:
// measure 0
0000
0000
0000
0000
,  // measure 1
0000
0000
0000
0000
,  // measure 2
0000
0000
0000
0000
,  // measure 3
0000
0000
0000
0000
,  // measure 4
0010
0001
0000
0100
0000
0010
1000
0000
0001
0100
0000
0010
0000
1000
0100
0010
,  // measure 5
0001
0100
0000
0010
0000
1000
0001
0000
0010
0100
0000
0010
0000
0001
1000
0100
,  // measure 6
1000
0010
0000
0100
0000
0010
1000
0000
0001
0010
0000
0100
0000
0010
0001
1000
,  // measure 7
0001
0000
0000
0100
0000
0000
0000
0000
0000
0010
0000
0000
1000
0000
0000
0000
0000
0000
0100
0000
0000
0010
0000
0001
1000
0000
0000
0010
0000
0000
0100
0000
0000
0000
0000
0000
1001
0000
0000
0000
0000
0000
0100
0000
0000
0001
0000
0000
,  // measure 8
0100
0001
0000
1010
0000
0100
0010
1000
0001
1000
0100
0010
0100
1000
0001
0000
,  // measure 9
0010
0100
0010
0001
0000
1000
0100
0010
0001
1000
0010
1000
0001
1000
0100
0010
,  // measure 10
0001
0100
0010
1000
0000
1000
0001
1000
0100
0010
0100
1000
0001
0100
0010
1000
,  // measure 11
0001
0000
0000
0010
0000
0000
0001
0000
0000
0100
0000
0000
0010
0000
0000
1000
0000
0000
0001
0000
0000
1000
0000
0100
0010
0000
0000
0001
0000
0000
0100
0000
0000
0010
0000
0000
1000
0000
0000
0001
0000
0000
0100
0000
0000
0000
0000
0000
,  // measure 12
0010
1000
0000
0010
0100
0001
0010
0100
1000
0010
0100
0010
1000
0001
0010
0100
,  // measure 13
1000
0010
0100
0010
1000
0001
0010
0100
0000
1000
0010
1000
0001
0010
0001
0100
,  // measure 14
0010
1000
0001
1000
0100
0010
0001
0100
0001
0010
0100
1000
0010
0100
0010
1000
,  // measure 15
0001
0000
0000
1000
0000
0000
0100
0000
0000
0010
0000
0000
0001
0000
0000
0100
0000
0000
0010
0000
0000
1000
0000
0001
0100
0000
0000
0010
0000
0000
0100
0000
0000
0001
0000
0000
0010
0000
0000
0100
0000
0000
1000
0000
0000
0001
0000
0000
,  // measure 16
0100
0000
0001
0010
1000
0010
0001
0100
0010
1000
0001
0000
1000
0010
0100
0001
,  // measure 17
0010
0100
0010
0001
0100
0010
1000
0001
0100
1000
0100
0001
0100
0010
1000
0001
,  // measure 18
0010
0001
0100
0001
1000
0010
1000
0100
0001
0100
1000
0010
0100
0001
1000
0000
,  // measure 19
0010
0000
0000
0000
0000
0000
0100
0000
0000
0001
0000
0000
0010
0000
0000
0100
0000
0000
1000
0000
0000
0010
0000
0100
0001
0000
0000
1000
0000
0000
0001
0000
0000
0010
0000
0000
0001
0000
0000
0100
0000
0000
0010
0000
0000
1000
0000
0000
,  // measure 20
0100
0010
0001
1000
0000
1000
0001
0100
0010
1000
0000
0010
0000
0100
0001
1000
,  // measure 21
0100
0010
0100
1000
0000
0000
0001
0001
0010
0001
1000
0000
0100
0010
0100
1000
,  // measure 22
0001
0100
0010
1000
0000
1000
0001
0000
0010
0000
0100
1000
0000
0010
1000
0001
,  // measure 23
0100
0010
1000
0001
0000
1000
0100
0100
0010
0000
0000
0000
0001
0100
0001
1000
,  // measure 24
0010
1000
0010
0100
0010
1000
0010
0100
0000
0001
0010
0100
1000
0000
0001
0100
,  // measure 25
0001
0000
1000
0000
0010
0000
1000
0100
0000
0100
0001
0010
0001
0100
0001
1000
,  // measure 26
0100
0000
0000
0000
1000
0001
1000
0001
1000
0000
0000
0000
0010
0100
0010
0100
0010
0000
0000
0000
0100
0001
0100
0001
0100
0000
0010
0000
1000
0000
0001
0000
,  // measure 27
1000
0100
0010
0001
0010
0100
1000
0000
0001
0100
0010
1000
0001
1000
1000
1000
,  // measure 28
0010
0100
0010
1000
0010
0100
0001
1000
0001
0100
0001
1000
0001
1000
0010
0100
,  // measure 29
0001
0010
0001
0100
0001
0010
0100
1000
0010
1000
0100
1000
0001
1000
0010
0100
,  // measure 30
0001
0010
0100
0010
0100
1000
0010
1000
0100
1000
0001
1000
0001
0100
0001
0010
,  // measure 31
0100
0000
0000
1000
0000
0000
0001
0000
0000
0100
0000
0000
0010
0000
0000
1000
0000
0000
0100
0000
0000
0010
0000
0001
1000
0000
0000
0010
0000
0000
0100
0000
0000
0010
0000
0000
1000
0000
0000
0001
0000
0000
0010
0000
0000
0100
0000
0000
,  // measure 32
1000
0010
1000
0001
0000
0010
0100
1000
0000
0001
0010
0001
0100
0010
1000
0000
,  // measure 33
0001
0100
0010
1000
0000
0100
0010
0001
0000
1010
0000
0101
0000
0011
0000
1100
,  // measure 34
0000
1000
0010
1000
0000
0100
0010
0001
1000
0001
0100
0010
1000
0001
0010
0000
,  // measure 35
0100
0000
0000
1000
0000
0000
0000
0000
0000
1000
0000
0000
0001
0000
0000
0000
0000
0000
0100
0000
0000
0010
0000
1000
0001
0000
0000
0010
0000
0000
0001
0000
0000
0100
0000
0000
0010
0000
0000
0000
0000
0000
1000
0000
0000
0100
0000
0000
,  // measure 36
0001
0010
0001
0100
0000
0010
1000
0100
1000
0001
0010
0001
0100
0010
1000
0001
,  // measure 37
0100
0010
1000
0001
0000
0001
0010
0100
1000
0001
0010
0001
0100
0010
1000
0001
,  // measure 38
0100
0001
0010
0100
0000
1000
0010
1000
0001
1000
0100
0010
0001
0100
0001
1000
,  // measure 39
0010
0000
0000
0000
0000
0000
0100
0000
0000
0001
0000
0000
0000
0000
0000
0001
0000
0000
0010
0000
0000
0100
0000
1000
0001
0000
0000
0100
0000
0000
0001
0000
0000
1000
0000
0000
0010
0000
0000
0100
0000
0000
0001
0000
0000
1000
0000
0000
,  // measure 40
0100
0100
0000
1000
0001
0100
0010
1000
0000
0010
0100
0001
0110
0000
0000
0000
,  // measure 41
1000
0100
0010
0001
0100
0001
1000
0010
0000
1000
0100
0010
0001
0100
0010
1000
,  // measure 42
0001
0010
1000
0100
1000
0100
0010
1000
0010
0001
0100
0001
1000
0100
0001
0010
,  // measure 43
0100
0000
0000
0001
0000
0000
0010
0000
0000
1000
0000
0000
0001
0000
0000
1000
0000
0000
0010
0000
0000
0001
0000
0001
0100
0000
0000
0010
0000
0000
1000
0000
0000
0100
0000
0000
0001
0000
0000
0100
0000
0000
1000
0000
0000
0010
0000
0000
,  // measure 44
1001
0000
0000
0000
;
