#TITLE:VANITY ANGEL;
#SUBTITLE:(25th Anniversary Special);
#ARTIST:FIXX;
#BANNER:VANITY ANGEL (25th Anniversary Special)-bn.png;
#BACKGROUND:VANITY ANGEL (25th Anniversary Special)-bg.png;
#JACKET:VANITY ANGEL (25th Anniversary Special)-jacket.png;
#MUSIC:VANITY ANGEL (25th Anniversary Special).ogg;
#SAMPLESTART:13.714;
#SAMPLELENGTH:20;
#DISPLAYBPM:70:280;
#BPMS:0=140,64=70,72=280,200=140,232=280,296=140;
#BGCHANGES:;

//---------------dance-single - ----------------
#NOTES:
     dance-single:
     :
     Challenge:
     15:
     :
0000
0000
0000
0000
,
0000
0000
0000
0000
,
0000
0000
0000
0000
,
0000
0000
0000
0000
,
0001
0000
0010
0000
0100
0000
1000
0000
0010
0100
0010
1000
0001
0000
0100
0000
,
0001
0000
0010
0000
0001
0000
1000
0000
0100
0010
0100
1000
0001
0000
0100
0000
,
0010
0000
1000
0000
0001
0000
0010
0000
0001
1000
0100
0010
0001
0000
0100
0000
,
0010
1000
0010
0100
0001
0000
1000
0000
0100
0010
0001
1000
0010
0000
0100
0000
,
0101
0000
0000
0000
0000
0000
1000
0100
0002
0000
0000
0000
0000
0000
0000
0000
,
0003
0011
0110
1100
,
0201
0010
0000
1000
0000
0001
0000
1000
,
0000
0000
0310
0100
0001
1000
0001
0010
0100
0000
1000
0010
0000
1000
0100
0010
,
0001
0000
0000
0000
0000
0000
0001
0100
2000
0000
0000
0000
0000
0000
0000
0000
,
3000
1001
1010
0101
,
0011
0000
0000
0100
2000
0000
3000
0000
,
0000
0000
0010
1000
0001
0010
0100
0010
0001
1000
0001
0100
0010
1000
0100
0010
,
0002
0000
0000
0000
0000
0000
0000
0000
0000
0000
0000
0000
0000
0000
0000
0000
1003
0000
0000
0001
0000
0000
0010
0000
0001
0000
0000
0100
0000
0000
0010
0000
,
2000
0000
0000
0000
0000
0000
0000
0000
0000
0000
0000
0000
0000
0000
0000
0000
0000
0000
0000
0000
0000
0000
0000
0000
0000
0000
0000
0000
0000
0000
0000
0000
0000
0000
0000
0000
0002
0000
0000
0000
0000
0000
0000
0000
0000
0000
0000
0000
0000
0000
0000
0000
0000
0000
0000
0000
0000
0000
0000
0000
0000
0000
0000
0000
0000
0000
3003
0000
0000
0000
0000
0000
0000
0000
0000
0000
0000
0000
0000
0000
0000
0000
0000
0000
0010
0000
0000
0000
0001
0000
0000
0000
1000
0000
0000
0000
0020
0000
0000
0000
0000
0000
0000
0000
0000
0000
0000
0000
0000
0000
0000
0000
0000
0000
0000
0000
0000
0000
0000
0000
0000
0000
0000
0000
0000
0000
0030
0000
0000
0000
0000
0000
0000
0000
0000
0000
0000
0000
0000
0000
0000
0000
0000
0000
0110
0000
0000
0000
0000
0000
0000
0000
0000
0000
0000
0000
0000
0000
0000
0000
0000
0000
1001
0000
0000
0000
0000
0000
0000
0000
0000
0000
0000
0000
0000
0000
0000
0000
0000
0000
0110
0000
0000
0000
0000
0000
0000
0000
0000
0000
0000
0000
,
1000
0100
0000
0100
0001
0000
0001
0010
,
0000
0100
0000
0010
0001
1000
0001
0100
,
0000
0010
0000
1000
0001
0010
0001
0100
,
0000
0010
1000
0001
1000
0100
0010
0001
,
0000
0100
0010
0100
0001
0010
0100
1000
,
0000
0001
0000
1000
0100
0000
1000
0001
,
0010
0001
0000
0001
0100
0000
0100
1000
,
0000
1000
0010
0100
0001
0000
1000
0010
,
0000
1000
0000
0100
0010
0001
1000
0001
,
0000
0100
0000
0001
0010
0100
0010
0001
,
0000
1000
0010
0100
0010
1000
0100
0010
,
0000
0001
1000
0010
1000
0100
0010
0001
,
0000
0100
0010
1000
0001
0010
0100
1000
,
0001
0100
0000
0010
1000
0000
0001
0000
,
1000
0100
0000
0010
0001
0000
0100
0000
,
0001
0010
1000
0010
0001
0100
1000
0100
,
0001
0000
1001
0000
0010
1000
0000
1000
,
0100
0000
0010
0001
0000
0011
0000
1100
,
0000
0001
1000
0000
1000
0010
0000
0100
,
0001
0000
0010
0100
0000
0110
0000
1001
,
0000
0010
1000
0000
0100
0010
0000
0010
,
0001
0000
1000
0001
0000
0101
0000
1100
,
0000
0010
1000
0000
0100
0010
0000
0001
,
1000
0000
0001
0100
0000
1010
0000
0001
,
1000
0000
0100
0010
0001
1000
0000
1000
,
0001
0000
1000
0010
0000
1001
0000
0011
,
0000
0001
1000
0000
0010
1000
0000
0100
,
0010
0000
0010
0001
0000
0101
0000
0110
,
0000
1000
0001
0000
0001
0010
0000
0010
,
0100
0000
0100
1000
0000
1100
0000
1010
,
0000
0001
0010
0000
0001
0100
0000
0010
,
1000
0000
0100
1000
0000
0001
0010
0100
,
1000
0000
0000
0010
0100
0010
0000
1000
0001
1000
0000
0100
0010
0000
0000
0001
,
0100
0010
0000
0010
1000
0100
0000
1000
0001
1000
0000
0100
0010
0001
0000
0100
,
0010
0000
0000
1000
0001
0000
0000
0010
0001
0100
0000
0001
1000
0000
0000
0010
,
1000
0100
0010
0001
0100
0000
0010
0000
1000
0001
1000
0100
0010
0000
0001
1000
,
0001
0000
0100
0000
0010
1000
0000
0010
1000
0100
0010
0001
0100
0000
0010
0000
,
1000
0000
0001
0000
1000
0000
0010
0000
1000
0100
0010
0001
0100
0000
0001
0000
,
0010
0000
0100
0000
1000
0000
0001
0000
0010
0001
1000
0001
0100
0000
0010
0000
,
1000
0100
0010
0001
0010
0100
1000
0000
0001
1000
0010
0100
0001
0000
1000
0000
,
0010
0000
1001
0000
1000
0010
0000
1000
,
0001
0010
0100
1000
0000
1100
0000
0011
,
0000
0100
0001
0000
0010
0001
0000
1000
,
0010
1000
0001
0100
0000
0110
0000
1001
,
0000
1000
0100
0000
0010
0001
0000
0100
,
0001
0010
0001
1000
0000
1010
0000
1001
,
0000
0100
0010
0000
1000
0001
0000
0010
,
0001
0100
0010
1000
0000
1000
0100
0010
,
0001
0000
0101
0000
0010
1000
0000
0100
,
1000
0001
0010
0100
0000
1100
0000
1001
,
0000
0010
0001
0000
0001
0100
0000
0001
,
1000
0100
0010
0001
0000
0011
0000
1100
,
0000
0010
1000
0000
0010
0100
0000
0100
,
0001
0010
0001
1000
0000
1001
0000
0110
,
0000
0010
1000
0000
0001
1000
0000
0100
,
0010
0001
0010
0100
0000
1000
0001
1000
,
0020
0000
0000
0000
,
0000
0000
0030
0000
;
