#TITLE:VANESSA;
#ARTIST:朱雀;
#ARTISTTRANSLIT:Suzaku;
#BANNER:VANESSA.png;
#BACKGROUND:VANESSA-bg.png;
#JACKET:VANESSA-jacket.png;
#MUSIC:VANESSA.ogg;
#SAMPLESTART:14.26;
#SAMPLELENGTH:15;
#DISPLAYBPM:185;
#BPMS:0=186,4=185;
#BGCHANGES:0=VANESSA.avi=1=0=0=0,
;

//---------------dance-single - ----------------
#NOTES:
     dance-single:
     :
     Beginner:
     4:
     :
0000
0000
0000
0000
,
0000
0000
0000
0000
,
0000
0000
0000
0000
,
0000
0000
0000
0000
,
0000
0000
0000
0000
,
0001
0000
0100
0000
,
1000
0000
0100
0000
,
0010
0000
0010
0000
,
0100
0100
0100
0100
,
0100
0000
0000
0000
,
0000
0000
0000
0000
,
1000
0000
1000
0000
,
1000
0000
0100
0000
,
0001
0000
0001
0000
,
0001
0000
0100
0000
,
1000
1000
1000
0000
,
0001
0001
0001
0000
,
0100
0000
0100
0000
,
1001
0000
0000
0000
,
1000
0000
1000
0000
,
1000
0000
0010
0000
,
0001
0000
0001
0000
,
0001
0000
0010
0000
,
0100
0100
0100
0000
,
0010
0010
0010
0000
,
1000
0000
0001
0000
,
0100
0100
0100
0000
,
0110
0000
0000
0000
,
1000
0000
0001
0000
,
1001
0000
0000
0000
,
0100
0000
0010
0000
,
0100
0000
0100
0000
,
0001
0000
0001
0000
,
1000
0000
1000
0000
,
0001
0000
1000
0000
,
1001
0000
0000
0000
,
0010
0000
0100
0000
,
0110
0000
0000
0000
,
1000
0000
0001
0000
,
0100
0000
0010
0000
,
1000
0000
0001
0000
,
0010
0000
0100
0000
,
1000
0000
0001
0000
,
1001
0000
0000
0000
,
1001
0000
0000
0000
,
1001
0000
0000
0000
,
1001
0000
0000
0000
,
0001
0001
0001
0001
,
1000
1000
1000
1000
,
0100
0100
0100
0100
,
0010
0010
0010
0010
,
0010
0000
0000
0000
,
1000
0000
0100
0000
,
0001
0000
0001
0001
,
0001
0000
0001
0000
,
0100
0000
1000
1000
,
1000
0000
1000
0000
,
0001
0000
0001
0000
,
0010
0000
0100
0000
,
0010
0010
0010
0000
,
1000
0000
0010
0000
,
0100
0000
0001
1000
,
0001
0000
0010
0000
,
0100
0000
1000
0001
,
1000
0000
0001
0000
,
1000
0000
0001
0000
,
0100
0010
0100
0000
,
0001
1000
0001
1000
,
0001
0000
0000
0000
,
1001
0000
0000
0000
,
0000
0000
0000
0000
;

//---------------dance-single - ----------------
#NOTES:
     dance-single:
     :
     Easy:
     7:
     :
0000
0000
0000
0000
,
0000
0000
0000
0000
,
0000
0000
0000
0000
,
0000
0000
0000
0000
,
0000
0000
0000
0000
,
1001
0010
0100
1000
,
0001
0010
0100
1000
,
0001
0001
1000
1000
,
0100
0100
0100
0100
,
2002
0000
0000
3003
,
0000
0000
0000
0000
,
1001
1001
1001
1001
,
1000
0001
0100
0010
,
0110
0110
0110
0110
,
0010
1000
0001
0100
,
1000
0001
2002
3003
,
0010
0100
0220
0330
,
1000
1000
0001
0001
,
1000
0100
0010
0000
,
0011
0011
0011
0011
,
0001
0100
1000
0100
,
1100
1100
1100
1100
,
1000
0100
0001
0100
,
0010
0001
0022
0033
,
0100
1000
2200
3300
,
0001
1000
0001
1000
,
0010
1000
0100
0001
,
0010
0010
0000
0010
,
0001
0001
1000
1000
,
0100
0100
0000
0100
,
1000
1000
0010
0010
,
0002
0100
1003
0000
,
0002
0010
1003
0000
,
2000
0100
3001
0000
,
2000
0001
3010
0000
,
0100
0100
0000
0100
,
1000
0100
0010
0001
,
0010
0010
0000
0010
,
0001
0010
0100
1000
,
2000
0100
3100
0000
,
0002
0100
0103
0000
,
0020
0100
0130
0000
,
0010
0100
1001
0000
,
2002
0000
0000
3003
,
0200
0000
0000
0300
,
0020
0000
0000
0030
,
0200
0000
0000
0300
,
1001
0010
0100
1000
,
1001
0010
0100
1000
,
1001
1001
0110
0110
,
1100
1100
0101
0101
,
0220
0000
0000
0330
,
1000
1001
1000
1010
,
1000
1100
0100
0010
,
0001
1001
0001
0011
,
0001
0101
0001
0100
,
1000
1010
2002
3003
,
0001
0101
0220
0330
,
1000
1000
0001
0001
,
1000
0100
0010
0000
,
0010
0011
0100
0101
,
1000
1001
0001
1000
,
0100
1100
0010
1010
,
0001
1001
0100
0001
,
1000
0101
0202
0303
,
0001
1010
2020
3030
,
0001
1000
0001
1000
,
0010
0100
0110
1001
,
0000
0000
0000
0000
,
2002
0000
0000
0000
,
0000
0000
0000
0000
,
3003
0000
0000
0000
,
0000
0000
0000
0000
;

//---------------dance-single - ----------------
#NOTES:
     dance-single:
     :
     Medium:
     11:
     :
0000
0000
0000
0000
,
0000
0000
0000
0000
,
0000
0000
0000
0000
,
0000
0000
0000
0000
,
0000
0000
0000
0000
,
1001
0000
0000
1000
0000
1000
0100
0000
0000
0010
0000
0010
,
0001
0000
0000
0100
0000
0100
0010
0000
0000
0010
0000
0010
,
1000
0000
1000
0001
0000
0001
0100
0000
0100
0010
0000
0010
,
0100
0100
0110
1001
,
2002
0000
0000
3003
,
0000
0000
0000
0000
,
0001
1001
1100
0001
,
0010
0000
0000
0110
0000
0000
1000
0000
1000
0100
0000
0000
,
0010
0011
0101
0010
,
1000
0000
0000
1001
0000
0000
0001
0000
0001
0100
0000
0000
,
0100
0000
0100
0010
0000
0000
0100
0000
0000
1010
0000
0000
,
0001
0000
0001
1000
0000
0000
1000
0000
0000
0101
0000
0000
,
1000
0000
1000
0100
0000
0100
0010
0000
0010
0001
0000
0001
,
1000
0001
1001
0000
,
1000
1100
0011
0100
,
0001
0000
0010
0001
0000
0000
1000
0000
0000
0110
0000
0000
,
0001
0101
1010
0001
,
1000
0000
0010
1000
0000
0000
0100
0000
0000
0110
0000
0000
,
0012
1003
2001
3100
,
1000
0000
0100
1000
0000
0000
0001
0000
0010
0001
0000
0000
,
0001
0000
1000
0001
0000
1000
0010
0000
1000
0100
0000
1000
,
0001
1000
1100
0101
,
0020
0100
0000
0130
,
1000
0000
0000
0100
0000
0000
0001
0000
0001
1000
0000
0000
,
2000
0001
0000
3010
,
0100
0000
0000
1000
0000
0000
0100
0000
0100
0001
0000
0000
,
2000
0000
0000
3001
0000
0000
1000
0000
1000
0100
0000
0000
,
0020
0000
0000
0130
0000
0000
0010
0000
0010
0001
0000
0000
,
2000
3010
0002
0103
,
0010
0100
0010
0100
0000
0000
0010
0000
0000
0110
0000
0000
,
0200
0010
0000
0310
,
1001
0000
0000
1001
0000
0000
1100
0000
1000
0001
0000
0000
,
0002
1000
0000
0013
,
0110
0000
0000
0110
0000
0000
0011
0000
0010
0100
0000
0000
,
2000
0000
0000
3001
0000
0000
0001
0000
0010
0001
0000
0000
,
0200
0000
0000
0310
0000
0000
0100
0000
0001
0100
0000
0000
,
0002
0103
2000
3010
,
1000
0001
1000
0001
0000
0000
0100
0000
0000
0110
0000
0000
,
0100
0000
0100
0000
0000
0000
1001
0000
0000
0010
0000
0010
,
0100
0000
0000
0000
0000
0110
0000
0000
0000
1100
0000
1000
,
0001
0000
1001
0000
0000
0000
0010
0000
0000
0010
0000
0010
,
0001
0000
1000
0000
0000
0001
1000
0000
0000
0110
0000
0000
,
1001
0000
0000
0001
0000
0001
0010
0000
0000
0100
0000
0100
,
1000
0000
0000
0010
0000
0010
0100
0000
0000
0100
0000
0100
,
0001
0000
0001
1000
0000
1000
0010
0000
0010
0100
0000
0000
,
1000
0100
1000
0100
0000
0000
0010
0001
0010
0001
0000
0000
,
2002
0000
0000
3003
,
1000
0000
1000
0001
0000
0001
1000
0000
1000
0001
0000
0001
,
0100
0000
0100
0010
0000
0010
1000
0000
0000
1001
0000
0000
,
0100
0000
0100
1000
0000
1000
0010
0000
0010
0100
0000
0100
,
0001
0000
0001
1000
0000
1000
0001
0000
0000
1001
0000
0000
,
0010
0000
0010
0100
0000
0000
0010
0000
0000
0101
0000
0000
,
1000
0000
1000
0001
0000
0000
0001
0000
0000
1010
0000
0000
,
0001
0000
0001
0010
0000
0010
0100
0000
0100
1000
0000
1000
,
0001
1000
1001
0110
,
0001
0000
0010
0001
0000
0010
0100
0000
0100
0010
0000
0000
,
1000
0000
0100
1000
0000
0100
0001
0000
0000
0110
0000
0000
,
1000
0000
0010
1000
0000
0010
0001
0000
0000
1000
0000
0000
,
0001
0000
0100
0001
0000
0100
0010
0000
0000
0110
0000
0000
,
0100
0000
1000
0100
0000
0000
0010
0000
0001
0010
0000
0000
,
0001
0000
0010
0001
0000
0000
1000
0000
0100
1000
0000
0000
,
1000
0000
0001
0100
0000
0010
1000
0000
0001
0010
0000
0100
,
1000
0000
1000
0010
0000
0010
0001
0000
0001
0100
0000
0100
,
0000
0000
0000
0000
,
2002
0000
0000
0000
,
0000
0000
0000
0000
,
3003
0000
0000
0000
,
0000
0000
0000
0000
;

//---------------dance-single - ----------------
#NOTES:
     dance-single:
     :
     Hard:
     16:
     :
0000
0000
0000
0000
,
0000
0000
0000
0000
,
0000
0000
0000
0000
,
0000
0000
0000
0000
,
0000
0000
0000
0000
,
0110
0000
0010
0001
0000
0001
0100
0000
0100
0010
0000
0010
,
1000
0000
1000
0100
0000
0100
0010
0000
0010
0001
0000
0001
,
0010
0001
0100
0010
1000
0100
0010
0001
0100
0010
1000
0100
,
0001
0100
1000
0001
0010
1000
0001
0100
1000
0001
0010
0100
,
0020
0000
0000
0030
,
1000
0100
1000
0001
0100
0001
1000
0010
1000
0001
0000
0000
,
1000
0000
1000
0001
0000
0001
0100
0000
0100
0010
0000
0010
,
1000
0000
1000
0001
0000
0001
1000
0100
0010
0001
0010
0100
,
1000
0000
1000
0100
0000
0100
0010
0000
0010
0001
0000
0001
,
0100
0000
0100
0010
0000
0010
1000
0001
0010
0100
0010
0001
,
1000
0000
1000
0100
1000
0010
0100
0000
0100
0001
0100
0010
,
1000
0000
1000
0001
0010
0001
0100
0000
0100
0010
1000
0001
,
0100
0000
0100
0010
0000
0010
1000
0000
1000
0001
0000
0001
,
1000
0100
0010
0001
0100
0010
0001
0010
0100
1000
0000
0000
,
0100
0000
0010
0100
0000
0100
0001
0000
0010
0001
0000
0001
,
1000
0000
0100
1000
0000
1000
0001
0010
0100
1000
0100
0010
,
0001
0000
0100
0001
0000
0001
1000
0000
0010
1000
0000
1000
,
0001
0000
0010
1000
0000
1000
0001
1000
0100
0010
0100
1000
,
0001
0000
0001
0100
1000
0100
0010
0000
1000
0100
0001
0100
,
0010
0000
0001
0010
1000
0010
0100
0000
0001
0100
1000
0010
,
1000
0000
0010
1000
0000
0001
1000
0000
0100
1000
0000
1000
,
0001
0100
0010
1000
0100
0010
0001
0100
0010
1000
0100
0010
,
0200
0000
0000
0010
0000
0000
0000
0000
0000
0301
0000
0001
,
0100
0000
0100
1000
0000
1000
0010
0000
0010
0001
0000
0001
,
0020
0000
0000
1000
0000
0000
0000
0000
0000
0130
0000
0100
,
0001
0000
0001
0010
0000
0010
1000
0000
1000
0010
0000
0000
,
0102
0000
0000
1003
0000
0000
0001
0100
0001
0100
0000
0000
,
1020
0000
0000
0130
0000
0000
0010
1000
0010
1000
0000
0000
,
0102
0013
2001
3100
,
0010
0100
0010
0100
0000
0001
1000
0000
0000
0110
0000
1000
,
0001
0000
0000
1100
0000
0010
0100
0000
0000
0011
0000
0100
,
1000
0000
0000
1001
0000
0100
0001
0000
0000
0110
0000
0001
,
1000
0000
0000
0011
0000
0100
0010
0000
0000
1100
0000
0010
,
0001
1000
0001
0100
0000
0010
1000
0000
0000
1001
0000
0010
,
1000
0000
0000
0101
0000
1000
0010
0000
0000
1100
0000
0010
,
0001
0000
0000
0110
0000
1000
0002
0000
0000
0103
0000
0100
,
0010
0000
0000
1100
0000
0001
0100
0000
0000
0010
0000
0001
,
0100
0001
0010
1000
0000
0010
0100
0000
0000
0110
0000
0000
,
1100
0000
0010
0100
0000
1000
0001
0000
0000
0011
0000
0010
,
0100
0010
0100
0000
0000
0110
0000
0000
0000
0101
0000
0001
,
1000
0000
0010
0100
0000
0000
1100
0000
0000
0011
0000
1000
,
0010
0000
0100
0001
1000
0100
0001
0000
0010
0100
0000
0000
,
1001
0000
0010
0001
0000
0001
0100
0000
0100
0010
0000
0010
,
1000
0000
1000
0100
0000
0100
0010
0000
0010
0001
0000
0001
,
0010
0001
0100
0010
1000
0100
0010
0001
0100
0010
1000
0100
,
0001
0100
1000
0001
0010
1000
0001
0100
1000
0001
0010
0100
,
1000
0100
0010
0001
0010
0100
1000
0100
0010
0110
0000
0000
,
1001
0000
0001
1000
0000
1000
0010
0000
0010
0100
0000
0100
,
0001
0000
0001
1000
0000
1000
0001
0010
0100
0010
0100
1000
,
0001
0000
0001
0010
0000
0010
0100
0000
0100
1000
0000
1000
,
0010
0000
0010
0100
0000
0100
0001
1000
0100
1000
0100
0010
,
0001
0000
0001
0010
1000
0010
0001
0000
0100
0001
0010
0001
,
0100
0000
1000
0100
0001
0100
1000
0000
0100
0001
0010
0001
,
0100
0000
0100
1000
0000
1000
0100
0000
0100
0001
0000
0000
,
0001
0010
0100
1000
0010
0100
1000
0100
0010
0001
0000
0000
,
1001
0000
1000
0100
0000
0001
0010
0000
0100
1000
0000
1000
,
0100
0000
0001
0010
0000
0100
1000
0100
0010
0001
0010
0100
,
1000
0000
0001
0100
0000
1000
0010
0000
0100
0001
0000
0001
,
0100
0000
1000
0010
0000
0100
0001
0010
0100
1000
0100
0010
,
0001
0000
0001
0100
1000
0001
1000
0100
0010
0001
0010
1000
,
0100
0000
0100
0010
0001
1000
0100
0001
0100
1000
0010
0001
,
0010
0100
0001
0010
0100
0001
1000
0010
0001
1000
0010
0001
,
1000
0100
0010
1000
0100
0010
1000
0010
0001
1000
0010
0001
,
0000
0000
0000
0000
,
2002
0000
0000
0000
,
0000
0000
0000
0000
,
3003
0000
0000
0000
,
0000
0000
0000
0000
;

//---------------dance-single - ----------------
#NOTES:
     dance-single:
     :
     Challenge:
     18:
     :
0000
0000
0000
0000
,
0000
0000
0000
0000
,
0000
0000
0000
0000
,
0000
0000
0000
0000
,
0000
0000
0000
0000
,
0011
0000
0000
0100
1000
0001
0010
0000
0000
0001
0000
1000
,
1100
0000
0000
0001
0010
0100
1000
0100
0010
0001
1000
0010
,
1000
0100
0001
1000
0010
0001
1000
0100
0001
1000
0010
0001
,
0100
0100
0100
0100
0100
0100
0100
0100
0100
0100
0100
0100
,
2002
0000
0000
3003
,
0010
0001
0100
0010
1000
0100
0001
0010
1000
0001
0100
1000
,
1001
0000
1000
1100
0000
0010
0011
0000
0100
0101
0000
0010
,
1010
0000
0001
0101
0000
0010
1000
0100
0001
0010
0001
0100
,
0110
0000
0010
1010
0000
0100
0110
0000
0001
1001
0000
0010
,
0011
0000
1000
1100
0000
0010
0100
0001
0010
0100
1000
0010
,
0101
0000
0001
1000
0010
0100
0001
0000
0010
0001
0100
1000
,
0010
0000
0100
0001
0010
0100
1000
0010
0001
0010
0100
1000
,
0001
0010
0100
0010
1000
0100
0001
1000
0010
0001
1000
0100
,
0010
0010
0010
0001
0001
0001
0100
0100
0100
1000
1000
1000
,
1010
0000
0100
0101
0000
0001
0011
0000
1000
1010
0000
0100
,
0110
0000
0010
1010
0000
0100
0001
0010
0100
0001
0010
0100
,
1100
0000
0001
1001
0000
0010
1010
0000
0100
0110
0000
0100
,
0101
0000
1000
1100
0000
0001
0010
0100
1000
0100
1000
0001
,
1010
0000
0001
0010
1000
0100
0001
0000
0100
0010
0100
0001
,
1000
0000
0010
1000
0001
0010
0001
0100
1000
0010
0100
0001
,
0010
0001
0100
1000
0010
1000
0100
0001
1000
0100
0010
0001
,
0100
0100
0100
0010
0010
0010
1000
1000
1000
0001
0001
0001
,
0010
0001
0100
1000
0000
0000
0101
0000
0000
0010
0100
0001
,
1000
0000
0001
0010
0000
0001
0100
0010
0100
0010
1000
0001
,
0100
0001
0010
1000
0000
0000
0101
0000
0000
0010
1000
0001
,
0100
0000
0010
1000
0000
0100
0010
0001
0100
0001
0010
1000
,
0001
0010
0100
0010
0100
1000
0010
1000
0100
0001
1000
0001
,
0010
0001
0100
0001
0010
0010
0100
0010
0001
0100
0010
1000
,
0001
0010
0001
0100
0010
0010
0010
0010
1000
0100
0001
1000
,
0010
0010
0010
1000
1000
1000
0001
0010
0001
1000
1000
0100
,
0001
0010
0100
1000
0000
0010
1001
0000
0000
0100
0000
0010
,
1010
0000
0000
0001
0000
0010
0011
0000
0100
1000
0010
0100
,
0001
0010
0100
1000
0000
0001
1010
0000
0000
0100
0000
0010
,
0110
0000
0100
0001
0000
0010
0110
0000
0100
1000
0010
0001
,
1010
0000
0010
1000
0100
0001
0011
0000
0100
0010
0001
0100
,
0010
1000
0100
0010
0001
0100
0010
0100
0010
1000
0100
0010
,
0001
1000
0000
0010
1000
0100
0010
0001
0100
0010
0100
0001
,
1000
1000
1000
1000
0000
1000
1000
0000
0000
1000
0000
1000
,
0101
0000
1010
0100
0000
0000
1001
0000
0000
0010
0000
0100
,
0001
0010
1000
0100
0000
1010
0000
0000
0000
0100
0000
0100
,
0100
0000
0010
1000
0000
0000
0110
0000
0000
0001
0010
1000
,
0100
0000
0010
0001
0100
1000
0001
0001
0001
0001
0000
0000
,
0011
0000
1000
0010
1000
0001
1010
0000
0100
0010
0100
0001
,
0011
0000
0001
0010
0100
1000
0010
0100
0010
1000
0100
0001
,
0010
0001
0100
0010
1000
0100
0010
0001
0100
0010
1000
0100
,
0010
0010
0010
0010
0010
0010
0010
0010
0010
0010
0010
0010
,
0001
0001
0001
1000
1000
1000
0001
0001
1000
1000
0001
1000
,
1010
0000
0001
0011
0000
0100
0110
0000
1000
1100
0000
0010
,
1001
0000
0100
1010
0000
0001
0010
0001
0100
1000
0010
0001
,
0110
0000
1000
1100
0000
0100
0011
0000
0100
1001
0000
0010
,
1010
0000
0100
0011
0000
0100
0010
0100
0010
0100
0010
1000
,
1001
0000
0010
0001
0100
1000
0001
0000
1000
0010
0001
1000
,
0100
0000
0010
0100
0010
0001
0100
1000
0010
1000
1000
0001
,
0010
1000
0001
1000
0100
0001
0010
0100
0010
0001
0100
1000
,
0010
0010
0010
0100
0100
0100
0001
0001
0001
1000
1000
1000
,
1001
0000
0010
1010
0000
0100
0101
0000
0001
0011
0000
0100
,
0110
0000
1000
1100
0000
0010
1000
1000
1000
0001
0001
0100
,
1010
0000
0001
0011
0000
1000
1001
0000
0010
1010
0000
0100
,
0110
0000
0010
0101
0000
0010
0100
0100
0100
0100
0100
1000
,
1001
0001
0010
0100
1000
0010
0100
0001
0010
0001
0100
1000
,
1010
0000
0001
0010
1000
0100
0010
0100
0010
0001
0100
1000
,
1100
0100
0010
0011
0010
0100
1010
1000
0001
0101
0001
1000
,
0010
0010
0010
0010
0010
0010
0010
0010
0010
0010
0010
0010
,
2002
0000
0000
3003
,
2200
0000
0000
0000
,
0000
0000
0000
0000
,
3300
0000
0000
0000
;

//---------------dance-double - ----------------
#NOTES:
     dance-double:
     :
     Easy:
     7:
     :
00000000
00000000
00000000
00000000
,
00000000
00000000
00000000
00000000
,
00000000
00000000
00000000
00000000
,
00000000
00000000
00000000
00000000
,
00000000
00000000
00000000
00000000
,
00001000
00000001
00000010
00000100
,
00010000
00001000
00100000
01000000
,
10000000
10000000
01000000
01000000
,
00010000
00001000
00000100
00000001
,
00002002
00000000
00000000
00000000
,
00003003
00000000
00000000
00000000
,
00000001
00000001
00000011
00000011
,
00001001
00001001
00000100
00010000
,
00001000
00001000
00011000
00011000
,
00101000
00101000
00010000
01000000
,
10000000
01000000
00010000
00100000
,
00001000
00010000
00001000
00000010
,
00000001
00000001
00000101
00000101
,
00000010
00001000
00010000
01000000
,
10000000
10000000
11000000
11000000
,
10010000
10010000
00100000
00001000
,
00010000
00010000
00011000
00011000
,
00010010
00010010
00001000
00000100
,
00000001
00000100
00001000
00000001
,
00000100
00001000
00010000
00001000
,
00100000
00001000
00010000
00000100
,
00010000
00001000
00011000
00000000
,
00200000
00000000
00310000
00000000
,
02000000
10000000
13000000
00000000
,
20000000
00000000
30010000
00000000
,
00020000
00100000
00130000
00000000
,
00002000
00000100
00003100
00000000
,
00000200
00000001
00000301
00000000
,
00000020
00000100
00000130
00000000
,
00000002
00001000
00001003
00000000
,
00001001
00000000
00000000
00000000
,
00000010
00010000
00001000
00100000
,
10010000
00000000
00000000
00000000
,
01000000
00001000
00010000
00000100
,
00000110
00000000
00001001
00000000
,
00000001
00000100
00001000
00010000
,
00011000
00000000
00011000
00000000
,
00001000
00010000
01000000
10000000
,
20000000
00000000
00000000
30000000
,
00200000
00000000
00000000
00300000
,
00002000
00000000
00000000
00003000
,
00000020
00000000
00000000
00000030
,
00001000
00000001
00000010
00000100
,
00010000
00001000
00100000
01000000
,
10000000
10000000
01000000
01000000
,
00010000
00001000
00000100
00000001
,
00002002
00000000
00000000
00003003
,
00000001
00000100
00000101
00000101
,
00001001
00001001
00000010
00010000
,
00001000
00010000
00011000
00011000
,
01001000
01001000
00010000
00100000
,
10000000
00100000
00010000
01000000
,
00001000
00010000
00001000
00000100
,
00000001
00000100
00000101
00000101
,
00000010
00001000
00010000
00000000
,
00011000
00011000
00001000
00010000
,
01000000
10000000
01000000
00010000
,
00011000
00011000
00010000
00001000
,
00000100
00000001
00000100
00001000
,
00010000
01000000
10000000
00100000
,
00010000
00001000
00000100
00000001
,
00000010
00000110
00001000
00001001
,
00000001
00000100
00001000
00010000
,
00011000
00000000
00000000
00000000
,
00022000
00000000
00000000
00000000
,
00000000
00000000
00000000
00000000
,
00033000
00000000
00000000
00000000
,
00000000
00000000
00000000
00000000
;

//---------------dance-double - ----------------
#NOTES:
     dance-double:
     :
     Medium:
     12:
     :
00000000
00000000
00000000
00000000
,
00000000
00000000
00000000
00000000
,
00000000
00000000
00000000
00000000
,
00000000
00000000
00000000
00000000
,
00000000
00000000
00000000
00000000
,
10000000
11000000
00100000
00110000
,
00001000
00011000
00010000
00010100
,
00001000
00000000
00001000
00000010
00000000
00000010
00010000
00000000
00010000
00001000
00000000
00001000
,
00100000
01000000
11000000
00110000
,
20020000
00000000
00000000
30030000
,
00000000
00000000
00000000
00000000
,
10000000
00000000
10000000
01000000
00000000
00000000
00100000
00000000
00100000
00010000
00000000
00000000
,
01000000
00000000
01000000
00001000
00000000
00001000
00020000
00000000
00000000
00031000
00000000
00000000
,
00010000
00000000
00010000
00000100
00000000
00000000
00001000
00000000
00001000
00000010
00000000
00000000
,
00000100
00000000
00000100
00000001
00000000
00000001
00002000
00000000
00000000
00003001
00000000
00000000
,
00000010
00000000
00000010
00000100
00000000
00000100
00010000
00000000
00010000
00001000
00000000
00000000
,
00100000
00000000
00100000
01000000
00000000
01000000
00010000
00000000
00010000
00001000
00000000
00000000
,
00001000
00000000
00001000
00100000
00000000
00100000
01000000
00000000
01000000
10000000
00000000
10000000
,
00020000
10030000
01100000
10010000
,
10000000
00000000
10000000
01000000
00000000
00000000
00010000
00000000
00010000
00001000
00000000
00000000
,
00000100
00000000
00000100
00000001
00000000
00000001
00000020
00000000
00000000
00000130
00000000
00000000
,
00000001
00000000
00000001
00000010
00000000
00000000
00001000
00000000
00001000
00010000
00000000
00000000
,
00100000
00000000
00100000
10000000
00000000
10000000
00020000
00000000
00000000
10030000
00000000
00000000
,
10000000
00000000
10000000
00010000
00000000
00010000
00100000
00000000
00100000
00001000
00000000
00000000
,
00010000
00000000
00010000
00000100
00000000
00000100
00000010
00000000
00000010
00000001
00000000
00000000
,
00001100
00000000
00000100
00000001
00000000
00000000
00001100
00000000
00000001
00000100
00000000
00000100
,
00001000
00000000
00001000
00010000
00000000
00010000
02000000
00000000
00000000
03100000
00000000
00000000
,
01100000
00000000
11000000
00010000
,
00101000
00000000
00000000
00000000
00000000
00000000
00011000
00000000
00000000
00001000
00000000
00010000
,
00001000
00000000
00001010
00000100
,
00001001
00000000
00000000
00000000
00000000
00000000
00000011
00000000
00000000
00000100
00000000
00001000
,
00000100
00000000
00000000
00000100
00000000
00000000
00010000
00000000
00010000
00001000
00000000
00000000
,
00011000
00000000
00000000
00000000
00000000
00000000
00110000
00000000
00000000
00100000
00000000
00100000
,
01000000
00000000
01100000
00010000
,
20200000
30300000
10010000
00000000
,
00010000
00000000
00000000
10000000
00000000
10000000
00100000
00000000
00000000
00000000
00000000
00000000
,
01000000
00000000
00000000
00001000
00000000
00001000
00100000
00000000
00000000
00001000
00000000
00000000
,
00010000
00000000
00000000
00000100
00000000
00000100
00000010
00000000
00000000
00000000
00000000
00000000
,
00000001
00000000
00000000
00001000
00000000
00001000
00000001
00000000
00000000
00000100
00000000
00000000
,
00000010
00000000
00000000
00010000
00000000
00010000
00001000
00000000
00001000
00010000
00000000
00010000
,
00001000
00100000
01000000
10000000
,
11000000
00000000
00110000
00000000
,
00010000
00001000
00010000
00001000
00000000
00000000
00000010
00000000
00000000
00000100
00000000
00000000
,
00002002
00000000
00000000
00003003
,
00000010
00000000
00000010
00010000
00000000
00000000
00001000
00000000
00000000
00010000
00000000
00000000
,
00022000
00000000
00000000
00033000
,
00001000
00000000
00001000
00100000
00000000
00000000
00010000
00000000
00000000
10000000
00000000
00000000
,
10000000
00000000
10000000
01000000
00000000
00000000
00100000
00000000
00100000
00001000
00000000
00000000
,
00001000
00000000
00001000
00010000
00000000
00000000
00000010
00000000
00000010
00000100
00000000
00000000
,
00000001
00000000
00000001
00000100
00000000
00000100
00000010
00000000
00000010
00010000
00000000
00010000
,
00001000
00000000
00001000
00100000
00000000
00100000
00010000
00000000
00010000
10000000
00000000
10000000
,
02000000
00100000
00100000
03100000
,
01100000
01100000
11000000
00110000
,
00101000
00000000
00000000
00011000
00000000
00000000
00000100
00000000
00000100
00000010
00000000
00000000
,
00000110
00000110
00000011
00001100
,
00010100
00000000
00000000
00011000
00000000
00000000
01000000
00000000
01000000
00100000
00000000
00000000
,
10000000
00000000
10000000
00010000
00000000
00010000
01000000
00000000
00000000
10010000
00000000
00000000
,
01000000
00000000
01000000
00001000
00000000
00001000
00010000
00000000
00000000
00011000
00000000
00000000
,
00001000
00000000
00001000
00000100
00000000
00000100
00000001
00000000
00000001
00000010
00000000
00000010
,
00001000
00000000
00001000
00010000
00000000
00010000
00002000
00000000
00000000
00013000
00000000
00000000
,
00010000
00000000
00010000
01000000
00000000
01000000
00100000
00000000
00100000
00001000
00000000
00001000
,
00010000
00000000
00010000
00000100
00000000
00000100
00000010
00000000
00000010
00000001
00000000
00000000
,
00000001
00000000
00000001
00000100
00000000
00000100
00000010
00000000
00000010
00010000
00000000
00010000
,
00001000
00000000
00001000
01000000
00000000
01000000
00100000
00000000
00100000
10000000
00000000
00000000
,
00100000
00000000
00100000
10000000
00000000
10000000
01000000
00000000
01000000
00010000
00000000
00010000
,
00001000
00000000
00001000
00000100
00000000
00000100
00000001
00000000
00000001
00000010
00000000
00000010
,
00001000
00000000
00001000
00010000
00000000
00010000
01000000
00000000
01000000
10000000
00000000
10000000
,
00100000
00000000
00100000
00010000
00000000
00010000
00001000
00000000
00001000
00010000
00000000
00010000
,
00000000
00000000
00000000
00000000
,
00000022
00000000
00000000
00000000
,
00000000
00000000
00000000
00000000
,
00000033
00000000
00000000
00000000
,
00000000
00000000
00000000
00000000
;

//---------------dance-double - ----------------
#NOTES:
     dance-double:
     :
     Hard:
     16:
     :
00000000
00000000
00000000
00000000
,
00000000
00000000
00000000
00000000
,
00000000
00000000
00000000
00000000
,
00000000
00000000
00000000
00000000
,
00000000
00000000
00000000
00000000
,
10000000
00000000
10000000
00100000
00000000
00100000
01000000
00000000
01000000
00001000
00000000
00001000
,
00010000
00000000
00010000
00000010
00000000
00000010
00000100
00000000
00000100
00000001
00000000
00000001
,
00000010
00000100
00001000
00000010
00000100
00001000
00010000
00001000
00100000
00010000
00100000
01000000
,
10000000
01000000
00010000
00001000
00010000
01000000
10000000
00100000
00010000
00001000
00010000
00100000
,
20000000
00000000
00000000
30000000
,
10000000
01000000
00100000
00010000
00000000
00000000
00001000
00000100
00000010
00000001
00000000
00000000
,
00001001
00000000
00000001
00000010
00000000
00000010
00001000
00000000
00001000
00010000
00000000
00010000
,
00001000
00000000
00001000
00000100
00000000
00000100
00000001
00000010
00000100
00000010
00000001
00000100
,
00001000
00000000
00001000
00010000
00000000
00010000
00100000
00000000
00100000
10000000
00000000
10000000
,
01000000
00000000
01000000
00010000
00000000
00010000
00001000
00010000
00100000
01000000
00100000
00010000
,
00001000
00000000
00001000
00010000
00001000
00010000
00000100
00000000
00000100
00000010
00000001
00000010
,
00000001
00000000
00000001
00000100
00001000
00000100
00001000
00000000
00001000
00010000
01000000
00010000
,
01000000
00000000
01000000
10000000
00000000
10000000
00100000
00000000
00100000
00010000
00000000
00010000
,
00001000
00010000
01000000
10000000
00000000
00000000
00100000
00000000
00000000
01100000
00000000
00000000
,
10010000
00000000
10000000
00100000
00000000
00100000
00010000
00000000
00010000
00001000
00000000
00001000
,
00010000
00000000
00010000
01000000
00000000
01000000
10000000
00100000
01000000
00100000
10000000
01000000
,
00010000
00000000
00010000
00001000
00000000
00001000
00000010
00000000
00000010
00000001
00000000
00000001
,
00000100
00000000
00000100
00001000
00000000
00001000
00010000
00001000
00000010
00000100
00000010
00001000
,
00010000
00000000
00010000
00001000
00010000
00001000
01000000
00000000
01000000
00100000
10000000
00100000
,
10000000
00000000
10000000
01000000
00010000
01000000
00010000
00000000
00010000
00001000
00000100
00001000
,
00000100
00000000
00000100
00000001
00000000
00000001
00000010
00000000
00000010
00001000
00000000
00001000
,
00010000
00001000
00100000
00001000
00010000
00000100
00010000
00000000
00000000
00011000
00000000
00000000
,
00002000
00000000
00000000
00010000
00000000
00000000
01003000
00000000
00000000
00010000
00000000
00010000
,
01000000
00000000
00000000
00100000
00000000
00000000
00110000
00000000
00000000
11000000
00000000
10000000
,
00020000
00000000
00000000
10000000
00000000
00000000
01030000
00000000
00000000
00100000
00000000
00100000
,
01000000
00000000
00000000
00001000
00000000
00000000
00010000
00000000
00000000
00000100
00000000
00000100
,
00002000
00000000
00000000
00000001
00000000
00000000
00003010
00000000
00000000
00000100
00000000
00000100
,
00000001
00001000
00000011
00001100
,
00020000
00000000
00000000
00000100
00000000
00000000
00031000
00000000
00000000
00010000
00000000
00010000
,
01000000
00100000
10010000
01100000
,
10010000
00000000
00000000
00100000
00000000
10000000
00010000
00000000
00000000
01000000
00000000
00001000
,
00010000
00000000
00000000
00001000
00000000
00010000
00000100
00000000
00000000
00000010
00000000
00000001
,
00000100
00000000
00000000
00000001
00000000
00001000
00000100
00000000
00000000
00001000
00000000
00000001
,
00000010
00000100
00001000
00000100
00000000
00010000
00001000
00000000
00000000
00100000
00000000
00010000
,
01000000
00000000
00000000
00010000
00000000
10000000
01000000
00000000
00000000
00010000
00000000
00001000
,
00000100
00000000
00000000
00001000
00000000
00010000
00100000
00000000
00000000
00010000
00000000
00001000
,
00000100
00000000
00000000
00000001
00000000
00000010
00001000
00000000
00000000
00000010
00000000
00000001
,
00000010
00000100
00001000
00000001
00000000
00000000
00001100
00000000
00000000
00001001
00000000
00000000
,
00000101
00000000
00000000
00000101
00000000
00000000
00001010
00000000
00000000
00000010
00000000
00000010
,
00010000
00001000
00010000
00001000
00000000
00011000
00000000
00000000
00000000
00001000
00000000
00001000
,
01000000
00000000
00100000
01000000
00000000
00000000
01100000
00000000
00000000
00100000
00000000
00100000
,
10000000
00000000
10000000
00010000
00100000
01000000
10000000
00000000
00100000
10000000
00000000
00000000
,
10000000
00000000
10000000
01000000
00000000
01000000
00100000
00000000
00100000
00001000
00000000
00001000
,
00010000
00000000
00010000
00000100
00000000
00000100
00000010
00000000
00000010
00000001
00000000
00000001
,
00000100
00000010
00001000
00000100
00000010
00001000
00010000
00001000
01000000
00010000
01000000
00100000
,
10000000
00100000
00010000
00001000
00010000
00100000
10000000
01000000
00010000
00001000
00010000
01000000
,
10000000
01000000
00100000
00001000
00010000
00100000
00010000
00001000
00000010
00000001
00000010
00000100
,
00001000
00000000
00000001
00001000
00000000
00000010
00001000
00000000
00010000
00001000
00000000
00000010
,
00001000
00000000
00000001
00001000
00000000
00000100
00010000
00001000
01000000
00100000
00000000
00000000
,
00010000
00000000
10000000
00010000
00000000
00100000
00010000
00000000
00001000
00010000
00000000
00100000
,
00010000
00000000
10000000
00010000
00000000
01000000
00001000
00010000
00000100
00000010
00000000
00000000
,
00000010
00000000
00000010
00000001
00000010
00000100
00001000
00000000
00000100
00010000
00001000
00100000
,
00010000
00000000
00100000
00010000
00100000
01000000
10000000
00000000
10000000
01000000
00100000
00001000
,
00010000
00000000
00010000
00001000
00000000
00001000
00010000
00000000
00010000
01000000
00000000
00000000
,
10000000
01000000
00100000
00010000
00000000
00000000
00001000
00000000
00010000
00001000
00000000
00000010
,
00000001
00000000
00000100
00000010
00000000
00001000
00000100
00000000
00010000
00001000
00000000
00100000
,
00010000
00000000
01000000
00100000
00000000
10000000
01000000
00010000
00001000
00000100
00000001
00000010
,
00000001
00000000
00000010
00000100
00000000
00000100
00001000
00000000
00001000
00010000
00000000
00010000
,
00100000
00000000
00100000
01000000
00000000
01000000
10000000
00010000
00100000
00001000
00010000
00000100
,
00001000
00000000
00001000
00000100
00000001
00000100
00001000
00000000
00001000
00000010
00000001
00000010
,
00001000
00000000
00010000
01000000
10000000
01000000
00010000
00000000
00010000
00100000
10000000
00100000
,
00010000
00000000
00010000
10000000
00000000
10000000
01000000
00000000
01000000
00100000
00000000
00100000
,
00010000
00001000
00000100
00000010
00000001
00000010
00000100
00001000
00010000
00100000
01000000
10000000
,
00000000
00000000
00000000
00000000
,
00022000
00000000
00000000
00000000
,
00000000
00000000
00000000
00000000
,
00033000
00000000
00000000
00000000
,
00000000
00000000
00000000
00000000
;
