#TITLE:VALLIS-NERIA;
#ARTIST:DJ YOSHITAKA;
#BANNER:VALLIS-NERIA.png;
#BACKGROUND:VALLIS-NERIA-bg.png;
#JACKET:VALLIS-NERIA-jacket.png;
#MUSIC:VALLIS-NERIA.ogg;
#SAMPLESTART:90.811;
#SAMPLELENGTH:20;
#DISPLAYBPM:185;
#BPMS:0=185;
#BGCHANGES:0=VALLIS-NERIA.avi=1=0=0=0,
;

//---------------dance-single - ----------------
#NOTES:
     dance-single:
     :
     Beginner:
     5:
     :
0000
0000
0000
0000
,
0000
0000
0000
0000
,
0000
0000
0000
0000
,
0000
0000
0000
0000
,
0000
0000
0000
0000
,
0000
0000
0000
0000
,
0001
0000
0010
0000
,
0001
0000
0100
0000
,
0010
0000
0000
0000
,
0000
0000
0000
0000
,
2002
0000
0000
0000
,
3003
0000
0000
0000
,
2002
0000
0000
0000
,
3003
0000
0000
0000
,
1000
0000
0100
0000
,
0010
0000
0001
0000
,
0100
0000
0010
0000
,
1000
1000
1000
0000
,
0010
0000
1000
0000
,
0100
0000
0010
0000
,
0100
0000
1000
0000
,
0001
0000
0000
0000
,
0010
0000
0001
0000
,
0100
0000
0001
0000
,
0010
0000
0100
0000
,
1000
0000
0000
0000
,
0100
0000
0100
0000
,
1000
0000
0010
0000
,
0100
0000
0100
0000
,
0100
0000
0000
0000
,
0220
0000
0000
0000
,
0330
0000
0000
0000
,
2002
0000
0000
0000
,
3003
0000
0000
0000
,
0001
0001
0010
0000
,
0001
0000
0100
0000
,
0010
0010
0001
0000
,
0010
0000
1000
0000
,
2002
0000
0000
0000
,
3003
0000
0000
0000
,
0220
0000
0000
0000
,
0330
0000
0000
0000
,
1000
1000
0100
0000
,
1000
0000
0010
0000
,
0100
0100
1000
0000
,
0100
0000
0000
0000
,
1000
0000
0100
0000
,
1000
0000
0100
0000
,
0010
0000
0001
0000
,
0010
0001
0010
0000
,
0001
0000
0100
0000
,
0001
0000
0100
0000
,
0010
0000
1000
0000
,
0010
1000
0010
0000
,
1000
1000
0100
0000
,
1000
1000
0010
0000
,
0100
0100
0010
0000
,
1001
0000
0000
0000
,
0001
0001
0100
0000
,
0001
0001
0010
0000
,
0100
0100
0010
0000
,
1001
0000
0000
0000
,
1001
0000
0000
0000
,
0000
0000
0000
0000
,
0000
0000
0000
0000
,
0000
0000
0000
0000
,
0001
0010
0001
0010
,
0100
1000
0100
1000
,
0200
0000
0000
0000
,
0300
0000
0000
0000
,
0001
0000
0100
0000
,
1000
0000
0100
0000
,
0001
0010
0001
0000
,
0100
0000
0000
0000
,
1000
0000
0100
0000
,
0001
0000
0100
0000
,
1000
0010
1000
0000
,
0100
0000
0000
0000
,
0001
0000
0010
0000
,
0100
0000
1000
0000
,
0010
0000
0100
0000
,
0001
0000
0000
0000
,
2002
0000
0000
0000
,
3003
0000
0000
0000
,
0220
0000
0000
0000
,
0330
0000
0000
0000
,
1000
1000
0100
0000
,
0010
0010
1000
0000
,
0100
0000
0001
0000
,
1001
0000
0000
0000
,
2002
0000
0000
0000
,
3003
0000
0000
0000
,
0220
0000
0000
0000
,
0330
0000
0000
0000
,
0001
0001
0100
0000
,
0010
0010
0001
0000
,
0100
0000
1000
0000
,
0001
0000
0000
0000
,
2002
0000
0000
0000
,
0000
0000
0000
0000
,
3003
0000
0000
0000
,
0000
0000
0000
0000
;

//---------------dance-single - ----------------
#NOTES:
     dance-single:
     :
     Easy:
     9:
     :
0000
0000
0000
0000
,
0000
0000
0000
0000
,
0000
0000
0000
0000
,
0000
0000
0000
0000
,
0000
0000
0000
0000
,
0000
0000
0000
0000
,
0001
0010
0001
0001
,
1000
0100
1000
1000
,
0000
0010
0200
0000
0000
0000
0000
0000
,
0000
0000
0000
0300
,
0001
0100
0010
1000
,
0100
0000
0010
0000
0001
1000
0001
0000
,
0100
0010
1000
0001
,
0010
0000
0100
0000
1000
0001
1000
0000
,
0001
0010
1000
0010
,
0001
0100
1000
0100
,
0001
0100
0001
0000
1000
0100
1000
0000
,
0001
1000
1001
0000
,
0010
0000
1000
0000
0100
0000
0010
0001
,
0000
0010
0000
0001
0000
0000
0100
0000
,
0002
0000
0000
0010
0000
0013
0000
0100
,
0000
0100
0000
0100
0000
0000
0110
0000
,
1000
0000
0100
0000
1000
0000
0010
1000
,
0000
0001
0000
0000
0100
0001
0000
0100
,
0000
2002
0000
3003
,
0001
0000
1000
0000
0001
1000
0001
0000
,
0100
0000
0010
0000
1000
0000
0001
1000
,
0000
0000
0100
0000
1000
0100
1000
0000
,
0001
0000
0000
1001
0000
0000
0000
0000
,
0220
0000
0000
0330
,
1000
0000
0000
1000
0000
0000
0000
2000
,
0001
0001
0001
3001
,
0001
0000
0000
0001
0000
0000
0000
0002
,
0000
1000
1000
1003
,
0001
0100
1000
0100
,
0001
0100
1000
0100
,
0001
0010
0001
0000
0001
0000
0000
0000
,
1000
0010
1000
0000
1000
0000
0000
0000
,
0010
0000
0000
0010
0000
0000
0000
0200
,
0000
0010
0010
0310
,
0100
0000
0000
0100
0000
0000
0000
0020
,
0000
0100
0100
0130
,
1000
0100
0001
0100
,
1000
0100
0001
0100
,
1000
0010
1000
0000
1000
0000
0000
0000
,
0001
0010
0001
0000
0001
0000
0000
0000
,
0010
0010
1000
1000
,
0100
0100
0010
1001
,
0010
0010
0001
0001
,
0100
0100
0010
1001
,
1000
1000
0100
0100
,
0010
0010
0001
0011
,
0001
0001
0100
0100
,
0010
0010
1000
1010
,
1000
0010
0001
0010
,
1000
0000
0001
0000
1000
0001
1000
0000
,
0001
0010
1000
0010
,
0001
0000
1000
0000
0001
1000
0001
0000
,
0010
0001
0100
0010
,
1000
0100
0010
1001
,
0001
0100
0001
0000
1000
0100
1000
0000
,
0010
0010
0100
0110
,
2002
0000
0000
0000
,
0000
0000
0000
0000
,
0000
0000
0000
0000
,
0000
0000
0000
3003
,
0100
0100
0100
0100
,
0010
0010
0010
0010
,
0200
0000
0000
0000
,
0000
0000
0000
0300
,
0100
0000
0001
0000
0010
0000
0100
1000
,
0000
0100
0000
1000
0000
0000
0010
0000
,
2000
0000
0000
0100
0000
3100
0000
0010
,
0000
0010
0000
0010
0000
0000
0110
0000
,
0001
0000
0010
0000
0001
0000
0100
0001
,
0000
1000
0000
0000
0010
1000
0000
0010
,
0000
2002
0000
3003
,
1000
0000
0001
0000
1000
0001
1000
0000
,
0010
0000
0100
0000
0001
0000
1000
0001
,
0000
0000
0010
0000
0001
0010
0001
0000
,
1000
0000
0000
1001
0000
0000
0000
0000
,
0220
0000
0000
0330
,
0010
0000
0000
0100
0000
0000
0000
2000
,
0000
0001
0001
3001
,
0100
0000
0000
0010
0000
0000
0000
0002
,
0000
1000
1000
1003
,
1000
0010
0001
0010
,
1000
0010
0001
0010
,
1000
0100
0010
0000
0001
0000
0000
0000
,
0001
0100
0010
0000
1000
0000
0000
0000
,
0001
0000
0000
1000
0000
0000
0000
0200
,
0000
0010
0010
0310
,
1000
0000
0000
0001
0000
0000
0000
0020
,
0000
0100
0100
0130
,
0001
0010
1000
0010
,
0001
0010
1000
0010
,
0001
0000
0100
0010
1000
0000
0000
0000
,
1000
0000
0100
0010
0001
0000
0000
0000
,
2002
0000
0000
0000
,
0000
0000
0000
0000
,
3003
0000
0000
0000
,
0000
0000
0000
0000
;

//---------------dance-single - ----------------
#NOTES:
     dance-single:
     :
     Medium:
     13:
     :
0000
0000
0000
0000
,
0000
0000
0000
0000
,
0000
0000
0000
0000
,
0000
0000
0000
0000
,
0000
0000
0000
0000
,
0000
0000
0000
0000
,
0001
0000
0100
0000
0010
1000
0010
1000
,
0000
0100
0000
0100
0000
0010
0000
0010
,
0000
0002
2000
0000
0000
0000
0000
0000
,
0000
0000
0000
3003
,
1000
0001
0010
0000
0001
0100
0010
1000
,
0000
0100
1000
0010
1000
0100
0010
0000
,
0001
1000
0010
0000
1000
0100
0010
0001
,
0000
0100
0001
0010
0001
0100
0010
0000
,
1000
0100
1000
0100
0010
0001
0010
0000
,
0001
0100
0001
0100
0010
1000
0010
0000
,
1000
0100
0010
0001
1000
0100
0010
0001
,
1000
0100
0001
0100
1000
0010
1001
0000
,
0001
0010
0001
0100
0010
1000
0010
1000
,
0000
1010
0000
0100
0001
0100
0001
0000
,
0010
0000
0001
0100
0000
0110
0000
1001
,
0000
1010
0000
1100
0000
1000
0000
0010
,
0100
0010
1000
0010
0100
0001
0010
0001
,
0000
1000
0100
0001
0100
1000
0000
0001
,
0000
0002
2000
0000
0000
0000
3003
0000
,
0010
1000
0100
0010
0001
0001
0001
0001
,
1000
0010
1000
0010
0100
0001
0010
0001
,
0000
0011
0000
0001
0100
0010
1000
0010
,
0200
0000
0000
0002
0000
0000
0303
0000
,
0010
0000
0000
0011
0000
0000
1001
0000
0000
0000
1000
0001
1000
0000
0000
0000
,
0010
0010
0000
0010
0000
0010
0000
2000
,
0000
0001
0010
3001
,
0100
0100
0000
0100
0000
0100
0000
0002
,
0000
1000
0010
1003
,
1000
0100
0010
1000
0010
0100
1000
0010
,
0100
0001
0010
0000
0100
1000
0010
0000
,
1000
0000
0100
0000
0001
0000
0000
0100
0000
1000
0000
0000
0001
0000
0000
0000
,
1000
0001
1000
0001
0100
0010
0000
0000
,
0001
0001
0000
0001
0000
0001
0000
0200
,
0000
0001
0010
0301
,
1000
1000
0000
1000
0000
1000
0000
0020
,
0000
1000
0100
1030
,
0001
0010
0100
0001
0100
0010
0001
0100
,
0010
1000
0100
0000
0010
0001
0100
0000
,
0002
0000
0103
1000
0200
0000
0301
0000
,
0010
0100
0010
0000
0001
1000
0001
0000
,
1000
0100
0100
0010
0100
0100
1000
0100
,
0100
0010
0001
0000
0101
0000
1100
0000
,
0001
0100
0100
0010
0100
0100
0001
0100
,
0100
0010
1000
0000
1010
0000
0011
0000
,
1000
0001
0001
0010
0001
0001
0100
0001
,
0001
1000
0010
0000
0110
0000
1001
0000
,
0001
1000
1000
0010
1000
1000
0100
1000
,
1000
0010
1000
0000
1001
0000
0110
0000
,
1000
0100
0010
0001
0100
0010
1000
0100
,
0010
0001
0100
0010
1000
0010
1010
0000
,
0001
0010
0100
1000
0010
0100
0001
0010
,
0100
1000
0010
0100
0001
0100
0101
0000
,
1000
0100
0001
1000
0010
0001
1000
0100
,
0001
1000
0010
0001
1000
0001
1001
0000
,
0001
0100
1000
0100
0001
0010
1000
0010
,
0001
0000
0000
0100
0000
0010
0000
0110
0000
0000
0000
0000
1000
0001
0000
0001
,
2000
0000
0000
0000
,
3002
0000
0000
0000
,
0203
0000
0000
0000
,
0320
0000
2030
0000
,
3200
0000
0000
0000
,
0302
0000
0000
0000
,
0203
0000
0000
0000
,
0000
0000
0000
0300
,
1000
0100
1000
0010
0100
0001
0100
0001
,
0000
0101
0000
0010
1000
0010
1000
0000
,
0100
0000
1000
0010
0000
0110
0000
1001
,
0000
0101
0000
0011
0000
0001
0000
0100
,
0010
0100
0001
0100
0010
1000
0100
1000
,
0000
0001
0010
1000
0010
0001
0000
1000
,
0000
2000
0002
0000
0000
0000
3003
0000
,
0100
0001
0010
0100
1000
1000
1000
1000
,
0001
0100
0001
0100
0010
1000
0100
1000
,
0000
1100
0000
1000
0010
0100
0001
0100
,
0020
0000
0000
2000
0000
0000
0000
3030
,
0100
0000
0000
1100
0000
0000
1001
0000
0000
0000
0001
1000
0001
0000
0000
0000
,
0010
0010
0000
0100
0000
0100
0000
2000
,
0000
0001
0010
3001
,
0100
0100
0000
0010
0000
0010
0000
0002
,
1000
0100
1000
0103
,
0001
0100
0100
1000
0100
0100
0001
0100
,
0100
1000
0010
0100
0001
0010
0100
1000
,
0001
0000
0010
0000
0001
0000
0000
0100
0000
0010
0000
0000
0100
0000
0000
0000
,
0010
1000
0010
0100
0001
1000
0001
0000
,
1000
1000
0000
0001
0000
0001
0000
0200
,
0000
0001
0010
0301
,
0001
0001
0000
1000
0000
1000
0000
0020
,
0000
1000
0100
1030
,
1000
0010
0010
0001
0010
0010
1000
0010
,
0010
0001
0100
0010
1000
0100
0001
0100
,
2000
0000
0000
0000
3010
0000
0010
0000
0200
0000
0000
0001
0000
0000
0301
0000
,
0010
0100
0010
0100
1000
0001
1000
0000
,
2002
0000
0000
0000
,
0000
0000
0000
0000
,
3003
0000
0000
0000
,
0000
0000
0000
0000
;

//---------------dance-single - ----------------
#NOTES:
     dance-single:
     :
     Hard:
     16:
     :
0000
0000
0000
0000
,
0000
0000
0000
0000
,
0000
0000
0000
0000
,
0000
0000
0000
0000
,
0000
0000
0000
0000
,
0000
0000
0000
0000
,
1000
0000
0001
0000
0100
0010
1000
1000
,
0000
1100
0000
0101
0000
0011
0000
0110
,
0000
2000
0002
0000
0000
0000
0000
0000
,
0000
0000
0000
3003
,
0001
0100
0001
0100
0010
1000
0010
1000
,
0000
1000
0100
0001
0100
1000
1100
0000
,
0100
1000
0100
1000
0001
0010
0001
0010
,
0000
0000
0010
0000
0001
0000
0100
0000
1000
0000
0100
0001
0100
0000
0010
1000
,
0010
1000
0010
0100
0010
1000
0100
0010
,
0000
0001
1000
0001
0010
0100
0110
0000
,
1000
0100
0010
0001
0100
0010
1000
0001
,
1001
0000
0010
1000
0000
0010
0000
0100
0001
0000
0100
0000
0001
1000
0000
1000
,
0001
0000
0010
0100
0010
0000
0001
0000
1000
0000
0100
0000
0010
0000
0011
0000
,
0000
0101
0000
0010
1000
0010
1000
0000
,
0002
0000
0203
2300
0000
3002
0000
0023
,
0000
2030
0000
3200
0000
0320
0000
0031
,
1000
0000
0100
0010
0001
0000
1000
0000
0001
0000
0010
0000
0100
0000
1000
0000
,
0000
1000
0010
0001
0010
1000
0000
1100
,
0000
0000
0010
0000
0002
0000
0000
0000
0000
0000
0100
0000
0103
0000
0001
1000
,
0001
0000
0010
0000
1000
0000
0010
0000
0001
0000
0100
1000
0100
0000
0001
0000
,
1000
0000
0001
0010
0100
0000
1000
0000
0010
0000
0001
0000
0010
0000
1010
0000
,
0000
0101
0000
1000
0100
0001
0100
1000
,
0020
0000
0130
0200
0000
0301
0001
1000
,
0100
0000
0000
1100
0000
0000
1010
0000
0001
0100
0001
0100
0001
0000
0000
0000
,
1000
1000
0000
1010
0000
0011
0000
1010
,
0001
0100
0001
0000
0010
0000
0100
1000
0000
0010
1000
0000
0100
0000
0000
0000
,
0001
0000
0001
0000
0000
0000
0011
0000
0000
0000
1010
0000
0000
0000
0001
0100
,
0010
0000
0000
0001
0000
0000
0010
0000
1000
0000
0000
0001
0000
0000
0100
0000
,
0010
0000
1000
0100
1000
0000
0001
0000
1000
0100
1000
0000
0010
0000
1000
0100
,
1000
0001
1000
0010
0001
0010
0001
0010
,
1000
0100
0010
0001
0010
0000
0001
0100
0000
0010
0000
1000
0001
0000
0100
0000
,
0010
0000
1000
0100
0010
0000
0001
0000
1000
0000
1000
0000
1000
0000
1000
0000
,
0001
0001
0000
0101
0000
1100
0000
0101
,
1000
0010
1000
0000
0100
0000
0010
0001
0000
0100
0001
0000
0010
0000
0000
0000
,
1000
0000
1000
0000
0000
0000
1100
0000
0000
0000
0101
0000
0000
0000
1000
0010
,
0100
0000
0000
1000
0000
0000
0100
0000
0001
0000
0000
1000
0000
0000
0010
0000
,
0100
0000
0001
0010
0001
0000
1000
0000
0001
0010
0001
0000
0100
0000
0001
0010
,
0001
1000
0001
0100
1000
0100
1000
0100
,
0002
0000
0000
0000
0103
0000
0010
1000
0200
0000
0000
0010
0000
0000
0310
0000
,
0002
0000
0000
1000
0000
0000
1003
0000
0100
0000
1000
0001
1000
0000
0000
0000
,
0001
0000
0100
0010
0100
0000
1000
0000
0100
0010
0100
0000
0001
0000
0100
0010
,
0100
1000
0100
0010
1000
0100
0010
0001
,
1000
0000
0100
0010
0100
0000
0001
0000
0100
0010
0100
0000
1000
0000
0100
0010
,
0100
0001
0100
0010
0001
0100
0110
0000
,
0001
0000
0010
0100
0010
0000
1000
0000
0010
0100
0010
0000
0001
0000
0010
0100
,
0010
1000
0001
0100
1000
0010
0100
0001
,
1000
0000
0010
0100
0010
0000
0001
0000
0010
0100
0010
0000
1000
0000
0010
0100
,
0010
0001
1000
0100
0001
0010
0110
0000
,
1000
0100
0010
0001
0010
0000
0001
0000
1000
0000
0001
0000
0100
0001
1000
0010
,
1000
0100
0010
0001
0011
0100
0101
0000
,
0001
0100
0010
1000
0010
0000
1000
0000
0001
0000
1000
0000
0100
1000
0001
0010
,
0001
0100
0010
1000
1010
0100
1100
0000
,
0001
0100
0010
1000
0100
0000
0001
0000
0100
0000
1000
0000
0010
1000
0100
0010
,
0001
0100
0010
1000
1010
0001
0101
0000
,
0010
1000
0001
0000
0100
0000
0001
0000
0010
0100
1000
0000
0100
0000
0010
0000
,
0110
0000
0001
0010
0000
0100
0000
1000
0001
0000
0100
0000
0010
1000
0000
1000
,
0200
0000
0000
0000
,
0020
0000
0000
0300
,
0002
0000
0000
0030
,
0200
0003
0020
0300
,
2000
0000
0000
0030
,
0200
0000
0000
3000
,
0020
0000
0000
0000
,
0000
0000
0000
0330
,
1000
0000
0001
0100
0010
0000
1000
0000
0001
0010
0100
0000
1000
0000
0010
0000
,
0000
1010
0000
0110
0100
0001
0010
0001
,
0101
0100
0010
1010
0000
1100
0000
0011
,
0000
0101
0000
0110
0010
1000
0001
0100
,
0010
0000
0100
0001
0010
0000
0100
0000
0010
0001
0100
0000
0010
0000
1000
0000
,
0000
1010
1000
0001
0101
0101
0000
0110
,
0000
0010
2001
0000
0100
0010
3010
1000
,
0001
0000
0100
1000
0100
0000
0001
0000
1000
0000
0100
0001
0100
0000
1000
0000
,
0001
0000
0100
0010
1000
0000
0001
0000
1000
0100
0010
0000
0001
0000
1000
0000
,
0000
1001
0000
0101
0100
0010
1010
1000
,
0010
0001
0010
0001
0010
1000
0010
1000
,
0001
0000
0100
0010
0000
1000
0010
0000
1000
0100
1000
0100
0010
0000
0000
0000
,
0001
0001
0000
0011
0000
1010
0000
1100
,
1000
0100
1000
0000
0010
0000
0100
0001
0000
0010
0001
0000
0100
0000
0000
0000
,
0001
0000
1000
0000
0000
0000
0011
0000
0000
0000
1010
0000
0000
0000
1000
0100
,
0010
0000
0000
1000
0000
0000
0010
0000
0001
0000
0000
1000
0000
0000
0100
0000
,
0010
0000
0001
0100
0010
0000
1000
0000
0001
0010
0100
0000
1000
0000
0001
0100
,
0001
0010
0001
0010
1000
0010
1000
0010
,
0001
0100
0010
1000
0100
0000
0010
0001
0000
1000
0000
0001
0010
0000
0100
0000
,
1000
0000
0001
0100
0010
0000
1000
0000
0010
0000
0010
0000
0010
0000
0010
0000
,
1000
1000
0000
1100
0000
0101
0000
0011
,
0001
0010
0001
0000
0100
0000
0010
1000
0000
0100
1000
0000
0010
0000
0000
0000
,
1000
0000
0001
0000
0000
0000
0101
0000
0000
0000
1100
0000
0000
0000
0010
1000
,
0100
0000
0000
0001
0000
0000
0100
0000
1000
0000
0000
0001
0000
0000
0010
0000
,
0100
0000
1000
0010
0100
0000
0001
0000
1000
0100
0010
0000
0001
0000
1000
0010
,
1000
0100
1000
0100
0001
0100
0001
0100
,
2000
0000
0000
0000
3100
0000
0010
0001
0200
0000
0000
0010
0000
0000
0310
0000
,
2000
0000
0000
0001
0000
0000
3001
0000
0100
0000
0001
1000
0001
0000
0100
0000
,
0220
0000
0000
0000
,
0000
0000
0000
0000
,
0330
0000
0000
0000
,
0000
0000
0000
0000
;

//---------------dance-single - ----------------
#NOTES:
     dance-single:
     :
     Challenge:
     19:
     :
0000
0000
0000
0000
,
0000
0000
0000
0000
,
0000
0000
0000
0000
,
0000
0000
0000
0000
,
0000
0000
0000
0000
,
0000
0000
0000
0000
,
0002
0000
0023
0000
0031
0100
0010
1000
,
0000
1100
0000
0101
0000
0011
0000
2100
,
0000
0001
0002
0000
0000
0000
3000
0000
,
0100
0100
0100
0103
,
1001
0010
1000
0100
0001
0010
0001
1000
,
0000
0010
0000
1000
0000
0100
0110
0010
,
1001
0100
1001
0000
0001
0010
0001
1000
,
0000
0000
0000
0100
0000
0000
1000
0000
0000
0001
0000
0000
0010
0000
0000
0001
1000
0001
1000
0000
0000
0010
0100
0010
,
0100
0000
0001
0010
0001
0000
1000
0010
1000
0000
0001
0100
0001
0000
1000
0100
,
1000
0000
0010
1000
0100
0000
0010
0001
0100
0000
0001
0010
1000
0000
0001
0100
,
1000
0000
0010
0100
0010
0000
1000
0001
1000
0000
0100
0010
0001
0100
0010
1000
,
0001
0000
0000
0101
0000
0000
1100
0000
0000
0010
0100
0010
1000
0001
0000
0001
,
0100
0000
0010
1000
0001
0000
0100
0000
1000
0000
0100
0000
0001
0000
0011
0000
,
0000
0000
0110
0000
0000
0000
1100
0000
0001
0000
0100
0010
1000
0000
0100
0000
,
0001
0100
0010
0100
1000
1010
0001
0101
,
0000
0011
0100
1100
0000
1001
0010
0110
,
1001
0000
1000
0100
0010
0000
0001
0000
0100
0000
0010
0000
1000
0000
0101
0000
,
0000
0000
1000
0100
1000
0000
0010
0000
0110
0000
0110
0000
0001
0000
0011
0000
,
1000
0000
0100
0000
0100
0000
1000
0010
1000
0000
0002
0000
0023
0000
0230
0000
,
0320
0000
2030
0000
3020
0000
0032
0000
0203
0000
0320
2030
3002
0000
0203
0000
,
0310
1000
0100
0010
0001
0000
0100
0010
1000
0000
0001
0010
0100
0000
1100
0000
,
0000
0000
0001
0000
0100
0000
0010
0000
1000
0100
0001
0000
0010
0100
1000
0000
,
0001
0100
0010
1001
0100
0010
1000
0001
,
0010
0000
0000
0000
0000
0000
1000
0000
0000
0010
0000
0000
0001
0000
0000
0000
0000
0000
1000
0000
0000
0000
0000
0000
0100
0000
0000
1000
0000
0000
0010
0000
1000
0000
0010
0000
1000
0000
0000
0000
0000
0000
0001
0000
0000
0000
0000
0000
,
0101
0100
0010
1010
0001
1100
1000
0101
,
1000
0100
0010
0100
1000
0000
0001
0100
0000
0001
0100
0000
0010
0000
1000
0000
,
1100
0001
0010
1001
0100
1010
1000
0011
,
0100
0000
0000
0100
0000
0000
0010
0000
1000
0000
0001
0100
0001
0000
1000
0000
,
0010
1000
0100
0001
0010
0000
0010
1000
0100
0001
0010
0000
0010
0000
0001
1000
,
0001
0000
0100
0010
0100
0000
0010
1000
0010
0000
0100
0001
0100
0000
1000
0000
,
0010
1000
0100
1000
0010
0000
0100
0001
0000
0001
0000
0010
0001
1000
0100
0000
,
0010
0000
0001
0100
1000
0000
0010
0000
0100
0000
0001
0010
1000
0000
0100
0000
,
0110
0001
1000
1010
0010
1100
0100
0011
,
1000
0010
0001
0010
1000
0000
0100
0010
0000
0010
0001
0100
0010
1000
0001
0000
,
1001
0010
1000
1100
0001
1010
0100
0110
,
0001
0000
0010
0100
0000
0100
1000
0000
0010
0000
1000
0100
0001
0000
0010
0000
,
0100
1000
0010
0001
0100
0000
0100
1000
0010
0001
0100
0000
0100
0000
1000
0001
,
1000
0010
0001
0100
0001
0010
1000
0100
,
0020
0000
0001
0000
0031
0000
1000
0010
0100
0000
0010
1000
0000
1000
0100
0000
,
0002
0000
0000
0000
0000
0000
0000
0000
0000
2003
0000
0000
0000
0000
0000
0000
0000
0000
3001
0000
0000
0000
0000
0000
0100
0000
0000
0000
0000
0000
0010
0000
1000
0000
0010
0000
1000
0000
0000
0000
0000
0000
0001
0000
0000
0000
0000
0000
,
0010
0001
0100
1000
0001
1000
0010
0100
0001
0000
1000
0010
0001
0010
1000
0100
,
0001
0010
0100
0000
1000
0001
1000
0000
0010
0100
0001
0010
0001
0100
1000
0000
,
0010
1000
0001
1000
0100
0010
0001
0100
0010
0000
1000
0100
1000
0010
0001
1000
,
0100
0010
0001
0000
0100
0010
1000
0000
0001
0010
0100
1000
0100
0010
0001
0000
,
1000
0010
1000
0100
0001
0010
0100
0010
0001
0000
1000
0010
1000
0001
0010
0100
,
0010
0001
1000
0000
0100
0010
0001
0000
1000
0010
0100
1000
0100
0001
0010
0000
,
0100
0010
0001
0100
0001
0010
1000
0100
0010
0000
0100
0010
0001
0100
0001
1000
,
0010
1000
0100
0000
1000
0001
0100
0000
0010
1000
0100
0010
0001
0100
1000
0000
,
1001
1000
0010
0100
0001
0010
0100
1000
0010
0000
0110
0100
0001
0010
0001
0100
,
0010
1000
0001
0000
1000
0100
0010
0000
0001
0100
0010
1000
0001
0100
0010
0000
,
1010
0100
1000
0010
0100
0001
1000
0001
0010
0000
0011
0100
0010
0100
0001
0010
,
0001
0100
1000
0000
0010
1000
0001
0000
1000
0100
0010
0001
0100
0010
1000
0000
,
0101
0001
0010
0001
0100
1000
0010
1000
0001
0000
1100
0010
0100
0010
0001
0100
,
0010
1000
0001
0000
1000
0100
0001
0000
0010
0100
0010
0001
0100
1000
0001
0000
,
1010
0001
0010
0001
0010
1000
0100
0010
0001
0000
0101
0010
0100
0010
1000
0100
,
0001
0000
0000
0010
0000
0000
0100
0000
0000
0000
0000
0000
1000
0000
0000
0001
0000
0000
0100
0000
0000
0000
0000
0000
0010
0000
1000
0000
0010
0000
1000
0000
0010
0000
1000
0000
0010
0000
0000
0000
0100
0000
0000
0000
0001
0000
0000
0000
,
1001
0010
1000
0010
0100
0001
0010
1000
,
0000
0100
0000
0001
0000
0010
0001
1000
,
0001
0100
0010
0000
1000
0100
0000
0001
,
0000
0010
0000
0001
0000
1000
0000
0100
,
1000
0010
0100
0010
0001
0010
1000
0001
,
1000
0100
1000
0000
0001
0010
0001
0000
1000
0010
1000
0000
0001
0010
0001
0000
,
2100
0000
0001
0000
0002
0000
0000
0000
0000
0000
0000
0000
3003
0000
0020
0230
,
2300
0000
3020
0000
0230
0000
0302
0000
0013
1000
0010
0100
0010
0001
0010
0000
,
1000
0100
0010
0001
0100
0000
0010
1000
0001
0000
0010
0100
1000
0000
1010
0000
,
0000
0000
0101
0000
0000
0000
0011
0000
1000
0010
0100
0001
0010
0000
0100
1000
,
0001
0100
1000
0010
1000
1001
0010
0101
,
0000
0000
0011
0000
0110
0000
1100
0000
0000
0000
1000
0010
1000
0000
1010
0000
,
1001
0010
1000
0001
0100
0000
0001
0010
0100
0000
1000
0000
1100
0000
0101
0000
,
0000
1000
0001
0010
1001
0110
1000
2100
,
0000
0000
0001
0000
0002
0000
0000
0000
3003
0000
0020
0032
0023
0000
0230
0000
,
2300
0000
3020
0000
2030
0000
3002
0000
0203
0000
0320
2030
3002
0000
0203
0000
,
0310
0000
1000
0100
0001
0000
0010
0100
1000
0010
0100
0000
0001
0000
0012
0000
,
0000
0000
0203
0000
0000
0000
0310
0000
1000
0100
0010
0100
0010
0001
1000
0000
,
0002
0000
0100
0000
0103
0000
2000
0000
0000
0000
3010
1000
0001
0000
0100
0000
,
1010
0000
0000
0000
0000
0000
0100
0000
0000
0000
0000
0000
0011
0000
0000
0000
0000
0000
0100
0000
0000
0000
0000
0000
1000
0000
0000
0001
0000
0000
0010
0000
0100
0000
0010
0000
0100
0000
0000
1000
0000
0000
0001
0000
0000
0000
0000
0000
,
1001
0010
1000
0110
0001
0011
0100
1010
,
0001
0010
0100
0010
0001
0000
1000
0010
0000
1000
0100
0001
1000
0010
0001
0000
,
0110
0001
0010
1001
1000
0101
0100
1010
,
0100
0000
1000
0010
0000
1000
0010
0000
0100
0000
0001
0010
0000
0001
0010
0000
,
1000
0100
0001
0010
1000
0000
1000
0100
0001
0010
1000
0000
1000
0000
0010
0100
,
0001
0010
1000
0100
0001
0100
1000
0010
,
0001
0000
0001
0000
0001
0000
0100
0010
0000
0010
1000
0000
0100
1000
0001
0000
,
0010
0000
0001
0100
1000
0000
0010
0000
0100
0000
0001
0010
1000
0000
0100
0000
,
1100
0001
0010
1001
0100
1010
1000
0011
,
0100
0010
0100
0001
0010
0100
1000
0010
0000
1000
0100
0001
0010
0100
1000
0000
,
1010
0001
1000
0110
0010
1100
0100
0011
,
0100
0000
0010
1000
0000
1000
0100
0000
0010
0000
0001
0100
0010
1000
0001
0000
,
0010
0001
0100
1000
0010
0000
0010
0001
0100
1000
0010
0000
0010
0000
1000
0100
,
0001
0010
1000
0100
0010
1000
0100
0001
,
2000
0000
0001
0000
3001
0000
0010
0100
1000
0000
0010
0100
0000
0100
0001
0000
,
0011
0000
0000
1100
0000
0000
0101
0000
1010
0000
1000
0100
0001
0000
0011
0000
,
2100
0001
0100
0001
,
0100
0001
0100
3001
;

//---------------dance-double - ----------------
#NOTES:
     dance-double:
     :
     Easy:
     9:
     :
00000000
00000000
00000000
00000000
,
00000000
00000000
00000000
00000000
,
00000000
00000000
00000000
00000000
,
00000000
00000000
00000000
00000000
,
00000000
00000000
00000000
00000000
,
00000000
00000000
00000000
00000000
,
00000001
00000100
00000001
00000001
,
00001000
00000010
00010000
00010000
,
00000000
00001000
00020000
00000000
00000000
00000000
00000000
00000000
,
00000000
00000000
00000000
00030000
,
00001000
01000000
00001000
01000000
,
00010000
00000000
01000000
00000000
00010000
00100000
00010000
00000000
,
10000000
01000000
10000000
01000000
,
00100000
00000000
00010000
00000000
00100000
00001000
00100000
00000000
,
00001000
00010000
00000100
00001000
,
00000010
00000100
00000001
00000010
,
00000100
00001000
00000100
00000000
00010000
00001000
00010000
00000000
,
00001000
00001000
00011000
00000000
,
00001000
00000000
00100000
00000000
00010000
00000000
01000000
00100000
,
00000000
10000000
00000000
00100000
00000000
00000000
01000000
00000000
,
00020000
00000000
00000000
00100000
00000000
00130000
00000000
00001000
,
00000000
00010000
00000000
00001000
00000000
00000000
00011000
00000000
,
00010000
00000000
00000010
00000000
00001000
00000000
00000100
00000010
,
00000000
00000001
00000000
00000000
00001000
00000001
00000000
00000100
,
00000000
00000220
00000000
00000330
,
00000001
00000000
00001000
00000000
00000100
00000010
00000100
00000000
,
00001000
00000000
00000010
00000000
00010000
00000000
00001000
00010000
,
00000000
00000000
00100000
00000000
01000000
00100000
01000000
00000000
,
00010000
00000000
00000000
10010000
00000000
00000000
00000000
00000000
,
02200000
00000000
00000000
03300000
,
10000000
00000000
00000000
00010000
00000000
00000000
00000000
02200000
,
00000000
00000000
00000000
03300000
,
00001000
00000000
00000000
00010000
00000000
00000000
00000000
00002000
,
00000000
00010000
00010000
00013000
,
00010000
00001000
00000100
00000010
,
00010000
00001000
00000100
00000010
,
00010000
00001000
00010000
00000000
00000010
00000000
00000000
00000000
,
00000100
00000010
00000100
00000000
00000001
00000000
00000000
00000000
,
00000001
00000000
00000000
00001000
00000000
00000000
00000000
00000020
,
00000000
00010000
00010000
00010030
,
00001000
00000000
00000000
00010000
00000000
00000000
00000000
00020000
,
00000000
00001000
00001000
00031000
,
00001000
00010000
00100000
01000000
,
00001000
00010000
00100000
01000000
,
00010000
00000000
10000000
00000000
,
20020000
00000000
30030000
00000000
,
10000000
01000000
00100000
00010000
,
01000000
00100000
00010000
00001000
,
00100000
00001000
00010000
00000100
,
00010000
00000010
00001000
00001001
,
00000001
00000100
00000010
00001000
,
00000100
00000010
00001000
00010000
,
00000010
00010000
00001000
01000000
,
00001000
00100000
00010000
10010000
,
10000000
01000000
00100000
00010000
,
00100000
01000000
00010000
00001000
,
00000010
00000001
00000100
00001000
,
00000100
00000000
00000001
00000000
00001000
00000001
00001000
00000000
,
00000001
00000010
00000100
00001000
,
00000010
00000100
00001000
00010000
,
00100000
00000000
01000000
00000000
00010000
00100000
00010000
00000000
,
10000000
10000000
01000000
01100000
,
20020000
00000000
00000000
00000000
,
00000000
00000000
00000000
00000000
,
00000000
00000000
00000000
00000000
,
00000000
00000000
00000000
30030000
,
10000000
10000000
00010000
00010000
,
01000000
01000000
00001000
00001000
,
00020000
00000000
00000000
00000000
,
00000000
00000000
00000000
00030000
,
00010000
00000000
00000100
00000000
00001000
00000000
00000010
00000100
,
00000000
00000001
00000000
00001000
00000000
00000000
00000010
00000000
,
00002000
00000000
00000000
00000100
00000000
00003100
00000000
00010000
,
00000000
00001000
00000000
00010000
00000000
00000000
00011000
00000000
,
00001000
00000000
01000000
00000000
00010000
00000000
10000000
00100000
,
00000000
10000000
00000000
00000000
01000000
00100000
00000000
01000000
,
00000000
02200000
00000000
03300000
,
10000000
00000000
00010000
00000000
00100000
01000000
10000000
00000000
,
00010000
00000000
01000000
00000000
00001000
00000000
00010000
00001000
,
00000000
00000000
00000100
00000000
00000010
00000100
00000001
00000000
,
00001000
00000000
00000000
00001001
00000000
00000000
00000000
00000000
,
00000220
00000000
00000000
00000330
,
00000001
00000000
00000000
00001000
00000000
00000000
00000000
00000200
,
00000000
00010000
00010000
00010300
,
00010000
00000000
00000000
00001000
00000000
00000000
00000000
00020000
,
00000000
00001000
00001000
00031000
,
00001000
00010000
00100000
01000000
,
00001000
00010000
01000000
00100000
,
00001000
00010000
00001000
00000000
01000000
00000000
00000000
00000000
,
00100000
01000000
00010000
00000000
10000000
00000000
00000000
00000000
,
10000000
00000000
00000000
00010000
00000000
00000000
00000000
02000000
,
00000000
00100000
00100000
03100000
,
00001000
00000000
00000000
00010000
00000000
00000000
00000000
00002000
,
00000000
00010000
00010000
00013000
,
00010000
00001000
00000100
00000010
,
00010000
00001000
00000010
00000100
,
00001000
00000000
00000010
00000100
00000010
00000000
00001000
00000100
,
00000001
00000100
00010000
00001000
,
00022000
00000000
00000000
00000000
,
00000000
00000000
00000000
00000000
,
00033000
00000000
00000000
00000000
,
00000000
00000000
00000000
00000000
;

//---------------dance-double - ----------------
#NOTES:
     dance-double:
     :
     Medium:
     13:
     :
00000000
00000000
00000000
00000000
,
00000000
00000000
00000000
00000000
,
00000000
00000000
00000000
00000000
,
00000000
00000000
00000000
00000000
,
00000000
00000000
00000000
00000000
,
00000000
00000000
00000000
00000000
,
00000001
00000000
00000010
00000000
00000001
00000100
00000001
00000100
,
00000000
00000010
00000000
00000010
00000000
00010000
00000000
00010000
,
00000000
00002000
00020000
00000000
00000000
00000000
00000000
00000000
,
00000000
00000000
00000000
00033000
,
00001000
00000000
00010000
00000000
00001000
00100000
00010000
00100000
,
00000000
01000000
10000000
01000000
10000000
00100000
10000000
00000000
,
00010000
00000000
00100000
00000000
00010000
01000000
00001000
00010000
,
00000000
00001000
00010000
00000100
00001000
00000100
00010000
00000000
,
00000010
00001000
00000010
00001000
00000001
00000100
00000001
00000000
,
00000010
00000001
00000010
00000001
00001000
00000100
00001000
00000000
,
00000100
00010000
00001000
00010000
00001000
00100000
00010000
01000000
,
00100000
10000000
01000000
00010000
01000000
10000000
00010000
00000000
,
10000000
00100000
01000000
00100000
10000000
01000000
00100000
00010000
,
00000000
00110000
00000000
00100000
00001000
00010000
00001000
00000000
,
00000010
00000000
00000001
00000100
00000000
00000110
00000000
00001001
,
00000000
00001000
00000100
00001000
00000010
00001000
00000010
00000000
,
00000100
00000001
00000100
00001000
00010000
00001000
00010000
00001000
,
00000000
01000000
00010000
00100000
01000000
10000000
00000000
00010000
,
00000000
00020000
20000000
00000000
00000000
00000000
30030000
00000000
,
00100000
00000000
01100000
00000000
10000000
10000000
10000000
10000000
,
01000000
00100000
01000000
00100000
00010000
00100000
00001000
00010000
,
00000000
00011000
00000000
00010000
00000100
00001000
00000100
00000010
,
00000002
00000000
00000000
00002000
00000000
00000000
00003003
00000000
,
00000010
00000000
00000000
00000100
00000000
00000000
00000010
00000000
00000100
00000000
00000000
00000000
00001001
00000000
00000000
00000000
,
00000001
00000100
00000000
00001000
00000000
00010000
00000000
00200000
,
00000000
10000000
01000000
10300000
,
10000000
01000000
00000000
00010000
00000000
00001000
00000000
00000020
,
00000000
00000001
00000100
00000031
,
00000001
00000100
00001000
00010000
00000010
00000100
00001000
00010000
,
00100000
01000000
00100000
00010000
00001000
00010000
01000000
00000000
,
10000000
00000000
00010000
00000000
00100000
00000000
00000000
00001000
00000000
00010000
00000000
00000000
00001000
00000000
00000000
00000000
,
00000100
00001000
00010000
00000000
00100000
01000000
00100000
00000000
,
10000000
00100000
00000000
00010000
00000000
00001000
00000000
00000200
,
00000000
00000001
00000010
00000301
,
00000001
00000010
00000000
00001000
00000000
00010000
00000000
02000000
,
00000000
10000000
00100000
13000000
,
10000000
00100000
00010000
00001000
01000000
00100000
00010000
00001000
,
00000100
00000010
00000100
00001000
00010000
00001000
00000010
00000000
,
00000002
00000000
00000103
00000010
00002000
00000000
00003100
00010000
,
00002000
00000000
02003000
00000000
03100000
01000000
00100000
00000000
,
10000000
01000000
01000000
00010000
01000000
01000000
10000000
00000000
,
01000000
00100000
00010000
00000000
00001000
00000000
00000110
00000000
,
00000001
00000100
00000100
00001000
00000100
00000100
00000001
00000000
,
00000100
00000010
00001000
00000000
00010000
00000000
01100000
00000000
,
10000000
00100000
01000000
00010000
00100000
01000000
10000000
00000000
,
01000000
00010000
00001000
00000000
00000010
00000000
00001001
00000000
,
00000001
00000100
00000010
00001000
00000100
00000010
00000001
00000000
,
00000100
00001000
00010000
00000000
00100000
00000000
10010000
00000000
,
10000000
00100000
10000000
00100000
01000000
00010000
00100000
00010000
,
01000000
00001000
00010000
00000000
00011000
00000000
00001010
00000000
,
00000001
00000100
00000001
00000100
00000010
00001000
00000010
00001000
,
00000100
00010000
00001000
00000000
00011000
00000000
00110000
00000000
,
00010000
10000000
01000000
00010000
01000000
10000000
00010000
00000000
,
00100000
00001000
00010000
00000000
00000010
00010000
00001000
00000000
,
00010000
00000010
00001000
00000010
00000100
00000001
00000010
00000001
,
00000100
00000000
00000000
00000001
00000000
00001000
00000000
00001001
00000000
00000000
00000000
00000000
00000100
00010000
00000000
00010000
,
00002000
00000000
00000000
00000000
,
00203000
00000000
00000000
00000000
,
00320000
00000000
00000000
00000000
,
20030000
00000000
32000000
00000000
,
03020000
00000000
00000000
00000000
,
00032000
00000000
00000000
00000000
,
00020000
00000000
00000000
00000000
,
00000000
00000000
00000000
00033000
,
00001000
00010000
00001000
00000100
00000001
00001000
00000001
00001000
,
00000000
00000010
00000100
00000010
00001000
00000100
00001000
00000000
,
00000010
00000000
00010000
00001000
00000000
00100000
00000000
00110000
,
00000000
01010000
00000000
10010000
00000000
10000000
01000000
10000000
,
00100000
01000000
00100000
01000000
00010000
00100000
01000000
00010000
,
00000000
00001000
00000010
00000001
00001000
00000001
00000000
00000100
,
00000000
00000200
00000020
00000000
00000000
00000000
00000330
00000000
,
00000001
00000000
00000110
00000000
00001000
00001000
00001000
00001000
,
00000001
00000100
00000001
00000010
00000100
00010000
00001000
00010000
,
00000000
00011000
00000000
00001000
01000000
00010000
00100000
00000000
,
00020000
00000000
00000000
20000000
00000000
00000000
30030000
00000000
,
10000000
00000000
00000000
00100000
00000000
00000000
10100000
00000000
00010000
00000000
01000000
00000000
00010000
00000000
00000000
00000000
,
10000000
00010000
00000000
00110000
00000000
00011000
00000000
00002000
,
00000000
00000100
00000100
00003100
,
00000001
00001000
00000000
00001010
00000000
00011000
00000000
00020000
,
00000000
01000000
01000000
01030000
,
10000000
01000000
00010000
00001000
00010000
00100000
10000000
01000000
,
00010000
00001000
00000010
00001000
00010000
00100000
00010000
00000000
,
00001000
00000000
00000100
00000000
00000010
00000000
00000000
00010000
00000000
00000010
00000000
00000000
00000100
00000000
00000000
00000000
,
00001000
00010000
00000100
00001000
00000010
00000100
00000001
00000000
,
00000001
00001000
00000000
00001100
00000000
00011000
00000000
00020000
,
00000000
00100000
10000000
00130000
,
10000000
00010000
00000000
01010000
00000000
00011000
00000000
00002000
,
00000000
00000010
00000001
00003010
,
00000001
00000010
00001000
00010000
00001000
00000100
00000001
00000010
,
00001000
00010000
01000000
00010000
00001000
00000100
00001000
00000000
,
00020000
00100000
00032000
00000010
,
00013000
01000000
00010000
01000000
10000000
00010000
10000000
00000000
,
20020000
00000000
00000000
00000000
,
00000000
00000000
00000000
00000000
,
30030000
00000000
00000000
00000000
,
00000000
00000000
00000000
00000000
;

//---------------dance-double - ----------------
#NOTES:
     dance-double:
     :
     Hard:
     16:
     :
00000000
00000000
00000000
00000000
,
00000000
00000000
00000000
00000000
,
00000000
00000000
00000000
00000000
,
00000000
00000000
00000000
00000000
,
00000000
00000000
00000000
00000000
,
00000000
00000000
00000000
00000000
,
00000001
00000000
00000010
00000000
00000001
00000100
00000010
00001000
,
00000000
00010000
00000000
01000000
00000000
00100000
00000000
10000000
,
00000000
20000000
00020000
00000000
00000000
00000000
00000000
00000000
,
00000000
00000000
00000000
30030000
,
10000000
01000000
10000000
01000000
00100000
00010000
00100000
00010000
,
00000000
00010000
00100000
01000000
00100000
00010000
00001000
00000100
,
00000010
00000001
00000010
00000001
00001000
00000100
00001000
00000100
,
00000000
00000000
00000100
00000000
00001000
00000000
00000010
00000000
00000100
00000000
00000001
00000010
00000001
00000000
00001000
00000010
,
00001000
00000010
00000100
00000001
00000100
00001000
00010000
00100000
,
10000000
00010000
01000000
00100000
01000000
00010000
10000000
01000000
,
00010000
00001000
00000010
00000001
00001000
00000100
00000010
00000001
,
00000100
00000000
00000010
00001000
00000000
00000010
00000000
00000020
00000000
00000000
00000000
00000000
00000130
00000001
00000000
00000001
,
00001000
00000000
00000001
00000100
00000010
00000000
00000100
00000000
00001000
00000000
00010000
00000000
01000000
00000000
10000000
00000000
,
00000000
00100000
10000000
10000000
01000000
01000000
00100000
00000000
,
00020000
00000000
20030000
30200000
00000000
00320000
00000000
00032000
,
00000000
00003200
00000000
00000302
00000000
00000013
00000000
00000010
,
00000001
00000000
00000100
00000010
00000100
00000000
00000001
00000000
00000010
00000000
00000100
00000000
00010000
00000000
00001000
00000000
,
00000000
00001000
00100000
00010000
01000000
00100000
00000000
10100000
,
00000000
01000000
00020000
00000000
00100000
00000000
01030000
00010000
,
10000000
00100000
01000000
00100000
00010000
00001000
00000010
00000000
,
00000100
00000000
00001000
00000001
00001000
00000000
00000010
00000000
00001000
00000000
00000100
00000000
00000010
00000000
00000001
00000000
,
00000000
00000101
00000000
00001000
00000010
00000001
00000010
00010000
,
00002000
00000000
00010000
00020000
00000000
00000000
00033000
00000000
,
00011000
00000000
00000000
00101000
00000000
00000000
00110000
00000000
00010000
01000000
00010000
01000000
00010000
00000000
00000000
00000000
,
10000000
10000000
00000000
10100000
00000000
00110000
00000000
10100000
,
10000000
01000000
10000000
00000000
00010000
00000000
00100000
00001000
00000000
00010000
00001000
00000000
00011000
00000000
00000000
00000000
,
00000100
00000000
00000100
00000000
00000000
00000000
00001100
00000000
00000000
00000000
00001010
00000000
00000000
00000000
00001000
00000010
,
00000100
00000000
00000000
00000001
00000000
00000000
00000100
00000000
00001000
00000000
00000000
00000100
00000000
00000000
00000001
00000000
,
00000010
00000000
00000100
00001000
00000100
00000000
00010000
00000000
00000100
00001000
00000100
00000000
00000010
00000000
00000100
00001000
,
00000100
00010000
00001000
00000100
00000010
00010000
00001000
00000100
,
00000010
00001000
00000010
00001000
00000010
00000000
00000000
00010000
00000000
00001000
00000000
00000000
00000010
00000000
00000100
00000000
,
00001000
00000000
00000010
00000100
00000010
00000000
00000001
00000000
00000010
00000000
00000010
00000000
00001000
00000000
00001000
00000000
,
00000001
00000001
00000000
00000011
00000000
00001010
00000000
00000011
,
00000001
00000100
00000001
00000000
00001000
00000000
00000010
00010000
00000000
00001000
00010000
00000000
00011000
00000000
00000000
00000000
,
01000000
00000000
01000000
00000000
00000000
00000000
01010000
00000000
00000000
00000000
00110000
00000000
00000000
00000000
00010000
00100000
,
01000000
00000000
00000000
10000000
00000000
00000000
01000000
00000000
00010000
00000000
00000000
01000000
00000000
00000000
10000000
00000000
,
00100000
00000000
01000000
00010000
01000000
00000000
00001000
00000000
01000000
00010000
01000000
00000000
00100000
00000000
01000000
00010000
,
01000000
00001000
00010000
01000000
00100000
00001000
00010000
01000000
,
00200000
00000000
00000000
00000000
00301000
00010000
00001000
00010000
00001000
00000000
00000000
00010000
00000000
00000000
00000100
00000000
,
00001000
00000000
00000000
00000010
00000000
00000000
00000100
00000000
00000001
00000000
00001000
00000001
00001000
00000000
00000000
00000000
,
00000001
00000000
00001000
00000010
00001000
00000000
00000100
00000000
00001000
00000010
00001000
00000000
00000001
00000000
00000100
00000000
,
00001000
00010000
00100000
10000000
00010000
00100000
01000000
00000000
,
10000000
00000000
00010000
00100000
00010000
00000000
01000000
00000000
00010000
00100000
00010000
00000000
10000000
00000000
01000000
00000000
,
00010000
00001000
00000010
00000001
00001000
00000010
00000100
00000000
,
00000001
00000000
00000100
00000010
00000100
00000000
00001000
00000000
00000100
00000010
00000100
00000000
00000001
00000000
00000010
00000000
,
00000100
00010000
00001000
00100000
01000000
10000000
00010000
00000000
,
10000000
00000000
01000000
00100000
01000000
00000000
00010000
00000000
01000000
00100000
01000000
00000000
10000000
00000000
00100000
00000000
,
01000000
00001000
00010000
00000010
00000100
00000001
00001000
00000000
,
00000001
00000010
00000001
00000010
00000001
00000000
00001000
00000000
00000100
00000000
00000010
00000000
00000100
00000000
00010000
00000000
,
00001000
00010000
01000000
00100000
00010000
00000000
01010000
00000000
,
10000000
00100000
10000000
00100000
10000000
00000000
00010000
00000000
01000000
00000000
00100000
00000000
01000000
00000000
00001000
00000000
,
00010000
00001000
00000100
00000010
00001000
00000000
00001100
00000000
,
00001000
00000100
00000010
00000001
00000010
00000000
00000001
00000000
00000100
00000000
00000010
00000000
00001000
00000000
00010000
00000000
,
01000000
00010000
00100000
10000000
00100000
00010000
10000000
00000000
,
00010000
01000000
00100000
00000000
10000000
00000000
01000000
00000000
00100000
00001000
00010000
00000000
00001000
00000000
00000010
00000000
,
00000100
00000000
00001000
00000010
00000000
00000100
00000000
00000100
00000002
00000000
00000000
00000000
00000103
00000010
00000000
00000010
,
00002000
00000000
00000000
00000000
,
00000200
00000000
00000000
00003000
,
00020000
00000000
00000000
00000300
,
00002000
00030000
00020000
00003000
,
00200000
00000000
00000000
00030000
,
20000000
00000000
00000000
00300000
,
00020000
00000000
00000000
00000000
,
00000000
00000000
00000000
30030000
,
10000000
00000000
01000000
00100000
01000000
00000000
10000000
00000000
00010000
00100000
01000000
00000000
10000000
00000000
01000000
00000000
,
00000000
01000000
00010000
00001000
00000010
00000100
00001000
00000001
,
00000100
00001000
00000100
00000001
00000000
00000011
00000000
00001100
,
00000000
00000100
00010000
00000010
00000100
00001000
00010000
00001000
,
00000100
00000000
00000001
00000010
00000100
00000000
00001000
00000000
00000010
00000100
00000001
00000000
00000100
00000000
00001000
00000000
,
00000000
00001000
00010000
00100000
01000000
00010000
00000000
00110000
,
00000000
01000000
20000000
00000000
00100000
00000000
31000000
10000000
,
00100000
01000000
00010000
00100000
00001000
00010000
00000100
00001000
,
00000010
00000000
00000100
00000010
00001000
00000000
00000001
00000000
00000010
00000100
00001000
00000000
00000100
00000000
00010000
00000000
,
00000000
00011000
00000000
00010000
00001000
00010000
01000000
10000000
,
00100000
00010000
00100000
00010000
00001000
00000010
00001000
00000010
,
00001000
00000000
00000000
00010000
00000000
00000000
00011000
00000000
00001000
00010000
00001000
00010000
00001000
00000000
00000000
00000000
,
00100000
00100000
00000000
00110000
00000000
01010000
00000000
11000000
,
01000000
10000000
01000000
00000000
00100000
00000000
00010000
10000000
00000000
00010000
01000000
00000000
00100000
00000000
00000000
00000000
,
10000000
00000000
10000000
00000000
00000000
00000000
10100000
00000000
00000000
00000000
01100000
00000000
00000000
00000000
01000000
00001000
,
00010000
00000000
00000000
00001000
00000000
00000000
00000010
00000000
00000100
00000000
00000000
00001000
00000000
00000000
00000010
00000000
,
00000100
00000000
00000001
00000010
00000100
00000000
00001000
00000000
00000010
00000100
00000001
00000000
00000010
00000000
00000100
00001000
,
00000100
00010000
00001000
00010000
00100000
01000000
00010000
01000000
,
00100000
10000000
00100000
10000000
00010000
00000000
00100000
00010000
00000000
10000000
00000000
01000000
00100000
00000000
00001000
00000000
,
00010000
00000000
00000100
00001000
00000100
00000000
00000010
00000000
00000001
00000000
00000001
00000000
00001000
00000000
00001000
00000000
,
00000010
00000010
00000000
00001010
00000000
00001100
00000000
00000101
,
00000100
00000001
00000100
00000000
00000010
00000000
00001000
00000001
00000000
00001000
00000100
00000000
00000010
00000000
00000000
00000000
,
00000001
00000000
00000001
00000000
00000000
00000000
00000011
00000000
00000000
00000000
00000110
00000000
00000000
00000000
00000100
00010000
,
00001000
00000000
00000000
00010000
00000000
00000000
00100000
00000000
01000000
00000000
00000000
00010000
00000000
00000000
00100000
00000000
,
01000000
00000000
10000000
00100000
01000000
00000000
00010000
00000000
00100000
01000000
10000000
00000000
00100000
00000000
01000000
00010000
,
01000000
00001000
00010000
00001000
00000010
00000100
00001000
00000100
,
00000002
00000000
00000000
00000000
00000103
00000000
00001000
00000010
00001000
00000000
00000000
00000100
00000000
00000000
00010000
00000000
,
00001000
00000000
00000000
00100000
00000000
00000000
00010000
00000000
00100000
00000000
01000000
10000000
01000000
00000000
10000000
00000000
,
20020000
00000000
00000000
00000000
,
00000000
00000000
00000000
00000000
,
30030000
00000000
00000000
00000000
,
00000000
00000000
00000000
00000000
;
