#TITLE:V ~for EXTREME~;
#SUBTITLE:(25th Anniversary Special);
#ARTIST:TAKA;
#BANNER:V ~for EXTREME~ (25th Anniversary Special)-bn.png;
#BACKGROUND:V ~for EXTREME~ (25th Anniversary Special)-bg.png;
#JACKET:V ~for EXTREME~ (25th Anniversary Special)-jacket.png;
#MUSIC:V ~for EXTREME~ (25th Anniversary Special).ogg;
#OFFSET:-0.04;
#SAMPLESTART:45.037;
#SAMPLELENGTH:20;
#DISPLAYBPM:150;
#BPMS:0=150.01;
#BGCHANGES:;

//---------------dance-single - ----------------
#NOTES:
     dance-single:
     :
     Challenge:
     16:
     :
0000
0000
0000
0000
,
0000
0000
0000
0000
,
0000
0000
0000
0000
,
0000
0000
0000
0000
,
0000
0000
0000
0000
,
1000
0000
0000
0100
1000
0000
0010
0000
1000
0000
0000
0100
1000
0000
0000
0000
,
0001
0000
0000
0100
0001
0000
0010
0000
0001
0000
0000
0000
0100
0000
0100
0000
,
0100
0000
0000
0001
1000
0000
0010
0000
1000
0000
0000
0001
1000
0000
0000
0000
,
0010
0000
0000
1000
0100
0000
1000
0000
0010
0000
0000
1000
0100
0000
0010
0000
,
0001
0100
0000
0000
0100
0010
0000
0000
0010
1000
0000
0000
1000
0100
0000
0000
,
0100
0010
0000
0000
0010
0100
0000
0000
0100
1000
0000
0000
1000
0001
0000
0000
,
0010
0001
0100
0000
0001
0000
0010
0000
0100
1000
0001
0000
1000
0000
0100
0000
,
1000
0100
0010
0000
0100
0000
1000
0000
0010
1000
0001
0000
1000
0000
0010
0000
,
0101
0000
0000
0000
0010
0000
0000
0000
0010
0000
0000
0100
0010
0000
1000
0000
,
1100
0000
0000
0000
0010
0000
0000
0000
0010
0001
0100
0000
0010
1000
0100
0000
,
0011
0011
1100
1100
,
0101
1010
0101
1010
,
1000
0010
0000
0100
0000
0001
0000
0100
0000
0010
0000
0100
0000
0001
0000
0100
,
0000
0010
1000
0010
0100
0001
1000
0100
0010
0000
0001
0100
0001
0010
0100
1000
,
0001
0000
0000
0100
0010
0000
0000
0100
0010
0000
0000
0100
0010
0000
0000
0100
,
0001
0001
0001
0001
,
1001
1001
1001
1001
,
0010
0010
0100
0100
1000
0001
1000
0001
,
0100
0000
0010
0000
0100
0000
0001
0000
0010
0100
1000
0100
0010
0000
0001
0000
,
0100
0000
1000
0000
0100
0000
0001
0000
1000
0010
0100
0010
1000
0000
0001
0000
,
0010
0000
1000
0000
0010
0000
0100
0000
0010
0001
1000
0001
0010
0000
0100
0000
,
0001
0000
0100
0000
0010
0000
0001
0000
1000
0100
0010
0100
1000
0000
0001
0000
,
0100
0100
0010
0010
1000
1000
0001
0001
,
0010
0000
0001
1000
0001
1000
0001
1000
0001
0000
0010
0001
0100
0000
0100
0000
,
0010
1000
0010
0000
0100
0001
0100
0000
0010
1000
0010
0000
0100
0001
0100
0000
,
0010
0000
1000
0100
1000
0100
1000
0100
1000
0000
0001
0010
0100
0000
0100
0000
,
1000
0010
1000
0000
0001
0100
0001
0000
1000
0010
1000
0000
0001
0100
0001
0000
,
0010
0000
0100
1000
0100
1000
0100
1000
0100
0010
0001
1000
0001
0000
0001
0000
,
0100
0001
0100
0000
0010
1000
0010
0000
0100
0001
0100
0000
0010
1000
0010
0000
,
0100
0000
0001
0010
0001
0010
0001
0010
0001
1000
0010
0100
0001
0000
0001
0000
,
1000
1000
0100
0100
0010
0010
0001
0001
,
0100
0001
0100
0001
0100
0010
1000
0000
0100
0010
0100
0010
0001
1000
0100
0000
,
0010
0001
0010
0001
0010
0100
1000
0000
0010
1000
0010
1000
0010
0100
0001
1000
,
0100
0000
0010
0000
0001
0000
0100
0001
1000
0000
0010
0100
0001
0000
0010
0100
,
1000
0001
0100
0010
1000
0001
0100
0010
1000
0001
0100
0010
1000
0001
0100
0010
,
1000
0000
0100
0010
0001
1000
0001
1000
0001
0000
0100
0010
1000
0001
1000
0001
,
0100
0000
0000
0010
1000
0000
0001
0010
0100
0000
1000
0001
0100
0000
0010
1000
,
0001
0010
0100
0000
0010
0100
1000
0000
0001
1000
0010
1000
0001
0000
0100
0000
,
0001
0010
0001
0010
0001
0010
0100
0000
1000
0001
1000
0001
0010
0001
1000
0010
,
0100
0000
0000
0001
0100
0010
1000
0001
0100
0000
0010
1000
0001
0000
0100
0000
,
0001
1000
0001
0000
1000
0001
1000
0000
0001
1000
0001
0000
1000
0001
1000
0001
,
0010
0000
0100
1000
0001
0000
0100
0000
0001
0010
0100
0010
0001
1000
0001
0100
,
0010
0000
0000
0000
0010
0000
0000
0000
1010
0000
0001
0010
0100
1000
0100
0010
,
0001
0000
0000
0000
0001
0000
0000
0000
1010
0000
1000
0100
0010
0001
0010
0100
,
1000
0010
1000
0000
0001
0010
0001
0000
1000
0100
1000
0000
0001
0100
0001
0000
,
0010
0001
0010
0001
0010
0001
0010
0001
1000
0100
1000
0100
1000
0100
1000
0100
,
0010
0000
0001
1000
0001
1000
0001
1000
0001
0100
0010
0100
0001
0100
0010
0100
,
0001
1000
0100
0000
1000
0001
0100
0000
0001
1000
0100
0000
1000
0001
0100
0000
,
0010
0000
1000
0100
1000
0100
1000
0100
1000
0000
0100
0010
0001
0000
0001
0000
,
0100
0010
1000
0000
0100
0010
0001
0000
0100
0010
1000
0000
0100
0010
0001
0000
,
1000
0000
0001
0100
0001
0100
0001
0100
0001
0010
0100
0010
0001
0000
1000
0000
,
0010
1000
0100
0000
0010
0001
0100
0000
0010
1000
0100
0000
0010
0001
0100
0000
,
0010
0000
0100
0001
0100
0001
0100
0001
0100
0010
1000
0001
0100
0000
0100
0000
,
0001
0010
0100
1000
0001
0010
0100
1000
0001
0010
0100
1000
0001
0010
0100
1000
,
0010
0000
1000
0100
0010
0100
1000
0100
0010
0001
0100
0001
0010
0000
0010
0000
,
0001
0000
1000
0010
0100
0010
1000
0010
0100
0000
0001
1000
0100
0000
0100
0000
,
0010
0001
0010
0001
1000
0010
1000
0010
0100
0001
0100
0001
1000
0100
1000
0200
,
0020
0000
0000
0000
,
0000
0000
0000
0000
,
0300
0000
0000
0000
,
0000
0000
0030
0000
;
