#TITLE:Urban Shark;
#SUBTITLE:;
#ARTIST:oo39.com;
#TITLETRANSLIT:;
#SUBTITLETRANSLIT:;
#ARTISTTRANSLIT:;
#GENRE:;
#CREDIT:;
#BANNER:Urban Shark-bn.png;
#BACKGROUND:Urban Shark-bg.png;
#LYRICSPATH:;
#CDTITLE:;
#MUSIC:Urban Shark.ogg;
#OFFSET:0.000000;
#SAMPLESTART:20.260000;
#SAMPLELENGTH:20.000000;
#SELECTABLE:YES;
#DISPLAYBPM:154.000000;
#BPMS:0.000000=154.000000
;
#STOPS:
;
#BGCHANGES:;
#KEYSOUNDS:;
#ATTACKS:;

//---------------dance-single - ----------------
#NOTES:
     dance-single:
     :
     Hard:
     16:
     0.872221,0.874962,0.303543,0.086727,0.958328,704.000000,669.000000,35.000000,10.000000,0.000000,0.000000,0.872221,0.874962,0.303543,0.086727,0.958328,704.000000,669.000000,35.000000,10.000000,0.000000,0.000000:
0000
0000
0000
0000
,
0000
0000
0000
0000
,
0000
0000
0000
0000
,
0000
0000
0000
0000
,
2000
0000
3001
0000
,
2000
0000
3001
0000
,
2010
0000
3001
1000
2100
0000
3001
1000
,
0100
0010
0100
0010
0001
1000
0001
1000
,
0010
0100
0001
1000
0010
0100
0001
1000
,
1200
0000
0310
0001
0201
0000
0310
1000
,
0110
0000
1001
0000
0110
0000
1001
0100
,
0001
0000
0000
0010
0100
0000
0000
0000
1100
0000
0000
0000
0101
0000
1000
0001
,
1000
0000
0000
0010
0100
0000
0001
0000
1000
0010
1000
0010
1000
0010
1000
0010
,
1000
0000
0000
0001
0010
0000
0001
0000
0100
0000
1000
0000
0100
0000
0001
1000
,
0001
0000
0010
0100
0010
0000
0001
0000
1000
0000
0010
0100
0010
0000
1000
0001
,
0100
0000
0001
0010
0100
0000
1000
0000
0010
0000
0100
0000
0001
0000
0010
0100
,
1000
0000
0001
0100
0010
1000
0001
0000
0010
0100
0000
0100
1000
0000
0001
0100
,
0001
0000
0010
0000
1000
0000
0010
0000
0001
0000
0010
0000
0100
0000
1000
0001
,
1000
0000
0010
0100
0010
0000
1000
0000
0001
0000
0010
0001
0100
0000
0010
1000
,
0100
0000
0000
0110
0000
0001
1000
0000
0101
0000
0010
0000
1000
0000
0100
0010
,
0001
0000
0000
1000
0001
0000
0100
0000
0010
1000
0000
1000
0010
0100
0001
1000
,
0100
0000
0010
0000
0001
0000
0100
0000
0010
1000
0000
0010
1000
0000
0001
0000
,
0100
0000
0010
0000
0100
0000
0001
1000
0000
0100
0000
1000
0001
0000
0100
0000
,
0001
0000
0010
0000
0001
0000
0100
0010
0000
1000
0000
0001
1000
0000
0100
0010
,
0001
0000
0100
0000
0010
0000
1000
0001
1000
0100
0000
0010
0001
0000
0100
0010
,
1000
0000
0001
0000
0010
0000
0100
0010
0000
0001
0000
1000
0001
0000
0100
0000
,
0010
0000
1000
0000
0001
0000
0010
0100
0000
0100
0000
0100
1000
0000
0001
1000
,
0010
0000
0100
0000
0001
0000
0100
0010
0000
1000
0000
0001
0100
0000
0010
1000
,
0100
0000
0010
0000
0001
0000
1000
0010
0100
0001
0010
0001
0010
0100
1000
0001
,
0100
0000
0000
0010
0000
0000
0100
0000
0000
0001
0000
0000
0000
0000
0000
1000
0000
0000
1000
0000
0000
0000
0001
0010
,
0001
0100
0010
1000
0200
0000
0320
0000
,
0031
0100
0001
1000
0000
0000
0010
0100
,
0010
0000
1010
0000
0000
0000
0001
0000
0101
0000
0000
1100
0000
0000
0001
1000
,
0010
0000
0000
0000
0000
0000
0100
0000
0000
0000
0000
0000
0001
0000
0000
0000
0000
0000
0100
0000
0000
0000
0000
0000
0010
0000
0000
1000
0000
0000
0000
0000
0000
1000
0000
0000
0100
0000
0000
0000
0000
0000
0000
0000
0010
0000
0001
0000
,
0100
0000
0010
0000
1000
0000
0001
0000
1000
0100
0000
0100
0010
0000
0001
0000
,
0100
0000
0001
1000
0001
0000
0100
0000
0010
1000
0000
0001
1000
0000
0010
0000
,
1001
0000
0000
0000
0000
0000
0100
0000
0000
0001
0000
0000
0010
0000
0000
0100
0000
0000
1000
0000
0000
0010
0000
0000
0100
0000
0000
0000
0000
0000
0000
0000
0101
0000
0000
0000
0000
0000
0000
0000
1100
0000
0000
0000
0000
0000
0000
0000
,
0110
0000
0000
0000
0001
0000
0100
0000
0001
1000
0001
0000
0100
0000
0000
0010
,
2000
0100
0000
0001
3002
0100
0103
0110
,
1001
0000
0000
0000
0000
0000
1010
0000
0000
0100
0001
0000
1000
0000
0010
0000
,
0100
0000
0001
0010
0100
1000
0001
0000
0100
0010
0000
0100
0010
0000
1000
0001
,
0100
0000
0010
0000
1000
0000
0001
0010
0000
0100
1000
0000
0001
0100
0000
0010
,
1000
0000
0001
0010
0001
0000
0100
0010
0000
0010
1000
0000
0001
1000
0100
0000
,
0010
0000
0000
0001
0000
0001
1000
0000
0001
0100
0010
0000
1000
0100
0010
0000
,
0001
0000
0100
0010
0000
0010
1000
0000
0001
1000
0010
0100
0001
1000
0010
0100
,
0001
0000
0000
0011
0000
0000
1100
0000
0001
0100
0010
0100
0001
1000
0100
0000
,
0010
0000
0000
0001
0000
1000
0010
0100
0001
0010
0001
0010
0001
0100
0001
0100
,
0010
0000
1000
0100
1000
0000
0001
0100
0001
0000
1000
0010
1000
0000
0001
0010
,
0001
0000
0100
0010
0100
0001
1000
0000
1100
0000
0000
0011
0000
0000
0100
0001
,
1000
0000
0010
1000
0001
0000
0010
0100
1000
0000
0001
0100
0010
0100
0010
1000
,
0100
0000
0000
1000
0000
0001
1000
0010
0100
0001
0100
0010
0100
0001
1000
0100
,
0010
0000
0001
1000
0001
0000
0100
0000
0010
1000
0010
1000
0010
0000
0100
0000
,
0001
0010
0100
0000
1000
0000
0001
0000
1000
0010
0000
0010
0100
0001
1000
0001
,
0010
0000
0000
0000
0000
0000
0100
0000
0000
1000
0000
0000
0100
0000
0000
0000
0000
0000
0001
0000
0000
0100
0000
0000
1000
0000
0000
0000
0000
0000
0010
0000
0000
0000
0000
0000
0100
0000
0000
0000
0000
0000
0000
0000
0001
0000
1000
0000
,
0001
0000
0010
0000
0001
0000
0100
0000
0010
0000
1000
0000
0100
0000
1000
0001
,
1000
0000
0010
0100
0001
0000
1000
0100
1000
0000
0010
0100
0001
0000
1000
0000
,
0001
0000
0011
0000
0000
0000
1100
0000
0101
0000
0000
1010
0000
0100
0010
1000
,
0001
0000
0000
0000
0000
0000
0010
0000
0000
0001
0000
0000
0100
0000
0000
0000
0000
0000
0010
0000
0000
0000
0000
0000
1000
0000
0000
0100
0000
0000
0000
0000
0000
0100
0000
0000
0010
0000
0000
0000
0000
0000
0000
0000
0001
0000
1000
0000
,
0010
0000
0100
0000
0001
1000
0100
0000
0010
0001
0100
0000
0010
0000
1000
0001
,
1000
0000
0010
0100
0010
0000
1000
0000
0001
0010
0000
0010
0100
0000
1000
0001
,
0010
0000
0000
0000
0000
0000
0001
0000
0000
0100
0000
0000
0010
0000
0000
1000
0000
0000
0100
0000
0000
0010
0000
0000
0001
0000
0000
0000
0000
0000
0000
0000
0011
0000
0000
0000
0000
0000
0000
0000
0110
0000
0000
0000
0000
0000
0000
0000
,
1100
0000
0001
1000
0001
0000
0010
0100
1000
0000
0001
0100
0001
0000
0010
0000
,
0100
1000
0001
0000
0100
0000
0010
0000
1000
0001
0010
0001
0100
0000
0010
1000
,
0001
0000
0010
0001
1000
0000
0100
0000
1000
0010
0100
0000
0001
0000
0010
0100
,
1000
0000
0001
0100
0010
1000
0100
0000
0010
0001
0010
0100
0010
0001
1000
0010
,
0100
0000
0001
0010
0001
0000
1000
0010
1000
0000
0100
0010
0001
0000
0100
0000
,
0010
1000
0100
0010
0000
0010
0001
0000
0100
0010
0000
0010
0000
1000
0001
0000
,
0110
0000
0000
1000
0000
0001
1000
0000
0100
0000
0010
0001
0100
0000
0010
1000
,
0001
0000
0010
0100
0010
0001
1000
0000
0010
1000
0010
1000
0100
0010
0001
0000
,
0100
0010
0000
0010
0000
1000
0100
0000
1000
0001
0010
0001
0010
0100
1000
0001
,
0100
0000
0010
1000
0001
0000
0010
0100
1000
0000
0001
0100
0001
0000
1000
0010
,
0100
0000
0001
0000
0010
0000
0100
0000
1000
0001
1000
0010
0100
0001
0010
0100
,
0000
1100
0000
0000
0000
0000
0000
0000
0000
0000
0000
0000
0000
0000
0000
0000
;

//---------------dance-single - ----------------
#NOTES:
     dance-single:
     :
     Medium:
     12:
     0.571156,0.562476,0.216816,0.286197,0.264516,461.000000,436.000000,25.000000,33.000000,0.000000,0.000000,0.571156,0.562476,0.216816,0.286197,0.264516,461.000000,436.000000,25.000000,33.000000,0.000000,0.000000:
0000
0000
0000
0000
,
0000
0000
0000
0000
,
0000
0000
0000
0000
,
0000
0000
0000
0000
,
2000
0000
3001
0000
,
2000
0000
3001
0000
,
2010
3001
2100
3001
,
0100
0010
0100
0010
1000
0001
1000
0001
,
0010
0100
1000
0001
0000
1000
0000
0010
,
0200
0301
0200
0301
,
1020
0130
0102
0013
,
1001
0000
0000
0001
1000
0000
0000
0000
0101
0000
0000
0000
1100
0000
0000
0000
,
0101
0000
0000
0100
0000
0000
0010
0000
1000
0000
0001
0000
1000
0000
0001
0000
,
0010
0000
0000
0001
0000
0000
0100
0000
0010
0000
1000
0000
0010
0000
0100
0000
,
0002
0000
0000
0010
0000
0000
1000
0000
1003
0000
0000
0010
0000
0000
0100
0000
,
0001
0010
0001
0100
0000
0010
1000
0100
,
1000
0000
0001
0000
0010
0000
0100
0000
0000
1000
0000
1000
0001
0000
0100
0000
,
0010
1000
0001
0010
0001
0100
0001
1000
,
0020
0000
0000
0100
0000
0000
1000
0000
1030
0000
0000
0001
0000
0000
0010
0000
,
0001
0000
0000
0100
0000
0010
0100
0000
0001
0000
0000
0000
0000
0000
1000
0000
,
1000
0000
0000
0100
0000
0000
0010
0000
0001
0000
0000
1000
0000
0000
0001
0000
,
0010
0010
0000
0011
0000
1000
0001
0100
,
0010
0000
1000
0000
0010
0000
0100
0000
0000
0001
0000
0000
1000
0000
0001
0000
,
0100
0010
0000
1010
0001
0100
0001
1000
,
0100
0000
0010
0000
0001
0000
0000
1000
0000
0010
0000
0000
1000
0000
0100
0000
,
0110
0000
0000
0001
0100
0010
1000
0100
,
1000
0000
0001
0000
1000
0000
0010
0000
0000
0100
0000
0000
0001
0000
0010
0000
,
0001
0100
0000
0101
0000
1000
0001
1000
,
0100
0010
0001
0100
0010
1000
0010
1000
,
0002
0000
0013
0200
0000
1000
1300
0000
,
0001
2000
0000
0010
3020
0000
0230
0000
,
0302
0000
0000
1000
0000
0000
0103
0010
,
0100
0000
0110
0000
0000
0000
0001
0000
1000
0000
0000
1000
0000
0000
1000
0000
,
0001
0000
1000
0000
0010
0000
0100
0000
0010
0000
1000
0000
0001
0000
0000
1000
,
0100
0000
0010
0000
0001
0000
0100
0000
0001
0000
1000
0000
0010
0000
0000
0100
,
0001
0010
0001
1000
0010
0100
0010
1000
,
0100
0000
0000
0010
0000
0000
0001
0000
0000
1000
0000
0000
0010
0000
0000
0000
0100
0000
0000
0000
0010
0000
0000
0000
,
1001
0000
0000
0000
0100
0000
0000
0000
0010
1000
0010
0000
0100
0000
0000
0001
,
2000
0000
0000
0100
3200
0010
0000
0001
,
0301
0000
0000
0000
0000
0000
1100
0000
0000
0000
0002
0000
0000
2003
0000
0000
,
3001
0000
0100
0000
0010
0000
1000
0000
0000
0100
0000
0000
1000
0000
0001
0000
,
0101
0000
0000
0000
0010
0000
0000
0000
1000
0001
1000
0000
0100
0000
0000
0010
,
0002
0000
0000
1000
2000
0000
0003
0000
,
3010
0000
0000
0100
0000
0100
0001
0000
1000
0000
0000
0000
0000
0000
0001
0000
,
0010
0000
0000
0100
0000
0000
0010
0000
0001
0000
0000
1000
0000
0000
0100
0000
,
1000
0000
0000
0001
0000
0000
2000
0000
0000
0000
3010
0000
0100
0000
0001
0000
,
0010
0000
0000
0100
0000
1000
0001
2000
0000
0000
0000
0000
3010
0000
0100
0000
,
0001
0000
0000
0010
0000
0000
0001
0000
0100
0000
0010
0000
1000
0000
0001
0000
,
1000
0000
0100
0000
0010
0001
0000
0000
0101
0000
0000
1100
0000
0000
0001
1000
,
0001
0000
0000
0100
0000
0000
0020
0000
0000
0000
1030
0000
0010
0000
0100
0000
,
0001
0000
0000
1000
0000
0010
0100
0020
0000
0000
1030
0000
0001
0000
0100
0000
,
0110
0000
0001
1000
0001
0100
0000
0010
,
1000
0100
1000
0000
0000
0000
0001
0000
0100
0000
0000
0010
1000
0000
0001
0000
,
0020
0000
0000
0000
0031
0000
2000
0000
0000
0000
3001
0000
0100
0000
0000
0010
,
1000
0200
0000
0010
0320
0000
0032
0000
,
2003
0000
0000
3020
0000
0000
1030
0100
,
0001
0000
1001
0000
0000
0000
1000
0000
0010
0000
0000
0100
0000
0000
0001
0000
,
0010
0000
0001
0000
0100
0000
0010
0000
1000
0000
0100
0000
1000
0000
0000
0001
,
0100
0000
0010
0000
1000
0000
0001
0000
0010
0000
0001
0000
0100
0000
0000
0010
,
1000
0100
1000
0001
0010
0100
0010
0001
,
1000
0000
0000
0000
0000
0000
0010
0000
0000
0100
0000
0000
0010
0000
0000
0000
0000
0000
1000
0000
0000
0000
0000
0000
0001
0000
0000
0000
0000
0000
0000
0000
0001
0000
0000
0000
0000
0000
0000
0000
0001
0000
0000
0000
0000
0000
0000
0000
,
0011
0000
0000
0000
1100
0000
0000
0001
1000
0000
0010
0000
1000
0000
0001
0000
,
0100
0010
0100
0001
1000
0010
1000
0100
,
0010
0001
1000
0010
0100
0001
0010
0100
,
1000
0001
1000
0010
0100
0001
1000
0100
,
1100
0000
0000
0000
0101
0000
0000
0010
1000
0000
0100
0000
1000
0000
0001
0000
,
0100
0010
0100
0001
0010
0100
1000
0001
,
0100
0000
0000
0010
0000
0010
1000
0000
0001
0000
0000
0000
0000
0000
0100
0000
,
0100
0001
0010
0100
0010
0001
1000
0010
,
0100
0000
0000
0001
0000
0001
1000
0000
0100
0000
0000
0000
0000
0000
0010
0000
,
0010
0000
0000
0001
0000
0000
1000
0000
0001
0000
0100
0000
0010
0000
1000
0000
,
0100
0000
0010
0001
1000
0010
1000
0001
,
0000
1100
0000
0000
0000
0000
0000
0000
0000
0000
0000
0000
0000
0000
0000
0000
;

//---------------dance-single - ----------------
#NOTES:
     dance-single:
     :
     Easy:
     8:
     0.360534,0.499978,0.199471,0.494341,0.073718,291.000000,268.000000,23.000000,57.000000,0.000000,0.000000,0.360534,0.499978,0.199471,0.494341,0.073718,291.000000,268.000000,23.000000,57.000000,0.000000,0.000000:
0000
0000
0000
0000
,
0000
0000
0000
0000
,
0000
0000
0000
0000
,
0000
0000
0000
0000
,
2000
0000
3001
0000
,
2000
0000
3001
0000
,
2000
3100
2000
3001
,
0100
0010
0100
0001
,
0010
0100
1000
0010
,
0200
0301
0200
0301
,
2000
3100
0020
0031
,
1001
0110
1001
0110
,
1001
0000
0000
0100
0010
0100
0010
0100
,
0010
1000
0100
0010
,
0002
0000
0000
1000
2000
0000
3003
0000
,
0002
0000
0000
0000
0000
0000
0023
0000
0000
0000
0000
0031
0000
0000
1000
0000
,
0100
0000
0000
0000
0010
0000
0001
0000
0000
1000
0000
0000
0010
0000
0100
0000
,
0001
0010
0100
1000
,
0020
0000
0000
0100
0200
0000
0330
0000
,
0001
0000
0000
1000
0000
0000
0001
0000
0100
0000
0000
0000
0000
0000
0010
0000
,
1000
1100
0001
0101
,
0010
1000
0000
1010
0000
0000
0001
0000
,
0010
0000
0000
0100
0000
0000
0000
0000
,
1000
0000
0000
1000
0000
0000
0001
0100
,
0001
1000
0010
0100
,
0001
0100
0000
0101
0000
0000
1000
0000
,
0010
0000
0000
0100
0000
0000
0000
0000
,
0001
1000
0000
1001
0000
0000
0100
0000
,
0001
0000
0000
0000
1000
0100
1000
0100
,
2000
0000
0000
3020
0000
0000
0230
0000
,
0302
0000
0000
2000
0000
0000
3003
0000
,
0020
0000
0000
2030
0000
0000
3100
0010
,
0002
0000
0000
0000
0000
0000
0000
0000
0013
0000
0000
0100
0000
0000
1000
0000
,
0020
0000
0000
0230
0000
0000
0302
0000
,
2003
0000
0000
0002
0000
0000
3003
0000
,
0200
0000
0000
0302
0000
0000
0013
0100
,
1000
0000
0010
0100
0001
0000
0001
0000
,
1001
0100
0001
1000
,
0200
0000
0000
0010
0020
0000
0330
0000
,
0011
0000
0000
1100
0000
0001
0000
1000
,
0100
0000
0000
0000
1000
0000
0001
0000
0000
0100
0000
0000
0010
0000
1000
0000
,
0100
0010
0001
0100
,
0002
0000
0000
1000
2000
0000
3003
0000
,
0010
0000
0000
1000
0000
0000
0001
0000
1000
0000
0000
0000
0000
0000
0100
0000
,
0010
0011
0100
1100
,
0001
0000
0000
0100
0000
0000
0020
0000
0000
0000
0000
0000
0030
0000
0000
0000
,
1000
0000
0000
0001
0000
0000
2000
0000
0000
0000
0000
0000
3000
0000
0000
0000
,
0010
0000
0000
0010
0000
0000
1000
0000
0002
0000
0000
0000
0003
0000
0100
0000
,
0001
0000
0000
0000
0110
0000
0000
0000
1000
0000
0000
0001
0000
0000
1000
0000
,
0010
0000
0000
0100
0000
0000
0002
0000
0000
0000
0000
0000
0003
0000
0000
0000
,
1000
0000
0000
0001
0000
0000
0200
0000
0000
0000
0000
0000
0300
0000
0000
0000
,
0010
0000
0000
1000
0001
1000
0000
0100
,
0010
0001
0000
0100
0020
0000
1030
0001
,
2000
0000
0000
3002
0000
0000
2003
0000
,
3020
0000
0000
0200
0000
0000
0330
0000
,
0002
0000
0000
0023
0000
0000
0031
1000
,
0200
0000
0000
0000
0000
0000
0000
0000
0310
0000
0000
0001
0000
0000
0100
0000
,
0020
0000
0000
2030
0000
0000
3002
0000
,
2003
0000
0000
0200
0000
0000
3300
0000
,
2000
0000
0000
3020
0000
0000
0130
0001
,
0010
0000
0001
1000
0100
0000
0100
0000
,
1001
0110
1000
0001
,
0010
0000
0001
0100
1000
0000
0001
0000
,
0101
0000
0000
1100
0000
0000
0001
0010
,
0100
0000
0000
0000
1000
0000
0001
0000
0000
0010
0000
0000
0001
0000
0100
0000
,
0010
1000
1010
0011
,
0100
0000
0001
0010
1000
0000
0001
0000
,
0100
0000
0000
0100
0000
0000
0010
0000
1000
0000
0000
0000
0000
0000
0001
0000
,
1000
0000
0010
0100
0001
0000
0010
0100
,
1000
0000
0000
1000
0000
0000
0001
0000
0100
0000
0000
0000
0000
0000
0010
0000
,
0200
0001
0010
0301
,
2000
0000
0000
3002
0000
0000
0013
0000
,
0000
1001
0000
0000
0000
0000
0000
0000
0000
0000
0000
0000
0000
0000
0000
0000
;

//---------------dance-single - ----------------
#NOTES:
     dance-single:
     :
     Beginner:
     4:
     0.182126,0.218551,0.043363,0.052036,0.000000,147.000000,142.000000,5.000000,6.000000,0.000000,0.000000,0.182126,0.218551,0.043363,0.052036,0.000000,147.000000,142.000000,5.000000,6.000000,0.000000,0.000000:
// measure 0
0000
0000
0000
0000
,  // measure 1
0000
0000
0000
0000
,  // measure 2
0000
0000
0000
0000
,  // measure 3
0000
0000
0000
0000
,  // measure 4
2000
0000
3000
0000
,  // measure 5
0002
0000
0003
0000
,  // measure 6
1000
0000
0001
0000
,  // measure 7
0100
0000
0010
0000
,  // measure 8
0100
0000
0001
0000
,  // measure 9
0010
0000
0010
0000
,  // measure 10
0100
0000
0100
0000
,  // measure 11
1000
0000
0001
0001
,  // measure 12
0001
0000
0000
0000
,  // measure 13
1000
1000
1000
0000
,  // measure 14
0010
0000
0100
0000
,  // measure 15
0001
0000
0010
0000
,  // measure 16
0200
0000
0300
0000
,  // measure 17
1000
1000
1000
0000
,  // measure 18
0001
0000
0100
0000
,  // measure 19
0010
0010
0010
0000
,  // measure 20
1000
0000
0001
0000
,  // measure 21
0010
0000
0001
0000
,  // measure 22
0100
0000
0010
0000
,  // measure 23
1000
0000
1000
0000
,  // measure 24
1000
0000
0000
0000
,  // measure 25
0100
0000
1000
0000
,  // measure 26
0010
0000
0100
0000
,  // measure 27
0001
0000
0001
0000
,  // measure 28
0001
0000
0100
0100
,  // measure 29
0100
0000
0010
0000
,  // measure 30
0100
0000
0010
0000
,  // measure 31
1000
0000
0001
0000
,  // measure 32
1000
0000
0000
0000
,  // measure 33
0010
0000
1000
0000
,  // measure 34
0010
0000
0100
0000
,  // measure 35
0001
0000
0010
0000
,  // measure 36
0001
0000
1000
1000
,  // measure 37
1000
0000
0010
0000
,  // measure 38
0100
0000
0100
0000
,  // measure 39
0110
0000
1001
0000
,  // measure 40
0002
0000
0003
0000
,  // measure 41
0010
0010
0010
0000
,  // measure 42
0100
0000
1000
0000
,  // measure 43
1001
0000
0110
0000
,  // measure 44
0010
0000
0100
0000
,  // measure 45
0001
0001
0001
0000
,  // measure 46
1000
1000
1000
0000
,  // measure 47
0010
0000
0100
0000
,  // measure 48
0010
0000
1000
0000
,  // measure 49
0100
0100
0100
0000
,  // measure 50
0010
0010
0010
0000
,  // measure 51
0001
0000
0100
0000
,  // measure 52
0010
0000
1000
0000
,  // measure 53
0100
0000
0100
0000
,  // measure 54
1000
0000
0001
0000
,  // measure 55
0100
0000
0010
0000
,  // measure 56
1000
0000
0000
0000
,  // measure 57
0001
0000
0010
0000
,  // measure 58
0001
0000
0100
0000
,  // measure 59
0010
0000
1000
0000
,  // measure 60
0100
0000
1000
1000
,  // measure 61
1000
0000
0001
0000
,  // measure 62
0010
0000
0001
0000
,  // measure 63
0100
0000
0010
0000
,  // measure 64
0200
0000
0300
0000
,  // measure 65
0001
0001
0001
0000
,  // measure 66
1000
0000
0001
0000
,  // measure 67
0010
0010
0010
0000
,  // measure 68
0100
0000
1000
0000
,  // measure 69
0010
0010
0010
0000
,  // measure 70
2000
0000
3000
0000
,  // measure 71
0001
0000
1000
0000
,  // measure 72
1001
0000
0000
0000
;
