#TITLE:Uranus;
#SUBTITLE:;
#ARTIST:Tatsh SN 2 Style;
#TITLETRANSLIT:;
#SUBTITLETRANSLIT:;
#ARTISTTRANSLIT:;
#GENRE:;
#CREDIT:;
#BANNER:Uranus-bn.png;
#BACKGROUND:Uranus-bg.png;
#LYRICSPATH:;
#CDTITLE:;
#MUSIC:Uranus.ogg;
#OFFSET:0.000000;
#SAMPLESTART:21.113001;
#SAMPLELENGTH:20.000000;
#SELECTABLE:YES;
#DISPLAYBPM:162.000000;
#BPMS:0.000000=162.162003
,4.000000=161.994003
,56.000000=162.024994
,120.000000=161.979996
,156.000000=161.975006
,200.000000=162.042007
;
#STOPS:55.500000=0.373000
;
#BGCHANGES:;
#KEYSOUNDS:;
#ATTACKS:;

//---------------dance-single - ----------------
#NOTES:
     dance-single:
     :
     Hard:
     16:
     0.857148,1.094421,0.656254,0.150001,0.839068,640.000000,570.000000,70.000000,16.000000,0.000000,0.000000,0.857148,1.094421,0.656254,0.150001,0.839068,640.000000,570.000000,70.000000,16.000000,0.000000,0.000000:
0000
0000
0000
0000
,
0000
0000
0000
0000
,
0000
0000
0000
0000
,
0000
0000
0000
0000
,
0000
0000
0000
0000
,
0000
0000
0000
0000
,
1000
0100
1000
0000
0001
0000
0100
0010
0100
0000
0001
0000
1000
0000
0010
0000
,
0100
0001
0100
0000
0010
0000
1000
0001
1000
0000
0100
0000
0010
0000
0001
1000
,
0001
0100
0001
0000
0010
0000
0100
1000
0100
0000
0010
0000
0001
0000
1000
0000
,
0010
1000
0010
0000
0100
0000
0001
1000
0001
0000
0001
0000
0001
0000
0001
0100
,
0010
0000
0100
0001
1000
0000
0010
0000
1000
0100
0010
0000
0001
0000
1000
0000
,
0001
0010
0100
0000
1000
0000
0001
0000
1000
0010
1000
0010
0100
0000
0001
0000
,
0010
0100
0010
0000
0001
0000
1000
0000
0001
0000
0100
0000
0010
0000
1000
0000
,
1100
1100
0101
0101
1001
0110
1001
0110
,
1000
0001
0100
0000
0001
1000
0100
0000
1000
0001
0100
0000
0010
0000
0100
0001
,
1000
0000
0000
0010
0001
0100
0010
0100
0001
0010
0100
0010
0001
0100
0010
1000
,
0001
0010
0100
0000
1000
0010
0100
0000
0001
0010
0100
0000
1000
0000
0001
0100
,
0010
1000
0000
1000
0010
0000
0100
0001
1000
0001
0000
0010
0100
1000
0100
1000
,
0001
0100
0001
0000
0010
0000
0100
0000
1000
0010
1000
0000
0100
0000
0001
0000
,
0010
0000
0000
0001
1000
0010
0100
0010
1000
0100
0010
0100
1000
0010
0100
0001
,
1000
0010
1000
0000
0100
0000
0010
0000
0001
0100
0010
0100
0001
0000
1000
0001
,
0100
0000
1010
0000
1001
0000
1100
0000
0010
0001
0100
0000
1001
0000
0110
0000
,
0000
0000
1010
0000
0000
0101
0000
0000
1000
0100
0000
0100
0010
0000
0001
0000
,
0000
0000
0011
0000
0000
1100
0000
0000
0010
1000
0000
1000
0001
0000
0100
0000
,
0000
0000
0101
0000
0000
0011
0000
0000
0010
0100
0000
0100
1000
0000
0001
0000
,
0000
0000
1010
0000
0000
1100
0000
0000
0010
0001
0000
0001
1000
0000
0100
0000
,
0000
0000
1000
0010
0000
0010
0100
0000
0100
0001
0000
0001
1000
0000
1100
0000
,
0000
0000
0010
0001
0000
0001
1000
0000
1000
0010
0000
0010
0100
0000
0101
0000
,
0000
0000
0001
1000
0000
1000
0010
0000
0010
0100
0000
0100
0001
0000
0011
0000
,
0000
0000
0100
1000
0000
1000
0010
0000
0010
1000
0000
1000
0001
0000
0011
0000
,
2002
0000
0000
3000
,
0013
1000
0100
0010
0101
0000
1100
0000
,
0001
0100
0010
1000
1100
0000
0101
0000
,
1000
0001
0010
0100
1100
0000
0011
0100
,
1000
0010
0100
0001
0011
0000
1100
0000
,
1000
0001
0100
0010
1010
0000
0101
1000
,
0000
0001
0010
0100
1100
0000
0101
0010
,
1000
0001
1000
0100
0110
0000
1001
0010
,
1000
0100
0010
0001
0101
0000
0011
2000
,
0002
0000
0000
3003
,
1001
0000
0000
0100
0010
1000
0001
0100
,
0001
0010
0001
0010
0100
1000
0100
1000
0010
0100
0010
0100
0001
0000
1100
0000
,
0011
0000
0100
1000
0010
1000
0001
0100
,
0010
1000
0010
1000
0001
1000
0001
1000
0100
1000
0100
0010
0001
0000
0000
0000
,
1001
0000
0010
0100
0001
0100
0010
1000
,
0100
0010
0001
0000
0100
0010
1000
0000
0001
1000
0010
1000
0001
0000
1010
0000
,
0101
0000
0000
1100
0011
0000
0000
0110
,
1001
0110
1001
0110
,
1010
1010
0101
0101
0011
0011
1100
1100
,
0001
1000
0001
1000
0001
1000
0001
1000
0001
1000
0001
1000
0001
0000
0000
0000
,
2100
0000
0000
0000
3010
0000
0001
0000
0100
0010
0100
0001
0010
0100
1000
0000
,
0001
0100
0010
0100
0001
1000
0100
1000
0020
0000
0000
0000
0130
0001
0100
0001
,
2000
0000
0000
0000
3001
0000
0010
0100
1000
0000
0010
0100
0000
0010
1000
0001
,
0100
0000
0010
0000
1000
0000
0001
0010
0100
0010
0001
0100
0010
1000
0001
1000
,
0200
0000
0000
0000
0310
0001
0010
0100
1000
0001
2000
0000
0000
0000
3010
0100
,
0010
1000
0010
0100
0001
0010
0100
1000
0002
0000
0000
0000
1003
0010
1000
0010
,
0200
0000
0000
0000
0301
0000
1000
0001
1000
0000
0010
0100
0010
0000
0100
0001
,
0010
0100
0010
0001
1000
0000
0001
0000
1010
0000
0000
0000
0101
0000
0000
0000
,
0012
0000
0000
0000
1003
0000
0001
0000
0100
0000
0001
0010
0000
0001
1000
0100
,
0010
0001
0010
0001
0010
0100
1000
0100
1000
0010
0100
0001
1000
0010
0100
0010
,
2000
0000
0000
0000
3001
0000
0100
0000
0001
0010
0100
1000
0000
0001
1000
0010
,
0100
0001
0100
0010
1000
0000
0001
0000
1001
0000
0000
0000
0110
0000
0000
0000
,
0102
0000
0000
0000
0103
0001
0010
0001
1000
0100
0020
0000
0000
0000
0031
0000
,
1000
0010
1000
0010
0100
0001
0100
0001
0010
0100
0010
0100
1000
0001
1000
0001
,
0100
0010
0100
0010
0100
0010
0100
0010
0100
0010
0100
0010
0100
0010
0100
0010
,
1000
0010
0100
0001
1000
0100
0010
0001
0100
0010
1000
0001
0100
0010
1000
0001
,
0020
0000
0000
0000
,
0000
0000
0000
0000
,
0000
0000
0000
0000
,
0000
0000
0000
0000
,
0000
0000
0000
0030
;

//---------------dance-single - ----------------
#NOTES:
     dance-single:
     :
     Medium:
     12:
     0.545093,0.663285,0.318752,0.271877,0.154688,407.000000,373.000000,34.000000,29.000000,0.000000,0.000000,0.545093,0.663285,0.318752,0.271877,0.154688,407.000000,373.000000,34.000000,29.000000,0.000000,0.000000:
0000
0000
0000
0000
,
0000
0000
0000
0000
,
0000
0000
0000
0000
,
0000
0000
0000
0000
,
0000
0000
0000
0000
,
0000
0000
0000
0000
,
1000
0010
0100
0001
0000
1000
0001
0100
,
0010
0000
0100
0000
0001
0000
1000
0000
0000
0000
1000
0000
0010
0000
0100
0001
,
0100
0010
1000
0001
0000
0010
0100
1000
,
0000
0000
1000
0000
0100
0000
0010
0000
0001
0000
0001
0000
0001
0000
0001
1000
,
0001
0100
0010
1000
0000
0010
1000
0001
,
0010
0001
1000
0100
0000
1000
0010
0001
,
0100
0010
1000
0001
0000
0010
0001
0100
,
0001
0010
0100
1000
0001
0100
0010
1000
,
0001
0100
1000
0010
0001
0100
0001
0000
,
0010
0000
0000
0001
0100
0000
0000
0010
1000
0000
0000
0010
0100
0000
0000
0000
,
0001
0010
0001
0100
1000
0010
0100
0000
,
0001
1000
0000
0001
1000
0000
0100
0000
1000
0001
0000
1000
0001
0000
0000
0000
,
0100
0010
1010
0000
0100
0010
0011
0000
,
1000
0000
0001
0000
1001
0000
0000
0000
0010
0000
1000
0000
0100
0000
1000
0001
,
1000
0100
1100
0000
0001
0100
0101
0000
,
0010
0000
0100
0000
0100
0000
0100
0000
0010
1000
0010
0000
0100
0000
0100
0000
,
0000
0000
0001
0000
0000
1000
0000
0000
0010
0000
0000
1000
0000
0000
0001
0000
,
0000
0000
1000
0000
0000
0100
0000
0000
0010
0000
0000
0001
0000
0000
1000
0000
,
0000
0000
0001
0000
0000
0100
0000
0000
0010
0000
0000
0100
0000
0000
0001
0000
,
0000
0000
0010
0000
0000
0001
0000
0000
1000
0000
0000
0100
0000
0000
0010
0000
,
0000
0000
0100
0000
0000
1000
0000
0000
0010
0000
0000
1000
0000
0000
0100
0000
,
0000
0000
0001
0000
0000
0100
0000
0000
1000
0000
0000
0001
0000
0000
0010
0000
,
0000
0000
0001
0000
0000
0100
0000
0000
1000
0000
0000
0100
0000
0000
0001
0000
,
0000
0000
0100
0000
0000
0010
0000
0000
1000
0000
0000
0001
0000
0000
0100
0000
,
0220
0000
0000
0300
,
2030
0000
0000
0001
0001
0000
3100
0000
,
0000
0010
0000
1000
0002
0000
0103
0000
,
0020
0000
0000
1000
1000
0000
0130
0002
,
0000
0010
0000
1000
1000
0000
0103
0000
,
0020
1000
0000
2030
0000
3002
0000
0203
,
0000
0310
0000
0100
0010
0000
1000
0001
,
2000
0100
0000
0001
0001
0000
3010
1000
,
0002
0010
0000
1000
1000
0000
0103
2000
,
0002
0000
0000
3003
,
1001
0000
0010
1000
0100
0000
0010
0001
,
1000
0010
1000
0001
1000
0010
0100
0001
,
0110
0000
1000
0010
0100
0000
0001
0010
,
0100
1000
0010
1000
0100
1000
1100
0000
,
0101
0000
0010
1000
0001
0000
1000
0100
,
0010
0001
1000
0001
0100
0000
0000
1010
,
0101
0000
0000
0011
1100
0000
0000
0110
,
1001
0110
1001
0110
,
0001
0001
1000
1000
0001
0001
1000
1000
,
2020
0000
0000
3030
,
0201
0000
0301
0010
0100
1000
0010
1000
,
0001
1000
0100
0010
0012
0000
1003
0100
,
2100
0000
0000
0000
3001
0000
0100
0000
0010
0000
1000
0001
0000
1000
0001
0000
,
0100
0000
0010
0000
1000
0000
0001
0000
0010
0000
1000
0000
0001
0100
0001
0100
,
0002
0000
0013
0100
1000
0010
1000
0001
,
0100
0010
1000
0001
1020
0000
0130
0001
,
0012
0000
1003
0001
0010
0100
0010
0001
,
0100
0010
1000
0001
0101
0000
1100
0000
,
0201
0000
0310
1000
0001
1000
0100
0010
,
0001
0100
1000
0100
0001
0010
0100
1000
,
2001
0000
3001
0010
1000
0100
0010
0001
,
0100
0010
0100
0000
1010
0000
0011
0000
,
1020
0000
1030
0001
0010
0100
0010
0001
,
0100
1000
0100
0001
0010
0100
1000
0001
,
0102
0000
1003
0001
0010
0100
1000
0010
,
1200
0000
0000
0000
0310
0000
0001
0000
0100
0000
0010
0000
1000
0001
1000
0002
,
2000
0000
0000
0000
,
0000
0000
0000
0000
,
0000
0000
0000
0000
,
0000
0000
0000
0000
,
0000
0000
0000
3003
;

//---------------dance-single - ----------------
#NOTES:
     dance-single:
     :
     Easy:
     8:
     0.421878,0.530628,0.581254,0.187501,0.009375,315.000000,253.000000,62.000000,20.000000,0.000000,0.000000,0.421878,0.530628,0.581254,0.187501,0.009375,315.000000,253.000000,62.000000,20.000000,0.000000,0.000000:
0000
0000
0000
0000
,
0000
0000
0000
0000
,
0000
0000
0000
0000
,
0000
0000
0000
0000
,
0000
0000
0000
0000
,
0000
0000
0000
0000
,
1000
0001
0000
0100
0000
0010
0000
0100
,
0001
1000
0000
0010
0000
0100
0000
0010
,
1000
0100
0000
0010
0000
0001
0000
1000
,
0010
1000
0000
0100
0001
0001
0001
0001
,
0001
0011
1000
1010
,
0001
0101
1000
1100
,
0010
1001
0100
0110
,
1000
0001
1000
0001
1000
0001
1000
0001
,
1001
0010
1000
0100
,
0001
0010
1000
0001
,
0100
0010
1000
0001
,
0010
0100
1000
0001
,
0100
0010
1000
0000
0100
0010
0001
0000
,
1000
1100
0001
0101
,
0010
1000
0001
0000
0100
0001
1000
0000
,
0000
0001
0001
0001
0000
1000
1000
1000
,
0000
1010
0000
0000
0101
0000
0000
1100
,
0000
0011
0000
0000
1001
0000
0000
0110
,
0000
0101
0000
0000
0011
0000
0000
1100
,
0000
1001
0000
0000
1010
0000
0000
0110
,
0000
1001
0000
0000
0101
0000
0000
0011
,
0000
0110
0000
0000
1100
0000
0000
1010
,
0000
0110
0000
0000
1001
0000
0000
0110
,
0000
0000
1000
0000
0000
0001
0000
0000
1000
0000
0000
0010
0000
0000
0100
0000
,
0002
0000
0000
0003
,
0022
0030
0100
0103
,
0000
0010
1000
0000
1100
0000
0101
0000
,
0000
0120
0000
0000
0001
0000
1030
0200
,
0000
1000
0000
0000
0001
0000
0310
0000
,
2100
0000
0000
0001
0000
0100
0000
3002
,
0000
0100
0010
0013
,
0202
0300
0010
1003
,
2020
0030
0100
0001
,
0020
0000
0000
3030
,
1001
0000
0010
1000
,
0100
0010
0001
0100
,
0110
0000
1000
0001
,
0010
0100
1000
1100
,
0011
0000
0000
0000
1000
0000
0000
0010
,
0001
0000
0000
1000
0100
0000
0000
1000
,
1000
0000
0000
0001
0001
0000
0000
0100
,
1001
0110
1001
0110
,
1000
0100
1000
0000
0001
0100
0001
0000
,
2020
0000
0000
3030
,
0101
0010
1000
0001
,
1000
0010
0100
0001
0022
0000
0033
0000
,
1100
0000
0001
0000
0010
0100
1000
0000
,
0100
0010
0001
0000
1000
0001
0100
0010
,
1010
0000
0001
0000
1000
0100
0000
0000
,
1000
0001
0100
0000
0220
0000
0330
0000
,
0101
0000
0010
0000
1000
0001
0100
0000
,
0001
0010
1000
0000
1100
0000
0110
0000
,
0011
0000
0100
0000
0010
1000
0001
0000
,
1000
0100
0001
0000
1000
0010
0001
0000
,
1010
0000
0001
0010
0001
0100
1000
0000
,
0010
1000
0100
0000
0011
0000
0110
0000
,
1100
0001
1000
0010
,
1000
0001
0100
0000
0001
0010
1000
0000
,
0101
0010
1000
0001
,
1100
0000
0010
0000
1000
0001
0100
0010
,
2002
0000
0000
0000
,
0000
0000
0000
0000
,
0000
0000
0000
0000
,
0000
0000
0000
0000
,
0000
0000
0000
3003
;

//---------------dance-single - ----------------
#NOTES:
     dance-single:
     :
     Beginner:
     3:
     0.150001,0.278439,0.131251,0.000000,0.000000,112.000000,98.000000,14.000000,0.000000,0.000000,0.000000,0.150001,0.278439,0.131251,0.000000,0.000000,112.000000,98.000000,14.000000,0.000000,0.000000,0.000000:
// measure 0
0000
0000
0000
0000
,  // measure 1
0000
0000
0000
0000
,  // measure 2
0000
0000
0000
0000
,  // measure 3
0000
0000
0000
0000
,  // measure 4
0000
0000
0000
0000
,  // measure 5
0000
0000
0000
0000
,  // measure 6
1000
0000
0000
0000
,  // measure 7
0010
0000
0000
0000
,  // measure 8
1000
0000
0000
0000
,  // measure 9
0100
0000
0001
0001
,  // measure 10
0001
0000
0000
0000
,  // measure 11
0010
0000
0000
0000
,  // measure 12
0100
0000
0000
0000
,  // measure 13
1000
1000
1000
1000
,  // measure 14
1001
0000
0000
0000
,  // measure 15
1000
0000
0001
0000
,  // measure 16
0100
0000
0010
0000
,  // measure 17
0100
0000
0001
0000
,  // measure 18
0100
0000
0010
0000
,  // measure 19
1000
1000
1000
0000
,  // measure 20
0001
0000
0010
0000
,  // measure 21
0000
1001
0000
0110
,  // measure 22
0000
1000
0000
0001
,  // measure 23
0000
1000
0000
0100
,  // measure 24
0000
0010
0000
0001
,  // measure 25
0000
0100
0000
0010
,  // measure 26
0000
0100
0100
0100
,  // measure 27
0000
0001
0001
0001
,  // measure 28
0000
1000
1000
1000
,  // measure 29
0000
0010
0010
0010
,  // measure 30
0000
0000
0000
0000
,  // measure 31
0110
0000
0001
0001
,  // measure 32
0000
0000
1000
1000
,  // measure 33
0000
0000
0010
0010
,  // measure 34
0000
0000
0100
0100
,  // measure 35
0000
0000
0010
0010
,  // measure 36
0000
0000
1000
1000
,  // measure 37
0000
0000
0100
0100
,  // measure 38
0000
0000
0001
0001
,  // measure 39
0000
0000
0000
0000
,  // measure 40
1001
0000
0000
0000
,  // measure 41
0000
0000
0000
0000
,  // measure 42
0110
0000
0000
0000
,  // measure 43
0000
0000
0000
1000
,  // measure 44
1000
0000
0000
0000
,  // measure 45
0000
0000
0000
0000
,  // measure 46
1001
0000
0110
0000
,  // measure 47
0100
0100
0100
0100
,  // measure 48
0100
0000
0010
0000
,  // measure 49
0110
0000
0000
0000
,  // measure 50
1001
0000
0000
0000
,  // measure 51
0000
0000
1000
0000
,  // measure 52
0001
0000
0000
0000
,  // measure 53
0000
0000
0000
0010
,  // measure 54
0010
0000
0000
0000
,  // measure 55
0000
0000
0001
0000
,  // measure 56
0100
0000
0000
0000
,  // measure 57
0000
0000
1000
1000
,  // measure 58
1000
0000
0000
0000
,  // measure 59
0000
0000
0000
0000
,  // measure 60
1001
0000
0000
0000
,  // measure 61
0000
0000
0001
0001
,  // measure 62
0001
0000
0000
0000
,  // measure 63
0100
0000
0010
0000
,  // measure 64
0110
0000
0000
0000
,  // measure 65
1001
0000
0000
0000
,  // measure 66
0110
0000
0000
0000
;
