#VERSION:0.83;
#TITLE:Uranus;
#SUBTITLE:(25th Anniversary Special);
#ARTIST:Tatsh SN 2 Style;
#TITLETRANSLIT:;
#SUBTITLETRANSLIT:;
#ARTISTTRANSLIT:;
#GENRE:;
#ORIGIN:;
#CREDIT:;
#BANNER:Uranus (25th Anniversary Special)-bn.png;
#BACKGROUND:Uranus (25th Anniversary Special)-bg.png;
#PREVIEWVID:;
#JACKET:Uranus (25th Anniversary Special)-jacket.png;
#CDIMAGE:;
#DISCIMAGE:;
#LYRICSPATH:;
#CDTITLE:;
#MUSIC:Uranus (25th Anniversary Special).ogg;
#OFFSET:0.000000;
#SAMPLESTART:0.008000;
#SAMPLELENGTH:20.000000;
#SELECTABLE:YES;
#DISPLAYBPM:41.000000:324.000000;
#BPMS:0.000=162.000,
117.000=81.000,
133.000=162.000,
170.000=40.500,
171.000=324.000,
299.000=40.500;
#STOPS:51.750=0.373,
116.000=1.119,
133.000=1.119;
#DELAYS:;
#WARPS:;
#TIMESIGNATURES:0.000=4=4;
#TICKCOUNTS:0.000=4;
#COMBOS:0.000=1;
#SPEEDS:0.000=1.000=0.000=0;
#SCROLLS:0.000=1.000;
#FAKES:;
#LABELS:0.000=Song Start;
#BGCHANGES:;
#KEYSOUNDS:;
#ATTACKS:
;

//---------------dance-single - ----------------
#NOTEDATA:;
#CHARTNAME:;
#STEPSTYPE:dance-single;
#DESCRIPTION:;
#CHARTSTYLE:;
#DIFFICULTY:Challenge;
#METER:19;
#RADARVALUES:1.162099,1.459149,0.288464,0.019231,1.293282,846.000000,816.000000,30.000000,2.000000,0.000000,0.000000,0.000000,0.000000,0.000000,1.162099,1.459149,0.288464,0.019231,1.293282,846.000000,816.000000,30.000000,2.000000,0.000000,0.000000,0.000000,0.000000,0.000000;
#CREDIT:;
#NOTES:
// measure 0
0000
0000
0000
0000
,  // measure 1
0000
0000
0000
0000
,  // measure 2
0000
0000
0000
0000
,  // measure 3
0000
0000
0000
0000
,  // measure 4
0000
0000
0000
0000
,  // measure 5
1000
0001
0100
0010
0001
0001
0001
0010
0010
0010
1000
0100
0100
1000
0100
1000
,  // measure 6
0001
1000
0001
1000
0010
0100
0010
0001
0001
0100
1000
0010
0100
1000
0010
0100
,  // measure 7
0100
1000
0010
1000
0010
1000
0010
0001
0100
0010
0001
0001
0100
0100
1000
0001
,  // measure 8
0010
1000
0100
0010
1000
0100
0010
1000
0001
0100
0001
1000
0001
0010
0001
0100
,  // measure 9
0001
0010
0010
0100
0010
0100
1000
0010
0001
1000
0100
1000
1000
0001
0100
0001
,  // measure 10
0100
1000
0001
1000
0010
1000
0010
0001
1000
0100
0010
0100
0010
0001
0001
0100
,  // measure 11
0100
0100
0100
0100
0010
0001
0001
0001
1000
0010
1000
0010
1000
0010
0001
1000
,  // measure 12
0010
1000
0100
1000
0001
0100
0001
0100
0001
0010
0010
1000
0010
0100
0001
1000
,  // measure 13
0010
1000
0100
1000
0001
0100
0001
0100
0010
0001
0010
1000
0100
0001
1000
0010
,  // measure 14
0010
0001
0001
0010
0100
1000
0100
1000
0100
1000
0010
0001
0010
0001
0100
1000
,  // measure 15
0100
0100
0010
0010
0010
0001
1000
0001
0100
0001
0100
0001
1000
1000
0010
1000
,  // measure 16
0010
0010
0001
0010
0001
0100
0100
1000
0100
0100
1000
0001
1000
0001
0010
1000
,  // measure 17
0010
0010
0001
0001
0001
0100
0100
0100
0100
0001
1000
1000
1000
1000
0010
0010
,  // measure 18
0001
0001
0010
0001
0010
0100
0100
1000
0100
1000
0100
1000
0001
1000
0010
0010
,  // measure 19
0001
1000
0001
0100
0010
1000
0100
1000
1000
0001
0001
0010
0100
0010
0100
0010
,  // measure 20
1000
0000
0101
0000
1100
0000
0101
0000
0010
1000
1100
0000
0101
0000
1100
0000
,  // measure 21
0000
0000
1000
0010
0001
1000
0100
0001
1000
0010
0001
1000
0100
0001
1010
0000
,  // measure 22
0000
0000
0001
0010
1000
0001
0100
1000
0001
0010
1000
0001
0100
1000
0101
0000
,  // measure 23
0000
0000
0010
1000
0100
0010
0001
0100
0010
1000
0100
0010
0001
0100
1100
0000
,  // measure 24
0000
0000
0100
0001
0010
0100
1000
0010
0100
0001
0010
0100
1000
0010
0011
0000
,  // measure 25
0000
0000
0001
0010
1000
0001
0010
1000
0001
0010
1000
0001
0010
1000
0110
0000
,  // measure 26
0000
0000
1000
0100
0001
1000
0100
0001
1000
0100
0001
1000
0100
0001
0110
0000
,  // measure 27
0000
0000
0010
0010
0010
0010
0010
0010
0010
0010
0010
0010
0010
0010
1001
0000
,  // measure 28
0000
0000
0100
0100
0100
0100
0100
0100
0100
0100
0100
0100
0100
0100
1001
0000
,  // measure 29
1100
0000
0000
0000
0101
0010
1000
0100
0001
0010
0001
0100
0001
0010
1000
0100
,  // measure 30
0010
0001
0100
0010
1010
1000
0100
0001
0010
1000
0001
1100
0010
1000
0001
0010
,  // measure 31
0001
0100
0010
1000
0110
0001
0010
0101
1000
1010
0100
0011
1000
0001
0010
0100
,  // measure 32
0001
0010
1000
0001
1100
0010
1000
0100
0010
0001
0100
1000
0101
0010
1000
0001
,  // measure 33
1000
0100
0010
0001
0110
0000
0000
0000
1001
0000
0000
0000
1000
0010
0100
0010
,  // measure 34
1000
0001
0010
0001
0100
0010
0100
0001
0010
1000
0001
0010
1000
0100
0001
0010
,  // measure 35
1000
0001
0010
0100
1000
0010
0001
0100
1010
0000
0001
0100
0001
0010
1000
0001
,  // measure 36
1000
0010
0100
0010
1000
0100
0001
1000
0001
0010
1000
0100
0010
0100
1000
0010
,  // measure 37
0001
0100
0001
0010
1000
0001
0010
0100
0011
0000
1000
0001
0010
0100
0010
0001
,  // measure 38
0100
1000
0010
1000
0001
0001
0010
1000
0100
0010
0100
1000
0010
0100
0010
0100
,  // measure 39
0001
1000
1000
0001
0010
1000
0100
0001
0010
1000
0100
0001
0010
0001
0100
1000
,  // measure 40
0001
0010
0100
0010
0010
0010
0010
0001
0100
0010
0100
0001
0010
0100
1000
1000
,  // measure 41
0001
0010
0001
0100
0001
0010
1000
0100
0010
0010
0010
0010
0010
0010
0010
0010
,  // measure 42
0010
0010
0010
0010
0010
0010
0010
0010
1001
0000
0000
0000
0010
0000
0001
0000
,  // measure 43
1000
0100
0100
0100
0100
0010
1000
0010
,  // measure 44
1000
0010
0010
0010
0100
0100
0010
0100
,  // measure 45
0010
0100
0100
0010
1000
0010
1000
0010
,  // measure 46
0001
0010
0100
0010
1000
0010
1000
0010
,  // measure 47
0100
0010
1000
0001
0010
0010
0010
1000
,  // measure 48
0100
0010
0100
0010
0001
0010
0001
0010
,  // measure 49
0001
0010
0100
0100
0100
0100
0100
0100
,  // measure 50
0100
0001
0001
0001
0100
0100
0010
0010
,  // measure 51
0100
1000
0010
0100
0001
0001
0100
1000
,  // measure 52
0100
0100
0100
0001
0100
0100
1000
0100
,  // measure 53
0010
0010
0010
0010
0010
0010
0010
0010
,  // measure 54
1000
0100
0100
0100
0100
0100
0100
0100
,  // measure 55
0100
0100
0100
0100
0100
1000
0100
0100
,  // measure 56
0001
0100
1000
1000
1000
1000
1000
1000
,  // measure 57
0100
0100
0001
0100
0001
0100
0001
0100
,  // measure 58
0001
0100
0100
0010
0100
0010
0100
0001
,  // measure 59
0100
0010
0001
0010
0100
0100
0100
0001
,  // measure 60
0100
0001
0100
0001
0010
1000
0010
0100
,  // measure 61
0010
0100
0010
0100
0010
0100
0010
1000
,  // measure 62
0010
1000
1000
1000
1000
1000
1000
1000
,  // measure 63
1000
1000
1000
0100
1000
0100
1000
0100
,  // measure 64
1000
0100
1000
0100
1000
0100
1000
0001
,  // measure 65
1000
0100
1000
0010
1000
0010
1000
0010
,  // measure 66
0100
0100
1000
0100
0010
1000
0001
1000
,  // measure 67
0100
1000
0010
0001
0010
1000
0010
0100
,  // measure 68
0100
0100
1000
1000
1000
1000
0010
0100
,  // measure 69
0100
0100
0100
0100
1000
1000
1000
1000
,  // measure 70
1000
1000
1000
0100
0100
0100
0100
0100
,  // measure 71
1000
0100
0001
1000
0100
1000
0100
0001
,  // measure 72
0100
0100
0001
1000
0100
0100
0010
1000
,  // measure 73
0010
0100
0010
1000
0100
0100
0001
0001
,  // measure 74
0001
0100
0100
0010
1000
0010
0202
0000
,  // measure 75
0000
0000
0000
0000
0000
0000
0000
0303
;
