#TITLE:Uptown Girl;
#ARTIST:Billy Joel;
#BANNER:Uptown Girl-bn.png;
#BACKGROUND:Uptown Girl-bg.png;
#JACKET:Uptown Girl-jacket.png;
#MUSIC:Uptown Girl.ogg;
#OFFSET:0.833;
#SAMPLESTART:8.573;
#SAMPLELENGTH:20;
#DISPLAYBPM:118:134;
#BPMS:0=128.62,12=128,40=129,48=130,52=128.75,60=127,64=128.54,68=129.83,80=127.85,83.75=118,84=131,96=128.19,100=126.5,104=129.4,108=130.4,124=128.7,148=128.25,180=127.5,192=128.9,195.75=134,196=129.375,212=128.6,220=131.6,223=130.04,228=133,231=127.85;
#BGCHANGES:;

//---------------dance-single - ----------------
#NOTES:
     dance-single:
     :
     Beginner:
     3:
     :
0000
0000
0000
0000
,
0000
0000
0000
0000
,
0000
0000
0000
0000
,
0000
0000
0000
0000
,
0000
0000
0000
0000
,
0010
0010
0010
0000
,
0000
0000
1000
0000
,
0010
0010
0010
0000
,
0000
0000
0100
0000
,
0001
0001
0001
0000
,
0000
0000
0010
0000
,
0100
0100
0100
0000
,
0000
0000
1000
0000
,
0010
0010
0010
0000
,
0000
0000
0100
0000
,
0001
0001
0001
0000
,
0000
0000
1000
0000
,
0001
0001
0001
0000
,
0000
0000
0010
0000
,
0100
0100
0100
0000
,
0000
0000
1001
0000
,
0000
0000
1000
0000
,
0001
0000
0001
0000
,
1000
0000
0100
0000
,
0010
0010
0010
0000
,
0000
0000
0001
0000
,
1000
0000
0010
0000
,
0100
0000
0010
0000
,
1000
1000
1000
0000
,
0000
0000
0001
0000
,
0100
0000
0010
0000
,
1000
0000
0100
0000
,
1000
0000
0001
0000
,
0010
0010
0010
0000
,
0001
0000
1000
0000
,
0010
0010
0010
0000
,
0100
0000
0001
0000
,
1000
1000
1000
0000
,
0100
0000
0010
0000
,
0001
0001
0001
0000
,
0100
0000
0110
0000
,
0000
0000
1000
0000
,
0100
0000
0010
0000
,
0001
0000
0001
0000
,
1000
0000
0001
0000
,
0000
0000
0100
0000
,
0010
0000
0010
0000
,
1000
0000
0100
0000
,
1000
0000
0001
0000
,
0010
0010
0010
0000
,
2002
0000
3003
0000
,
0100
0100
0100
0000
,
0220
0000
0330
0000
,
0001
0001
0001
0000
,
2002
0000
3003
0000
,
0100
0100
0100
0000
,
0220
0000
0330
0000
,
0010
0010
0010
0010
,
0010
0000
0000
0000
;

//---------------dance-single - ----------------
#NOTES:
     dance-single:
     :
     Easy:
     6:
     :
0000
0000
0000
0000
,
0000
0000
0000
0000
,
0000
0000
0000
0000
,
0000
0000
0000
0000
,
0000
0000
0000
0000
,
0010
1000
0002
0003
,
0000
1000
0100
0001
,
0010
0100
2000
3000
,
0000
0010
1000
0100
,
1000
0001
0020
0030
,
0000
0001
0100
0010
,
0100
0001
2000
3000
,
0000
0010
1001
0100
,
0010
1000
0002
0003
,
0000
1000
0100
0010
,
0001
1000
0200
0300
,
0000
1000
0100
0010
,
0001
1000
0002
0103
,
0000
0010
1000
0001
,
0100
0001
0020
0030
,
0000
0001
1010
0000
,
0000
0100
0001
0010
,
0002
0000
1000
0103
,
2000
0000
0001
3100
,
1001
0110
1001
0000
,
0000
0010
1000
0001
,
2000
0000
0010
3100
,
0002
0000
0010
0103
,
1001
0110
1001
0000
,
0000
0010
1000
0001
,
0100
0010
0200
0300
,
0001
0010
2000
3000
,
0100
0100
1000
0001
,
0010
0001
0200
0300
,
0010
0100
0010
1000
,
0010
0100
0002
0003
,
0010
0001
0100
1000
,
0001
1000
0020
0130
,
0010
1000
0100
0010
,
0001
1000
0002
0003
,
0010
0100
1100
0000
,
0000
0001
0010
0001
,
0100
0010
1000
1000
,
0001
0001
1000
0100
,
0010
0100
0010
0001
,
0000
0100
0001
0010
,
0001
0100
0010
1000
,
0100
0100
1000
1000
,
0001
0010
0001
0000
,
0010
0001
0100
1001
,
1001
0010
1000
0001
,
0100
0010
1000
0101
,
0101
0001
0010
0100
,
1000
0001
1000
1010
,
1010
0100
0001
0010
,
0100
1000
0001
0110
,
0110
0001
1100
0000
,
0010
1000
0001
0100
,
0010
0000
0000
0000
;

//---------------dance-single - ----------------
#NOTES:
     dance-single:
     :
     Medium:
     9:
     :
0000
0000
0000
0000
,
0000
0000
0000
0000
,
0000
0000
0000
0000
,
0000
0000
0000
0000
,
0000
0000
0000
0000
,
0010
0000
1000
0100
0001
0000
0010
0000
,
0100
0000
1000
0010
1000
0000
0001
0100
,
0010
0000
1000
0001
0100
0000
0010
0000
,
1000
0000
0100
0010
0001
0000
0100
0010
,
1000
0000
0001
1000
0100
0000
0010
0000
,
0001
0000
1000
0001
0100
0000
0001
0010
,
0100
0000
1000
0010
1000
0000
0001
0000
,
0100
0000
0010
1000
0001
0000
0100
0001
,
0010
0000
0100
1000
0001
0000
0100
0000
,
0110
0000
1000
0100
0010
0000
0001
1000
,
0001
0000
1000
0100
0010
0000
0001
0000
,
1100
0000
1000
0010
1000
0000
0001
1000
,
0100
0000
1000
0001
0010
0000
0100
0000
,
1001
0000
0001
0010
0001
0000
1000
0010
,
0100
0000
0001
0010
0100
0000
1000
0000
,
0010
1000
0010
1000
0200
0000
0300
0000
,
1000
0020
2030
3100
,
0022
0000
0030
0000
0103
0001
1000
0000
,
2020
0000
0030
0000
3001
0100
1000
0000
,
0001
0100
1000
0100
0002
0000
0003
0000
,
0010
0002
2003
3010
,
0202
0000
0300
0000
0013
0001
1000
0000
,
2200
0000
3000
0000
0310
0100
1000
0000
,
0001
0010
1000
0010
0002
0000
0003
0000
,
0110
0002
2003
3200
,
0310
0001
0100
0001
0020
0000
0030
0000
,
0100
1000
0001
1000
0200
0000
0300
0000
,
0020
0000
0032
0000
2003
0000
3001
0100
,
0010
0000
1000
0001
0100
0000
0001
0000
,
0011
0000
0100
0010
0001
0000
0100
0001
,
0010
0000
0100
1000
0010
0000
0100
0000
,
0101
0000
1000
0001
0010
0000
0001
1000
,
0100
0000
0010
0100
1000
0000
0001
0000
,
1010
0000
0001
0100
1000
0000
0010
1000
,
0100
0000
0010
0001
1000
0000
0110
0000
,
0001
1000
0010
1000
0002
0000
0003
0000
,
0010
0002
0203
0320
,
2030
3200
2300
3002
,
0023
0230
0320
0032
,
0103
0001
0010
0001
0100
0010
1000
0000
,
0001
0020
0230
2300
,
3020
2030
3002
0203
,
0302
0023
0032
2003
,
3100
0010
0001
0100
0010
1000
0001
0000
,
0010
0000
0001
0000
1000
0001
0001
1000
,
1000
0000
0010
1000
0100
0000
0010
0001
,
1000
0000
0010
0000
0100
0001
0001
1000
,
1000
0000
0001
1000
0100
0000
0010
0001
,
1000
0000
0001
0000
0010
0100
0100
0010
,
0010
0000
0001
0100
0010
0000
1000
0001
,
0100
0000
0010
0000
1000
0010
0010
0100
,
0100
0000
0001
1000
0001
0100
1000
0000
,
0010
0000
0100
0000
0001
1000
0200
0000
,
0020
0000
0000
0000
,
0000
0000
0000
0000
,
0000
0000
0000
0330
;

//---------------dance-single - ----------------
#NOTES:
     dance-single:
     :
     Hard:
     12:
     :
0000
0000
0000
0000
,
0000
0000
0000
0000
,
0000
0000
0000
0000
,
0000
0000
0000
0000
,
0000
0000
0000
0000
,
0010
0000
0000
0000
1000
0100
0000
0000
0010
0001
0000
0000
0100
0000
0000
0000
,
0001
0000
0010
0100
1000
0010
0100
0001
,
0010
0000
0000
0000
0001
1000
0000
0000
0010
0100
0000
0000
0001
0000
0000
0000
,
0010
0100
1000
0010
0100
1000
0100
0001
,
0010
0000
0000
0000
0001
1000
0000
0000
0100
0010
0000
0000
0100
0000
0000
0000
,
1000
0010
0100
1000
0100
0001
0010
0100
,
1000
0000
0000
0000
0001
0010
0000
0000
0001
0100
0000
0000
0010
0000
0000
0000
,
1000
0001
0001
0100
0020
0000
1030
0100
,
0010
0000
0000
0000
0001
1000
0000
0000
0001
0100
0000
0000
0010
0000
0000
0000
,
2010
0000
3100
1000
0010
0100
0001
1000
,
0010
0000
0000
0000
1000
0100
0000
0000
0010
0001
0000
0000
0100
0000
0000
0000
,
0201
0010
0310
1000
0002
0100
0103
0010
,
1000
0000
0000
0000
0100
1000
0000
0000
0001
0100
0000
0000
0010
0000
0000
0000
,
1001
0100
0010
1000
0100
0001
0100
1000
,
0100
0000
0000
0000
1000
0001
0000
0000
0100
0010
0000
0000
1000
0000
0000
0000
,
0010
0000
0100
0000
0001
0000
1000
0000
0100
0000
0010
0001
0010
0001
0010
0001
,
0010
0000
0001
0100
0010
1000
0100
0010
,
0002
1000
0000
0000
0100
0000
0000
0000
1003
0010
0000
0000
0101
0000
0000
0000
,
0020
0100
0000
0000
1000
0000
0000
0000
0031
0100
0000
0000
0010
1000
0000
0000
,
0001
0100
1000
0100
0001
0100
0010
0000
,
1000
0000
0100
0010
0001
0100
1000
0000
,
0002
1000
0000
0000
0100
0000
0000
0000
0013
0001
0000
0000
1000
0100
0000
0000
,
2000
0001
0000
0000
0100
0000
0000
0000
3010
1000
0000
0000
0001
0100
0000
0000
,
0001
0010
1000
0010
0001
0100
0010
1000
,
0110
0000
0001
0100
0010
1000
0100
0000
,
0010
0001
0000
0000
0100
0010
0000
0000
1000
0001
0000
0000
0100
0000
0000
0000
,
0010
1000
0000
0000
0100
0001
0000
0000
0100
0010
0000
0000
1000
0000
0000
0000
,
2100
0000
3001
0100
0020
1000
1030
0001
,
0010
0000
0000
0000
0001
1000
0000
0000
0010
1000
0000
0000
0100
0000
0000
0000
,
0020
0001
0031
0100
1000
0100
0010
0100
,
0010
0000
0000
0000
1000
0001
0000
0000
1000
0100
0000
0000
0010
0000
0000
0000
,
0002
0100
0103
0010
0001
0010
1000
0010
,
0100
0000
0000
0000
0001
1000
0000
0000
0100
0010
0000
0000
0001
0000
0000
0000
,
2000
0001
3001
0100
1000
0100
0010
1000
,
0010
0000
0000
0000
0100
0001
0000
0000
1000
0100
0000
0000
0010
0000
0000
0000
,
0001
1000
0100
0010
0002
1000
1003
0010
,
0100
0000
0001
0010
0100
0010
0100
1000
,
0010
0001
0010
1000
0100
0001
0100
1000
,
0010
0100
1000
0100
0010
0100
1000
0100
,
0001
0000
0010
0000
1000
0000
0010
0000
0100
0000
0010
0000
0001
0000
1000
0001
,
1000
0000
0010
0100
0001
1000
0100
0010
,
1000
0010
0001
0010
0100
0010
1000
0010
,
0001
0100
0010
0100
0001
0010
1000
0010
,
0100
0000
0001
0000
0100
0000
1000
0000
0010
0000
0100
0001
0100
0001
0100
0001
,
0010
0000
0000
0000
0001
0000
0100
0000
0010
0000
1000
0100
1000
0000
0001
0100
,
0001
0000
0010
0100
1000
0010
1000
0001
,
0100
0000
0000
0000
0010
0000
1000
0000
0001
0000
1000
0100
1000
0000
0001
0100
,
0001
0010
0100
0010
0100
1000
0010
0100
,
0001
0000
0000
0000
1000
0000
0010
0000
0100
0000
0001
0010
0001
0000
1000
0010
,
1000
0100
0001
0100
0010
0100
1000
0001
,
0100
0000
0000
0000
0001
0000
0010
0000
0100
0000
1000
0010
1000
0000
0001
0010
,
0001
0100
0010
0100
0001
1001
0110
0000
,
0010
0000
0000
0000
1000
0001
0000
0000
0010
0001
0000
0000
0200
0000
0000
0000
,
0020
0000
0000
0000
,
0000
0000
0000
0000
,
0000
0000
0000
0330
;
