#TITLE:Unidentified Funky Objects;
#SUBTITLE:;
#ARTIST:yutak;
#TITLETRANSLIT:;
#SUBTITLETRANSLIT:;
#ARTISTTRANSLIT:;
#GENRE:;
#CREDIT:;
#BANNER:Unidentified Funky Objects-bn.png;
#BACKGROUND:Unidentified Funky Objects-bg.png;
#LYRICSPATH:;
#CDTITLE:;
#MUSIC:Unidentified Funky Objects.ogg;
#OFFSET:-0.008000;
#SAMPLESTART:2.832000;
#SAMPLELENGTH:20.000000;
#SELECTABLE:YES;
#DISPLAYBPM:160.000000:170.000000;
#BPMS:0.000000=170.000000
,112.020836=160.000000
,168.000000=170.000000
;
#STOPS:116.000000=4.125000
;
#BGCHANGES:;
#KEYSOUNDS:;
#ATTACKS:;

//---------------dance-single - ----------------
#NOTES:
     dance-single:
     :
     Hard:
     13:
     0.575522,0.660588,0.325642,0.530331,0.325642,433.000000,398.000000,35.000000,57.000000,0.000000,0.000000,0.575522,0.660588,0.325642,0.530331,0.325642,433.000000,398.000000,35.000000,57.000000,0.000000,0.000000:
0000
0000
0000
0000
,
0000
0000
0000
0000
,
1001
0000
0100
0001
0010
0100
0010
1000
,
0010
0001
0100
0010
0100
1000
0100
0001
,
1001
0000
0100
0001
0010
0100
0010
1000
,
0010
0001
0100
0010
0100
1000
0100
0001
,
0011
0000
0100
1000
0010
0100
0010
0001
,
0010
1000
0100
0010
0100
0001
0100
1000
,
1100
0000
0001
0100
0010
0001
0010
1000
,
0010
0100
0001
0010
1000
0010
0100
0010
,
0110
0000
0001
0100
0010
1000
0100
0010
,
0001
0000
0100
0000
0010
0000
0100
0000
1000
0000
0100
0000
0001
1000
0001
1000
,
0001
0000
0100
0001
1000
0100
0001
0100
,
0010
0000
0100
0000
1000
0000
0010
0000
0100
0000
0001
0000
1000
0010
1000
0010
,
1000
0000
0100
0010
0001
0100
1000
0100
,
0101
0000
0001
1000
0001
0010
0100
1000
,
0000
0000
0000
0000
0001
0000
0000
0001
0100
0000
0000
0100
0010
0000
0000
0010
,
1000
0000
0000
1000
0100
0000
0000
0100
0010
0000
0000
0010
0001
0000
0000
0001
,
0200
0010
0302
0010
,
2003
0000
0001
0000
0010
0010
0010
0010
,
3200
0000
0000
0000
0001
0000
0000
0000
1000
0000
0000
0000
0310
0100
0000
0100
,
0020
0000
0001
0000
0000
0000
0031
1000
0001
0000
0100
0000
0010
1000
0010
1000
,
0020
0100
2030
0100
,
3002
0000
0010
0000
1000
1000
1000
1000
,
0203
0000
0301
0010
0001
0000
1000
0000
,
0010
0000
1100
0000
0110
0000
0011
0000
0101
0000
1010
0000
,
1001
0000
0100
0010
1000
1000
0001
0001
,
1000
1000
0100
0100
0010
0010
0001
0001
,
0200
0000
0320
0000
,
2030
0000
0000
0000
3001
0000
0100
0000
0010
0000
1000
0000
0100
0010
0100
0010
,
0200
0000
0000
0000
1300
0000
0001
0000
0000
0000
0100
0000
0001
0010
0001
0010
,
0002
0000
0000
0000
2003
0000
0000
0000
3000
0000
0010
0000
0100
0001
0100
0001
,
0200
0010
0000
0301
1010
0000
1000
0001
,
2000
0000
0100
0000
0000
0000
3001
1000
0002
0000
0100
0000
0103
0000
0001
0010
,
0002
0000
0000
1003
0000
0010
0100
0001
,
1000
0000
0000
2100
0000
0000
0001
0000
0000
0000
3001
0000
0100
0010
0100
0000
,
0002
0000
1003
0100
0020
0000
0001
0000
,
0230
0000
1000
0000
0000
0000
0010
0000
0310
0000
0001
0000
1000
0010
1000
0010
,
1000
0100
0002
0000
0000
0000
0023
0000
,
0230
0000
0000
0000
,
2300
0000
0002
3003
,
0022
0033
2200
3300
,
2002
0003
0200
3300
,
0220
0030
0001
1300
,
2002
3000
0023
0230
,
2300
0000
3002
0000
1003
0010
0100
0000
,
0101
0000
0000
0001
0100
0001
0100
0000
0000
0010
1000
0010
,
1000
0000
0000
0001
0010
0001
0010
0000
0000
0100
1000
0100
,
2000
3002
0023
0032
,
0203
0000
0000
0310
,
0110
0000
1000
0101
0000
0001
0001
1000
,
0100
0010
0001
0100
0001
0010
1000
0000
,
1100
0000
0000
0000
0001
0000
1010
0000
0000
0000
0100
0000
0001
1000
0001
1000
,
0001
0010
0001
0100
1000
0100
0001
1000
,
0110
0000
0100
0001
0100
1000
0100
0001
,
0010
0000
0100
0001
0100
1000
0010
0100
,
0001
0000
1000
0010
0100
0001
1000
0001
,
0000
0000
0011
0000
0110
0000
1100
0000
0101
0000
1100
0000
,
0002
0000
0010
0000
0013
0000
2000
0000
0100
0000
3100
0000
,
0020
0000
0000
0031
1000
0001
0100
0000
0100
0000
0100
0000
,
0020
0000
1000
0000
1030
0000
0002
0000
0100
0000
0103
0000
,
2000
0000
0001
0000
3001
0000
0020
0000
0100
0000
0130
0000
,
1002
0100
1000
0100
,
1003
0000
0010
0000
1000
0000
0100
0000
0010
0000
0001
0000
,
0100
0000
0100
0000
0100
0000
0010
0000
1000
0000
0001
0000
,
0010
0000
0011
0000
,
1100
0000
0000
0101
0000
0000
1100
0000
,
0000
0001
0000
0000
,
0200
0000
0000
0000
,
0000
0000
0000
0000
,
0000
0000
0000
0000
,
0300
0000
0000
0000
;

//---------------dance-single - ----------------
#NOTES:
     dance-single:
     :
     Medium:
     10:
     0.439949,0.528470,0.297730,0.632676,0.125605,331.000000,299.000000,32.000000,68.000000,0.000000,0.000000,0.439949,0.528470,0.297730,0.632676,0.125605,331.000000,299.000000,32.000000,68.000000,0.000000,0.000000:
0000
0000
0000
0000
,
0000
0000
0000
0000
,
1001
0000
0100
0000
0001
0010
0001
0100
,
0010
0000
1000
0001
0010
0000
0100
0000
,
1001
0000
0100
0000
0001
0010
0001
0000
,
0100
0010
1000
0000
0001
1000
0100
0000
,
0110
0000
0001
0000
1000
0001
0010
0100
,
1000
0000
0010
0100
0001
0000
1000
0000
,
0110
0000
0001
0010
0100
0000
1000
0000
,
0010
1000
0100
0000
0010
0001
0100
0000
,
0101
0000
1000
0000
0001
0010
0001
0100
,
0010
0000
1000
0001
0010
0000
0110
0000
,
1001
0000
0010
0000
0100
0001
0010
0100
,
1000
0000
0001
1000
0010
0000
0101
0000
,
1100
0000
0001
0010
0100
0000
1000
0001
,
0100
0000
0010
1000
0100
0000
0010
0001
,
0000
0011
0110
1100
,
1010
0101
1100
0101
,
0020
0031
2000
3001
,
0200
0000
0310
0000
0100
0001
0100
0001
,
2000
0000
3010
1000
0000
0000
0100
1000
,
0002
0000
0003
1000
0001
0010
0100
0000
,
2000
3010
0200
0301
,
0020
0000
0130
0000
1000
0001
1000
0001
,
0200
0000
0301
1000
0000
0000
0010
0000
,
1000
0000
0100
0000
0010
0000
0001
0000
0100
0000
0010
0000
,
2000
0000
3010
0100
0002
0000
1003
0001
,
0020
0000
0230
0000
1300
0001
1000
0001
,
0200
0000
0320
0000
,
2030
3002
0023
0230
,
2300
0000
0000
0000
0000
0000
3010
1000
,
0002
0000
0203
0000
0000
0000
0310
1000
,
0200
0000
0300
0010
0001
0000
1000
0001
,
2000
0000
3000
0010
1000
0001
0100
0001
,
0020
0000
0000
0130
0000
1000
0001
1000
,
0010
0000
0000
0200
0000
0000
0001
0000
0000
0000
0301
0000
1000
0000
0000
0000
,
0020
0000
0030
1000
0002
0000
0013
0100
,
2000
0010
0001
3010
,
0001
0100
2000
0000
0000
0000
3010
0000
,
2000
0000
0000
3000
,
0200
0300
0020
0030
,
0022
0033
2200
3300
,
2002
0003
0200
3300
,
0220
0330
0001
1000
,
2002
3003
0020
0230
,
0302
0023
0230
2300
,
3020
1030
0002
0013
,
0002
0000
0000
0103
0000
0000
0020
0000
0000
1030
0001
1000
,
0001
0011
1100
0101
,
2200
0000
0300
3001
,
1001
0000
0000
0110
0000
0000
1000
0001
,
0010
0000
0001
0100
1000
0000
0010
0000
,
0110
0000
1000
0001
0000
0000
0010
0001
,
0100
0002
2003
3200
,
0310
0000
0001
0100
0001
0000
1000
0100
,
1000
0000
0010
0000
1000
0001
1000
0001
,
0010
0000
0100
0000
1000
0010
1000
0001
,
0000
0000
0010
0000
0010
0000
0010
0000
0010
0000
0010
0000
,
0020
0000
0000
0031
0000
0000
0100
0000
0010
0000
1000
0000
,
0002
0000
0000
2003
0000
0000
3100
0000
0010
0000
0001
0000
,
2000
0000
0000
3000
0001
0000
0020
0000
0000
0030
0100
0000
,
1000
0000
1000
0000
1000
0000
0001
0000
0001
0000
0001
0000
,
0200
0001
1000
0001
,
0310
0000
1000
0000
0100
0000
1000
0000
0001
0000
0100
0000
,
0002
0000
0000
0023
0000
0000
0031
0000
1000
0000
0100
0000
,
0000
0000
1001
0000
,
1100
0000
0000
0101
0000
0000
1100
0000
,
0000
0001
0000
0000
,
0200
0000
0000
0000
,
0000
0000
0000
0000
,
0000
0000
0000
0000
,
0300
0000
0000
0000
;

//---------------dance-single - ----------------
#NOTES:
     dance-single:
     :
     Easy:
     8:
     0.340263,0.528470,0.465203,0.660588,0.004652,256.000000,206.000000,50.000000,71.000000,0.000000,0.000000,0.340263,0.528470,0.465203,0.660588,0.004652,256.000000,206.000000,50.000000,71.000000,0.000000,0.000000:
0000
0000
0000
0000
,
0000
0000
0000
0000
,
1001
0000
0000
0010
0000
0000
0100
0001
,
0100
0000
0000
0110
0000
0000
0000
0000
,
1001
0000
0000
1000
0000
0000
0001
0010
,
0001
0000
0000
0110
0000
0000
1000
0000
,
1001
0000
0000
0010
0000
0000
1000
0100
,
1000
0000
0000
0110
0000
0000
0000
0000
,
1001
0000
0000
0001
0000
0000
0100
0010
,
0100
0000
0000
0110
0000
0000
1000
0000
,
1100
0000
0000
0001
0000
0000
0100
0010
,
0100
0000
0000
0101
0000
0000
1000
0001
,
1000
0000
0000
1010
0000
0000
0001
0010
,
0001
0000
0000
0011
0000
0000
0100
0000
,
0110
0000
0000
1000
0000
0000
0001
0010
,
0001
0000
0000
0011
0000
0000
0000
0000
,
0000
2000
3200
0320
,
0032
2003
3002
2003
,
3020
0000
2030
0000
,
3200
0000
0000
0000
1300
0001
1000
0001
,
2000
0000
0000
0000
3000
0000
0010
0100
,
0002
0000
1003
0000
,
0002
0000
0023
0000
,
0230
0000
2300
3002
,
2003
0000
0010
0010
,
3010
1010
0101
1100
,
1002
0103
2001
3100
,
1100
0101
1100
0101
,
0200
0000
0320
0000
,
2030
0001
0100
3001
,
0022
0000
0000
0033
0000
1000
0001
1000
,
0002
0200
0003
0310
,
2020
0000
3030
0000
1001
0000
0001
0010
,
0200
0000
0300
1000
0002
0000
0003
0000
,
0220
0000
0000
0330
0000
0100
0001
0100
,
0002
0000
0000
2000
0000
0000
0000
0000
0000
0000
0000
0000
3003
0000
0000
0000
,
2200
3300
0202
0303
,
2002
0000
0000
3003
,
1000
0001
0100
0000
0000
0000
0010
0000
,
2000
0000
0000
3000
,
0002
0000
0013
0000
,
0202
0303
2000
3000
,
2200
3300
0020
0000
,
0000
0030
0200
0302
,
2003
0000
3020
2030
,
3200
0320
0032
2003
,
3020
0130
0200
0301
,
0002
1003
2000
3100
,
1100
0110
0011
0101
,
2002
0000
0000
3003
,
1100
0000
0000
0001
0000
0000
1000
0010
,
1000
0000
0000
0101
0000
0000
0010
0000
,
1001
0000
0100
0010
0000
0000
0000
0000
,
1010
0000
0000
1100
0000
0000
0001
0000
,
0110
0001
0100
0001
,
1000
0010
1000
0100
,
0001
1000
0010
1000
,
0000
1100
0101
1100
,
0002
0003
0010
0001
,
0200
0310
1000
1000
,
0001
0001
1000
1000
,
0010
1000
0010
0100
,
0002
0000
2003
0000
,
3200
0000
0320
0000
,
0031
0100
0010
1000
,
0100
0000
1001
0000
,
1100
0000
0000
0101
0000
0000
1100
0000
,
0000
0001
0000
0000
,
0200
0000
0000
0000
,
0000
0000
0000
0000
,
0000
0000
0000
0000
,
0300
0000
0000
0000
;

//---------------dance-single - ----------------
#NOTES:
     dance-single:
     :
     Beginner:
     5:
     0.191398,0.297265,0.167473,0.046520,0.000000,144.000000,126.000000,18.000000,5.000000,0.000000,0.000000,0.191398,0.297265,0.167473,0.046520,0.000000,144.000000,126.000000,18.000000,5.000000,0.000000,0.000000:
// measure 0
0000
0000
0000
0000
,  // measure 1
0000
0000
0000
0000
,  // measure 2
1001
0000
0000
0000
,  // measure 3
0010
0000
0100
0000
,  // measure 4
0110
0000
0000
0000
,  // measure 5
0001
0000
1000
0000
,  // measure 6
1001
0000
0000
0000
,  // measure 7
0100
0000
0010
0000
,  // measure 8
0110
0000
0000
0000
,  // measure 9
1000
0000
0001
0000
,  // measure 10
0010
0000
0001
0000
,  // measure 11
0100
0000
0010
0000
,  // measure 12
1000
0000
0001
0000
,  // measure 13
1000
0000
0100
0000
,  // measure 14
0110
0000
0001
0000
,  // measure 15
1001
0000
1000
0000
,  // measure 16
0000
0010
0010
0010
,  // measure 17
0010
0010
0010
0010
,  // measure 18
0010
0000
1000
0000
,  // measure 19
0100
0000
0000
1000
,  // measure 20
1000
0000
0000
0001
,  // measure 21
0001
0000
0000
0000
,  // measure 22
0010
0000
0001
0000
,  // measure 23
0100
0000
0010
0010
,  // measure 24
0010
0000
0000
0000
,  // measure 25
1000
0000
0001
0000
,  // measure 26
1001
0000
0110
0000
,  // measure 27
1001
0000
0110
0000
,  // measure 28
0100
0000
0010
0000
,  // measure 29
1000
0000
0000
0000
,  // measure 30
0002
0000
0003
0000
,  // measure 31
1000
1000
0000
0010
,  // measure 32
0010
0000
0000
0100
,  // measure 33
0100
0000
0001
0000
,  // measure 34
0020
0000
0030
0000
,  // measure 35
0100
0100
0000
0000
,  // measure 36
1000
0000
1000
0000
,  // measure 37
2000
0000
3000
0000
,  // measure 38
0001
0001
0000
0000
,  // measure 39
1000
0000
0000
0000
,  // measure 40
0010
0000
1000
0000
,  // measure 41
0010
0000
0100
0000
,  // measure 42
0001
0000
2000
0000
,  // measure 43
3000
0000
0100
0100
,  // measure 44
0100
0000
0010
0000
,  // measure 45
0100
0000
1000
0000
,  // measure 46
1001
0000
1001
0000
,  // measure 47
0110
0000
0110
0000
,  // measure 48
0001
0001
0001
0001
,  // measure 49
0001
0000
0000
0000
,  // measure 50
1001
0000
0000
0000
,  // measure 51
0100
0100
0100
0000
,  // measure 52
0110
0000
0000
0000
,  // measure 53
1000
1000
1000
0000
,  // measure 54
0001
0000
0001
0000
,  // measure 55
1000
0000
1000
0000
,  // measure 56
0010
0000
1000
0000
,  // measure 57
0000
0100
0100
0100
,  // measure 58
0100
0000
0010
0000
,  // measure 59
0100
0000
1000
0000
,  // measure 60
0010
0000
0100
0000
,  // measure 61
0001
0000
0010
0000
,  // measure 62
1001
0000
0000
0000
,  // measure 63
0110
0000
0000
0000
,  // measure 64
1000
0000
0100
0000
,  // measure 65
0000
0000
0010
0000
,  // measure 66
0001
0000
1000
1000
,  // measure 67
0000
0001
0000
0000
,  // measure 68
0200
0000
0000
0000
,  // measure 69
0000
0000
0000
0000
,  // measure 70
0000
0000
0000
0000
,  // measure 71
0300
0000
0000
0000
;
