#TITLE:Underground Mozart;
#SUBTITLE:;
#ARTIST:From Eine Kleine Nachtmusik;
#MUSIC:Underground Mozart.ogg;
#BANNER:;
#BACKGROUND:Underground Mozart-bg.png;
#LYRICSPATH:;
#CDTITLE:;
#SAMPLESTART:60.020000;
#SAMPLELENGTH:20.000000;
#OFFSET:-0.055979;
#BPMS:0.000000=168.000000;
#STOPS:;
#TIMESIGNATURES:;
#BGCHANGES:;
#FGCHANGES:;
#ATTACKS:;
#SPEEDS:;
#SCROLLS:;
#DISPLAYBPM:168.000000;
#KEYSOUNDS:;

//---------------dance-single - ---------------
#NOTES:
     dance-single:
     :
     Beginner:
     4:
     0.182975,0.305391,0.133818,0.172051,0.000000,134.000000,120.000000,14.000000,18.000000,0.000000,0.000000,0.182975,0.305391,0.133818,0.172051,0.000000,134.000000,120.000000,14.000000,18.000000,0.000000,0.000000:
// measure 0
0000
0000
0000
0000
,  // measure 1
0000
0000
0000
0000
,  // measure 2
0000
0000
0000
0000
,  // measure 3
0000
0000
0000
0000
,  // measure 4
1001
0000
0110
0000
,  // measure 5
1000
1000
1000
0000
,  // measure 6
1001
0000
0110
0000
,  // measure 7
0001
0001
0001
0000
,  // measure 8
0010
0020
0000
0030
,  // measure 9
0001
0000
1000
0000
,  // measure 10
0100
0200
0000
0300
,  // measure 11
1000
0000
0001
0000
,  // measure 12
1000
2000
0000
3000
,  // measure 13
0010
0000
0100
0000
,  // measure 14
0001
0002
0000
0003
,  // measure 15
0010
0000
0100
0000
,  // measure 16
1000
2000
0000
3000
,  // measure 17
0001
0000
0100
0000
,  // measure 18
0010
0020
0000
0030
,  // measure 19
1000
0000
0001
0000
,  // measure 20
0100
0200
0000
0300
,  // measure 21
0010
0000
1000
0000
,  // measure 22
0001
0002
0000
0003
,  // measure 23
0100
0100
0100
0000
,  // measure 24
0010
0000
0000
0000
,  // measure 25
0010
0000
0000
0000
,  // measure 26
1000
0000
0000
0000
,  // measure 27
0001
0000
0000
0000
,  // measure 28
1000
0000
0000
0000
,  // measure 29
0100
0000
0000
0000
,  // measure 30
1000
0000
0000
0000
,  // measure 31
0010
0000
0000
0000
,  // measure 32
0100
0000
0000
0000
,  // measure 33
0001
0000
0000
0000
,  // measure 34
0010
0000
0000
0000
,  // measure 35
0010
0000
0000
0000
,  // measure 36
0001
0000
0000
0000
,  // measure 37
1000
0000
0000
0000
,  // measure 38
1001
0000
0110
0000
,  // measure 39
0010
0010
0010
0000
,  // measure 40
1001
0000
0110
0000
,  // measure 41
0100
0100
0100
0000
,  // measure 42
0001
2000
0000
3000
,  // measure 43
0010
0000
0100
0000
,  // measure 44
0001
0020
0000
0030
,  // measure 45
0100
0000
1000
0000
,  // measure 46
0010
0200
0000
0300
,  // measure 47
0001
0000
1000
0000
,  // measure 48
0100
2000
0000
3000
,  // measure 49
0001
0000
0010
0000
,  // measure 50
0001
0200
0000
0300
,  // measure 51
0010
0000
1000
0000
,  // measure 52
1000
0200
0000
0300
,  // measure 53
0010
0000
0001
0000
,  // measure 54
1000
0002
0000
0003
,  // measure 55
0010
0000
0100
0000
,  // measure 56
1000
1000
0000
0001
,  // measure 57
2000
0000
0000
0000
,  // measure 58
0010
0000
0000
0000
,  // measure 59
0001
0000
0000
3000
,  // measure 60
1001
0000
0000
0010
,  // measure 61
0010
0000
1000
0000
,  // measure 62
0100
0100
0100
0000
,  // measure 63
0010
0000
0001
0000
,  // measure 64
0100
0100
0100
0000
,  // measure 65
0110
0000
1001
0000
,  // measure 66
0110
0000
1001
0000
,  // measure 67
1000
0000
0001
0000
,  // measure 68
0220
0000
0000
0000
,  // measure 69
0000
0000
0000
0000
,  // measure 70
0000
0000
0000
0000
,  // measure 71
0330
0000
0000
0000
;

//---------------dance-single - ---------------
#NOTES:
     dance-single:
     :
     Easy:
     7:
     0.000000,0.000000,0.000000,0.000000,0.000000,0.000000,0.000000,0.000000,0.000000,0.000000,0.000000,0.000000,0.000000,0.000000,0.000000,0.000000,0.000000,0.000000,0.000000,0.000000,0.000000,0.000000:
// measure 0
0000
0000
0000
0000
,  // measure 1
0000
0000
0000
0000
,  // measure 2
0000
0000
0000
0000
,  // measure 3
0000
0000
0000
0000
,  // measure 4
1001
0000
0110
0000
,  // measure 5
1000
0100
0001
0000
,  // measure 6
0011
0000
1100
0000
,  // measure 7
1001
0000
0000
0110
0000
0000
1001
0000
,  // measure 8
0020
2000
0000
3030
,  // measure 9
0000
0002
0000
0000
0010
0000
0103
0000
,  // measure 10
1000
0001
2000
0000
0000
0000
3000
0000
,  // measure 11
0000
0020
0000
0000
1000
0000
0130
0000
,  // measure 12
1000
0001
2000
0000
0000
0000
3000
0000
,  // measure 13
0000
0002
0000
0000
0100
0000
1003
0000
,  // measure 14
0010
1000
0020
0000
0100
0000
0001
0000
,  // measure 15
1030
0000
0000
1010
0000
0000
0101
0000
,  // measure 16
0002
0200
0000
0303
,  // measure 17
0000
0020
0000
0000
0001
0000
1030
0000
,  // measure 18
0010
0100
0020
0000
0000
0000
0030
0000
,  // measure 19
0000
2000
0000
0000
0100
0000
3001
0000
,  // measure 20
1000
0010
2000
0000
0000
0000
3000
0000
,  // measure 21
0000
0002
0000
0000
0100
0000
0013
0000
,  // measure 22
0100
0001
0200
0000
0000
0000
0300
0000
,  // measure 23
0001
1000
0001
1000
0002
0000
0003
0000
,  // measure 24
0110
0001
1000
0001
,  // measure 25
0010
0100
1000
0010
,  // measure 26
1000
0100
0010
0001
,  // measure 27
0100
0001
0010
1000
,  // measure 28
0100
0010
0100
1000
,  // measure 29
0010
1000
0100
0001
,  // measure 30
1000
0001
0010
0100
,  // measure 31
0010
0001
0100
1000
,  // measure 32
0010
1000
0010
0100
,  // measure 33
0001
0010
0001
0100
,  // measure 34
0001
1000
0100
0010
,  // measure 35
0001
1000
0001
1000
,  // measure 36
0010
1000
0100
0010
,  // measure 37
0001
0100
0001
0010
,  // measure 38
1001
0000
0110
0000
,  // measure 39
1000
0010
0001
0000
,  // measure 40
0011
0000
1100
0000
,  // measure 41
1001
0000
0000
0110
0000
0000
1001
0000
,  // measure 42
2000
3002
0010
0103
,  // measure 43
1000
0001
1000
0000
0010
0000
0010
0000
,  // measure 44
0100
0001
0200
0000
1000
0000
0301
0000
,  // measure 45
1000
0100
1000
0000
0001
0000
0001
0000
,  // measure 46
0010
0001
0020
0000
0100
0000
1030
0000
,  // measure 47
0010
0100
0010
0000
0001
0000
1000
0000
,  // measure 48
0001
0100
0001
0100
0001
0000
1000
0000
,  // measure 49
1100
0000
0000
0101
0000
0000
1100
0000
,  // measure 50
2000
3020
0100
1030
,  // measure 51
0001
0010
0001
0000
0100
0000
1000
0000
,  // measure 52
0001
1000
0002
0000
0010
0000
0103
0000
,  // measure 53
0001
1000
0001
0000
0100
0000
0100
0000
,  // measure 54
0010
1000
0010
0000
0100
0000
0001
0000
,  // measure 55
1000
0100
1000
0000
0001
0000
1000
0000
,  // measure 56
0010
1000
0020
0000
0030
0000
0110
0000
,  // measure 57
1001
0010
1000
0100
,  // measure 58
1000
0001
1000
0010
,  // measure 59
0100
0001
0010
0100
,  // measure 60
1100
0000
0000
0101
0000
0000
1100
0000
,  // measure 61
1001
0010
1000
0001
,  // measure 62
1000
0100
0100
0110
,  // measure 63
1001
0001
0010
0001
,  // measure 64
0100
0010
0010
1010
,  // measure 65
0101
0001
1100
1000
,  // measure 66
1010
0011
1010
0011
,  // measure 67
1001
0010
1001
0100
,  // measure 68
0220
0000
0000
0000
,  // measure 69
0000
0000
0000
0000
,  // measure 70
0000
0000
0000
0000
,  // measure 71
0330
0000
0000
0000
;

//---------------dance-single - ---------------
#NOTES:
     dance-single:
     :
     Medium:
     11:
     0.000000,0.000000,0.000000,0.000000,0.000000,0.000000,0.000000,0.000000,0.000000,0.000000,0.000000,0.000000,0.000000,0.000000,0.000000,0.000000,0.000000,0.000000,0.000000,0.000000,0.000000,0.000000:
// measure 0
0000
0000
0000
0000
,  // measure 1
0000
0000
0000
0000
,  // measure 2
0000
0000
0000
0000
,  // measure 3
0000
0000
0000
0000
,  // measure 4
1010
0000
0000
0001
0001
0000
0000
1000
,  // measure 5
1000
0001
1000
0001
0100
0000
0000
0000
,  // measure 6
0101
0000
0000
1000
1000
0000
0000
0001
,  // measure 7
0001
1000
0001
1000
0010
0000
0110
0000
,  // measure 8
0002
2003
0010
0100
,  // measure 9
3010
2000
0001
0000
0100
0000
3100
0000
,  // measure 10
1000
0001
0020
0000
0031
0100
1000
0000
,  // measure 11
0010
1000
0100
0000
1100
0000
0101
0000
,  // measure 12
0001
0010
0200
0000
1300
0100
1000
0010
,  // measure 13
0100
0001
2000
0000
0001
0000
3001
0000
,  // measure 14
1000
0001
0020
0000
0100
0000
0031
0000
,  // measure 15
0011
0000
0001
0100
0010
1000
0001
0000
,  // measure 16
0110
0000
1001
0000
0010
1000
0001
1000
,  // measure 17
0100
0010
0002
0000
0103
0010
1000
0000
,  // measure 18
0001
0010
0001
0000
0100
0010
1000
0001
,  // measure 19
0010
0100
1000
0000
0001
0010
1000
0000
,  // measure 20
0100
1000
0001
0000
0010
0001
0100
0000
,  // measure 21
0001
0010
0100
1000
0100
0010
0001
0000
,  // measure 22
1000
0001
1000
0010
0100
0001
1000
0000
,  // measure 23
0001
0100
0001
0100
0001
0100
0010
0000
,  // measure 24
0000
1000
0001
0010
0010
0000
0001
0100
,  // measure 25
0100
0000
0010
1000
1000
0000
0100
0010
,  // measure 26
0001
0000
0100
0001
1000
0000
0001
0010
,  // measure 27
0100
0000
1000
0001
1000
0010
0100
0001
,  // measure 28
0010
0000
0001
0100
1000
0000
0010
0000
,  // measure 29
0100
0000
0001
1000
0100
0010
0100
1000
,  // measure 30
0001
0000
1000
0010
1000
0000
0100
0001
,  // measure 31
0001
0000
0010
0001
0010
0100
1000
0001
,  // measure 32
0100
0010
0000
0010
0000
0010
1000
0001
,  // measure 33
0000
1000
0100
1000
0100
0010
0001
0100
,  // measure 34
0001
0000
1000
0001
0000
0011
0000
1100
,  // measure 35
0000
0001
0100
0001
1000
0100
0010
0001
,  // measure 36
0100
0010
0100
0001
0000
1000
0100
1000
,  // measure 37
0000
0001
0010
0100
0010
0100
0010
0100
,  // measure 38
1000
0001
0000
0100
0001
0100
0000
0010
,  // measure 39
1000
0001
1000
0100
0020
0000
0000
0000
,  // measure 40
0032
0000
1003
0100
0020
0000
0031
1000
,  // measure 41
0001
0100
0010
1000
0100
0010
0001
0000
,  // measure 42
2001
0000
3020
0000
1030
0100
0001
0000
,  // measure 43
0010
0002
0100
0000
1000
0000
0103
0000
,  // measure 44
0010
1000
0002
0000
0013
0001
0100
0000
,  // measure 45
0010
2000
0001
0000
0100
0000
3001
0000
,  // measure 46
1000
0100
0010
0000
0001
0100
0001
0010
,  // measure 47
0100
1000
0001
0000
0100
0001
0010
0000
,  // measure 48
0001
1000
0010
1000
0100
0010
0001
0000
,  // measure 49
1010
0000
0100
0001
1000
0001
0010
0000
,  // measure 50
1100
0000
0101
0000
0010
1000
0100
0010
,  // measure 51
0001
0100
0010
0100
0001
0100
0010
0000
,  // measure 52
1000
0001
2000
0000
3100
0010
0001
0000
,  // measure 53
1000
0001
1000
0010
0100
0001
0010
0000
,  // measure 54
0001
1000
0200
0000
1300
0100
0010
0001
,  // measure 55
0100
0010
1000
0000
1010
0000
0110
0000
,  // measure 56
0001
0010
0002
0000
0103
0010
2000
0000
,  // measure 57
3100
0000
1000
0001
1000
0010
0100
0001
,  // measure 58
0010
0000
0001
0100
0010
1000
0100
0010
,  // measure 59
0100
0000
1000
0001
1000
0010
0100
0000
,  // measure 60
0110
0000
0001
0100
0000
0010
1000
0000
,  // measure 61
1001
0000
0010
1000
0100
0010
0001
0100
,  // measure 62
0001
1000
0001
1000
0001
0000
0110
0000
,  // measure 63
1001
0000
0100
0010
0100
0001
1000
0100
,  // measure 64
0010
0001
1000
0001
0100
0000
1010
0000
,  // measure 65
0011
0101
1010
1100
,  // measure 66
0001
0010
0001
0100
0010
1000
0100
1000
,  // measure 67
0001
0000
1001
0000
1000
0100
0001
0000
,  // measure 68
0220
0000
0000
0000
,  // measure 69
0000
0000
0000
0000
,  // measure 70
0000
0000
0000
0000
,  // measure 71
0330
0000
0000
0000
;

//---------------dance-single - ---------------
#NOTES:
     dance-single:
     :
     Hard:
     14:
     0.000000,0.000000,0.000000,0.000000,0.000000,0.000000,0.000000,0.000000,0.000000,0.000000,0.000000,0.000000,0.000000,0.000000,0.000000,0.000000,0.000000,0.000000,0.000000,0.000000,0.000000,0.000000:
// measure 0
0000
0000
0000
0000
,  // measure 1
0000
0000
0000
0000
,  // measure 2
0000
0000
0000
0000
,  // measure 3
0000
0000
0000
0000
,  // measure 4
1010
0000
0100
0001
0011
0000
1000
0010
,  // measure 5
0100
0100
0010
0010
1000
1000
0001
0001
,  // measure 6
0101
0000
0010
1000
1100
0000
0001
0100
,  // measure 7
0110
0000
0010
0000
1000
0000
1001
0000
0001
0000
0100
0000
0001
1000
0001
1000
,  // measure 8
0001
0000
2010
0000
0001
0001
0001
0000
,  // measure 9
3100
0002
0010
0000
1000
0000
1003
0001
,  // measure 10
1000
0100
1000
0000
1002
0000
0000
0000
0010
0000
0010
0000
0010
0000
0000
0000
,  // measure 11
1003
0200
0001
0000
0301
0100
1000
0010
,  // measure 12
0200
0001
0302
0000
0013
0001
0100
0010
,  // measure 13
1000
0200
0001
0000
0301
0100
1000
0010
,  // measure 14
1000
0001
1000
0000
0120
0000
0000
0000
1030
0000
0100
0000
1000
0000
0001
0000
,  // measure 15
0011
0001
1000
1100
0100
0010
1001
0000
,  // measure 16
0002
1000
2003
0000
3010
1000
0100
0010
,  // measure 17
0001
0200
1300
0100
0001
0010
1000
0100
,  // measure 18
0010
0001
0010
0000
0012
0000
0000
0000
0103
0000
0010
0000
0100
0000
0001
0000
,  // measure 19
1000
0020
0031
0010
1000
0100
0010
0001
,  // measure 20
0100
0100
0200
0000
0301
0010
0001
0100
,  // measure 21
1000
0100
0001
0010
0001
0100
1000
0001
,  // measure 22
1000
0100
1000
0000
1020
0000
0000
0000
0130
0000
0001
0000
0010
0000
0100
0000
,  // measure 23
1000
0001
1000
0001
1000
0001
1000
0001
0000
0000
0100
0000
1001
0000
0000
0000
,  // measure 24
0110
0010
0010
0100
0001
0001
1000
1000
,  // measure 25
0001
0001
0010
0010
0100
0100
1000
1000
,  // measure 26
0010
0010
1000
1000
0100
0100
0010
0010
,  // measure 27
0001
0000
0001
0000
1000
0000
0001
0100
0001
0100
0001
0000
0010
0000
0010
0000
,  // measure 28
0100
1000
0010
1000
0001
0010
0001
0100
,  // measure 29
1000
0100
0001
0100
0010
1000
0100
0010
,  // measure 30
0001
0010
1000
0010
0001
0100
0010
1000
,  // measure 31
0100
0000
0010
0000
0001
0000
1000
0010
1000
0010
1000
0000
0001
0000
0100
0000
,  // measure 32
0001
0010
0001
0100
0010
1000
0100
0010
,  // measure 33
0100
0010
0100
1000
0010
0001
0010
1000
,  // measure 34
0100
0001
0100
0010
0100
0001
0100
1000
,  // measure 35
0010
0100
0010
1000
0100
0001
0100
1000
,  // measure 36
0010
0000
1000
0001
1000
0000
0100
0000
0001
0000
0100
0000
1000
0000
0010
0000
,  // measure 37
0100
0000
0001
0000
1000
0000
0010
0100
0010
0000
1000
0000
0001
0000
0010
0000
,  // measure 38
0100
1000
0010
1000
0100
1000
0010
1000
,  // measure 39
0001
0000
0100
0000
0010
0000
1000
0001
2000
0000
0100
0000
3100
0000
0010
0000
,  // measure 40
0001
0000
0100
0000
0010
0000
1000
0100
1000
0100
1000
0000
0001
0000
1000
0000
,  // measure 41
1100
0100
0010
0011
0001
1000
0110
0000
,  // measure 42
0002
0000
2003
0000
3010
1000
0100
0010
,  // measure 43
0001
0100
0010
0100
1000
0100
0001
0010
,  // measure 44
0100
1000
0001
0000
0200
0000
0000
0000
0310
0000
0100
0000
0001
0000
1000
0000
,  // measure 45
0100
0001
0100
0010
0100
1000
0001
0100
,  // measure 46
0010
1000
2000
0000
3100
1000
0001
0010
,  // measure 47
0001
0100
0010
0100
1000
0100
0001
1000
,  // measure 48
0001
0010
0001
0010
0001
0010
0001
0010
0001
0000
1000
0000
0001
0000
0000
0000
,  // measure 49
0101
0010
1000
1100
0001
0100
1001
0000
,  // measure 50
1100
0000
0011
0000
0010
1000
0010
0001
,  // measure 51
0100
1000
0100
0001
0100
0010
1000
0001
,  // measure 52
1000
0100
0010
0000
0001
0000
0100
0000
0010
0000
0100
0000
1000
0000
0100
0000
,  // measure 53
0001
0010
0100
1000
0010
1000
0001
0100
,  // measure 54
0010
1000
0001
0010
0001
0100
1000
0100
,  // measure 55
0001
0010
0001
0100
0010
1000
0100
0010
,  // measure 56
0001
0000
0100
0010
2000
0000
0000
0000
3100
0000
0010
0000
0002
0000
0000
0000
,  // measure 57
0103
0010
0100
0001
0010
0100
1000
0001
,  // measure 58
1000
0000
0010
0100
0010
0000
0100
0010
0100
0000
0001
0000
1000
0000
0000
0000
,  // measure 59
0001
0000
0010
0001
0100
0000
0010
1000
0100
0000
0010
0001
0100
0000
0000
0000
,  // measure 60
1010
0001
1000
1100
0010
0001
0101
0000
,  // measure 61
1001
0000
0100
0100
0010
0010
0100
0100
,  // measure 62
0001
0001
1000
1000
0001
0000
0110
0000
,  // measure 63
1010
0000
0010
0010
1000
1000
0100
0100
,  // measure 64
0010
0010
0001
0001
1000
0000
1100
0000
,  // measure 65
0011
0001
0100
0001
1000
0010
1000
0100
,  // measure 66
0010
0010
0001
0001
0100
0100
1000
1000
,  // measure 67
0001
0000
0000
0000
0010
0000
0001
1000
0010
0000
1000
0001
0100
0000
0000
0000
,  // measure 68
0220
0000
0000
0000
,  // measure 69
0000
0000
0000
0000
,  // measure 70
0000
0000
0000
0000
,  // measure 71
0330
0000
0000
0000
;
