#TITLE:UP WHERE WE BELONG;
#SUBTITLE:;
#ARTIST:JUDY CRYSTAL & FROG;
#TITLETRANSLIT:;
#SUBTITLETRANSLIT:;
#ARTISTTRANSLIT:;
#GENRE:;
#CREDIT:;
#BANNER:UP WHERE WE BELONG-bn.png;
#BACKGROUND:UP WHERE WE BELONG-bg.png;
#LYRICSPATH:;
#CDTITLE:;
#MUSIC:UP WHERE WE BELONG.ogg;
#OFFSET:0.000000;
#SAMPLESTART:62.103001;
#SAMPLELENGTH:20.000000;
#SELECTABLE:YES;
#DISPLAYBPM:170.000000;
#BPMS:0.000000=170.039993
;
#STOPS:
;
#BGCHANGES:;
#KEYSOUNDS:;
#ATTACKS:;

//---------------dance-single - ----------------
#NOTES:
     dance-single:
     :
     Challenge:
     16:
     0.892442,0.976939,0.182761,0.132917,0.573204,752.000000,730.000000,22.000000,16.000000,0.000000,0.000000,0.892442,0.976939,0.182761,0.132917,0.573204,752.000000,730.000000,22.000000,16.000000,0.000000,0.000000:
0000
0000
0000
0000
,
0000
0000
0000
0000
,
0000
0000
0000
0000
,
0000
0000
0000
0000
,
1100
0000
0000
0001
0000
0001
0100
0000
,
0010
1000
0000
0100
0000
1000
0001
0100
,
0101
0000
0010
1000
0010
0100
0001
1000
,
0100
0010
0100
0010
0100
1000
0100
1000
0001
1000
0001
1000
0001
0010
0001
0010
,
0100
1000
0100
0010
0001
1000
0001
0200
0000
0000
0300
0000
0000
0010
1000
0000
,
0001
0100
1000
0100
0001
0010
0100
1000
,
0010
1000
0001
0100
0010
0100
0001
2000
0000
0000
3000
0000
0000
0010
0100
0000
,
0001
0000
0010
0000
1000
0000
0010
0000
0001
0100
0001
0000
1000
0000
0010
0000
,
0100
0001
1000
0100
0010
0001
1000
0200
0000
0000
0300
0000
0000
0010
0001
0000
,
0100
1000
0100
0001
0010
0100
1000
0001
,
1000
0000
0010
0100
0001
0000
0010
0100
1000
0000
0001
0100
0010
0000
1000
0001
,
1000
0000
0010
1000
0100
0000
0010
0001
2000
0000
0000
0000
3000
0000
0000
0000
,
1001
0100
0010
0100
0002
0013
0100
1000
,
0010
0001
0010
0100
0020
0031
0010
1000
,
0100
0010
0100
1000
0020
0130
0001
1000
,
0100
0010
0001
0100
2000
3100
0001
1000
,
0001
0010
0001
0100
2000
3100
0001
0010
,
0100
0010
0100
1000
0002
0103
0010
0100
,
0001
0000
0010
0000
0001
0000
0100
0010
2000
0000
3001
0000
1000
0000
0100
0000
,
0010
0000
0001
0000
0000
0000
0001
0000
0200
0000
0310
0000
0000
0000
1000
0001
,
0100
0000
0010
0000
1000
0000
0100
0000
0010
0001
0010
0000
0100
0000
1000
0000
,
0001
0000
0100
0000
0010
0000
1000
0000
0100
0010
0100
0000
1000
0000
0001
0000
,
0100
0000
1000
0000
0100
0000
0010
0000
0100
0001
0100
0000
0010
0000
1000
0000
,
0100
0000
0001
0000
0100
0000
1000
0000
0010
1000
0010
0000
0100
0000
0001
0000
,
1000
0000
0001
0000
0010
0000
0100
0000
1000
0001
1000
0000
0010
0000
0100
0000
,
0001
0000
0010
0000
0100
0000
0010
0000
0100
1000
0100
0000
0010
0000
0001
0000
,
1000
0010
1000
0010
0100
0000
0001
0000
0010
0000
0100
1000
0001
0000
0100
0000
,
0001
0010
0001
0010
0100
1000
0100
1000
0001
0100
0001
0100
0010
1000
0010
1000
,
0100
0000
0010
0000
0001
0000
0100
0000
0010
1000
0001
1000
0010
0000
0100
0000
,
0001
0000
0010
0000
0100
0000
0010
0000
0100
1000
0001
1000
0100
0000
0010
0000
,
0001
0000
0100
0000
0010
0000
1000
0000
0100
0010
0001
0010
0100
0000
1000
0000
,
0001
0000
1000
0000
0010
0000
0100
0000
0010
1000
0100
1000
0010
0000
0001
0000
,
0010
0000
1000
0000
0100
0000
0010
0000
0001
1000
0010
1000
0001
0000
0100
0000
,
1000
0000
0100
0000
0001
0000
0100
0000
0010
1000
0001
1000
0010
0000
0100
0000
,
0001
0000
0010
0000
0001
0000
0100
0000
0010
1000
0100
1000
0010
0000
0100
0000
,
0001
0000
1000
0000
0001
0000
0010
0000
0100
1000
0001
1000
0100
0000
0010
0000
,
0001
0000
0100
0000
0010
0000
1000
0000
0001
0010
0100
0010
0001
0000
1000
0000
,
0010
0000
0001
0000
0010
0000
0100
0000
0001
1000
0100
1000
0001
0000
0010
0000
,
0100
0000
1000
0000
0010
0100
0000
0100
0001
0000
0001
0010
0000
0010
0100
0000
,
1000
0010
0100
0000
0001
0000
0101
0000
0000
0000
1010
0000
0000
0000
1100
0000
,
1001
0000
0010
1000
0010
0100
0010
0001
,
0010
1000
0100
0010
0001
0100
0001
1000
,
0010
0000
0100
0000
0001
0000
1010
0000
0000
0000
0001
1000
0100
0000
0010
0000
,
0011
0001
0100
0010
1010
1000
0100
0010
,
0001
0000
0100
0000
0010
0000
0100
0000
1000
0000
0100
0000
0001
0010
0001
0000
,
0100
0000
0010
0000
1000
0000
0100
0000
0010
0001
0100
0000
0010
0000
1000
0000
,
1100
0000
0010
0000
0001
0000
0100
0000
0010
1000
0001
0000
0010
0100
1000
0000
,
0001
0100
0010
1000
0001
0000
0010
0000
0100
0000
0100
0000
0100
0000
1000
0001
,
0100
0000
0010
1000
0010
0100
0010
0001
,
0010
1000
0100
0010
0001
0100
0001
1000
,
0100
0000
0010
0000
0001
0000
0101
0000
0000
0000
1000
0010
0100
0000
0001
0000
,
0011
0000
0100
0000
1000
0000
0001
0000
0100
0000
0010
1000
0000
1000
0001
0000
,
0110
0000
1000
0000
0010
0000
0100
0000
0001
0010
0100
0000
1000
0000
0001
0000
,
0100
0000
0010
0000
1000
0000
0001
0000
0010
0100
0000
0100
1000
0000
0001
0000
,
0100
0000
0010
0000
0100
0000
1000
0000
0100
0001
0010
0100
1000
0000
0001
0000
,
1000
0000
0010
0000
0100
0000
0001
0000
1000
0010
0100
0010
1000
0100
0010
0100
,
1000
0000
0001
0010
1000
0100
1000
0001
,
0010
1000
0010
0001
0100
0010
1000
0001
,
0100
0000
0010
0000
1000
0000
1100
0000
0000
0000
0010
0001
0100
0000
0010
0000
,
1010
0000
0100
0000
0001
1000
0001
0000
0011
0000
0100
0000
1000
0010
1000
0000
,
0110
0000
0001
0000
0100
0000
0010
0000
1000
0100
1000
0000
0001
0000
0010
0000
,
0100
0000
1000
0000
0001
0000
0100
0000
0010
1000
0010
0100
0001
0000
1000
0000
,
1001
0000
1000
0000
0100
0000
0010
0000
0001
0100
0001
0000
1000
0000
0010
0000
,
0100
0001
1000
0001
0010
0000
0100
0000
1000
0000
1000
0000
1000
0000
0001
0100
,
0010
0000
1000
0100
0001
0100
1000
0001
,
0010
1000
0010
0001
0100
0010
1000
0001
,
0100
0000
0010
0000
1000
0000
1100
0000
0101
0000
0010
1000
0001
0000
0100
0000
,
0001
0000
0010
0000
0001
0000
0100
0000
0010
1000
0000
1000
0001
0000
0100
0000
,
0010
0000
1000
0000
0100
0000
0010
0000
0001
0100
0001
0000
1000
0000
0010
0000
,
0100
0000
1000
0000
0100
0000
0001
0000
0010
0000
0100
1000
0000
1000
0001
0000
,
0100
0000
0010
0000
0100
0000
0001
0000
1000
0010
0100
0000
0001
0000
1000
0000
,
1001
0000
0010
0000
0100
0001
1000
0000
0010
0100
0001
0100
0010
0100
0001
0100
,
0010
1000
0010
0100
0001
1000
0100
0020
0000
0000
0030
0000
0000
0001
1000
0000
,
0010
0100
0010
0001
0010
1000
0001
0100
,
0001
0010
0001
0100
0010
1000
0001
0200
0000
0000
0300
0000
0000
0010
1000
0000
,
0100
0000
0010
0000
0001
0000
0100
0000
0010
1000
0010
0000
0100
0000
0001
0000
,
1000
0001
0010
0100
0010
0001
1000
0002
0000
0000
0003
0000
0000
0100
0010
0000
,
1000
0100
0001
0100
0010
0100
1000
0001
,
0100
0000
0001
0010
0100
0000
1000
0001
0100
0000
0010
1000
0001
0000
1000
0100
,
0010
0000
0001
1000
0010
0000
1000
0001
0200
0000
0000
0000
0000
0000
0000
0000
,
0300
0000
0000
0000
;

//---------------dance-single - ----------------
#NOTES:
     dance-single:
     :
     Hard:
     13:
     0.612367,0.593141,0.166146,0.132917,0.041537,516.000000,496.000000,20.000000,16.000000,0.000000,0.000000,0.612367,0.593141,0.166146,0.132917,0.041537,516.000000,496.000000,20.000000,16.000000,0.000000,0.000000:
0000
0000
0000
0000
,
0000
0000
0000
0000
,
0000
0000
0000
0000
,
0000
0000
0000
0000
,
1100
0000
0000
0001
,
0100
0010
0000
1000
0000
0000
0001
0100
,
0101
0000
0000
0010
0000
0010
1000
0100
,
1000
0010
0100
0001
1000
0100
0010
0001
,
0100
0010
1000
0001
0020
0000
0030
0100
,
1000
0010
1000
0000
0100
0001
0100
0000
,
0010
0100
0010
0001
2000
0000
3000
0001
,
1000
0100
1000
0000
0010
0001
0010
0000
,
1000
0001
0010
0001
0200
0000
0300
0010
,
0100
0001
0100
0000
1000
0010
1000
0000
,
1000
0100
0010
0001
0100
0010
1000
0001
,
0010
0000
0010
1000
0200
0000
0300
0000
,
1001
0000
0110
0000
1000
0010
0100
0001
,
0000
0010
0000
0100
1000
0010
1000
0001
,
0100
0010
0100
0001
0010
0100
1000
0001
,
0000
0100
0000
0010
1000
0001
1000
0100
,
0010
0001
0010
0100
1000
0001
1000
0100
,
0010
0001
0100
0010
1000
0100
0000
1000
,
0001
0010
0000
0001
0100
0010
1000
0001
,
0010
0000
0000
0000
0000
0000
0100
0000
1000
0000
0001
0000
0000
0000
0100
0010
,
0100
0000
0001
1000
0010
0100
0000
0001
,
0000
1000
0000
0001
0010
0100
1000
0010
,
1000
0100
0000
0010
0001
0100
0001
1000
,
0000
0010
1000
0001
0010
0100
1000
0001
,
0100
0010
0100
0001
1000
0010
0100
0001
,
1000
0100
1000
0001
0100
0000
0010
1000
,
0100
0010
0000
0001
1000
0001
0000
0100
,
0010
1000
0010
0100
0001
0010
0100
1000
,
0001
0000
0010
0001
0100
0010
1000
0001
,
0100
0010
0000
1000
0010
0100
0001
1000
,
0100
0000
1000
0010
1000
0001
0010
0100
,
1000
0001
0100
0000
0010
1000
0001
0010
,
0100
0010
0001
1000
0010
0100
0010
1000
,
0001
0000
0010
0001
1000
0000
0001
0100
,
0010
0000
1000
0000
0000
0001
0000
0000
0010
0000
0000
0100
0000
0000
1000
0000
,
0010
0000
0100
0000
0000
0001
0000
0000
1000
0000
0010
0000
0100
0000
0001
0000
,
0010
0100
1000
0010
1000
0001
0100
0000
,
0010
1000
0100
0010
0001
0100
0001
1000
,
0100
0000
0010
0000
0000
0001
0000
0000
0100
0000
0000
0010
0000
0000
1000
0000
,
0000
1100
0000
0011
0000
0101
0000
1010
,
1001
0000
0010
0100
1000
0000
0001
0100
,
0010
0000
1000
0001
0100
0000
0010
1000
,
0010
0100
0000
0200
0000
0310
1000
0001
,
0011
0000
0100
0000
1100
0000
0001
0001
,
0001
0100
0010
1000
0100
0010
0001
0000
,
1000
0010
0100
0002
0000
0003
0010
0010
,
0020
0000
0031
0100
0010
1000
0001
0000
,
0010
0001
0100
0010
1000
1000
0000
0001
,
0101
0000
0010
1000
0100
0000
1000
0100
,
0010
0000
0001
1000
0100
0000
0100
0010
,
0001
0100
0000
0020
0000
1030
0001
0100
,
0010
0000
1000
0000
0000
0000
0001
0000
0010
0000
0000
0010
0000
0000
0010
0000
,
0110
0000
0001
0100
0010
1000
0100
0010
,
0001
0000
1000
0000
0000
0000
0010
0000
1000
0000
0000
0100
0000
0000
0010
0000
,
0001
0001
0000
1000
0010
0100
0001
0000
,
0011
0100
0000
1000
0002
0000
0003
0000
,
1001
0000
0100
0001
1000
0000
1000
0100
,
0010
0000
0001
0010
0100
0000
1000
0001
,
1000
0010
0000
0100
0002
0000
0003
0010
,
0100
1000
0000
0010
1010
0000
0001
0001
,
0001
0010
0100
1000
0010
0100
0001
0000
,
1000
0001
0000
0020
0000
0030
0100
0100
,
0100
1000
0001
0000
0010
0001
0100
0000
,
0010
1000
0010
0100
0001
0001
0000
1000
,
1100
0000
0010
0100
0010
0000
1000
0100
,
0010
0000
0001
1000
0001
0000
1000
0100
,
0010
0001
0000
0100
0100
0010
0000
1000
,
0001
0000
1000
0000
0000
0000
0010
0000
0100
0000
0000
0100
0000
0000
0100
0000
,
0101
0000
0010
1000
0001
1000
0100
0000
,
0110
0000
0001
0000
0000
0000
1000
0000
0001
0000
0000
0100
0000
0000
0010
0000
,
1010
0000
0100
0001
1000
0100
0010
0000
,
0001
1000
0010
1000
0200
0000
0000
0000
,
1300
0100
0010
0001
0200
0000
0300
0010
,
0100
0001
1000
0000
0010
0100
0001
0000
,
0100
0001
1000
0001
0020
0000
0030
0100
,
0010
0001
1000
0000
1000
0010
0100
0000
,
0100
0010
1000
0001
2000
0000
3000
0100
,
0010
0001
0010
0000
0100
1000
0001
0000
,
0100
0010
0100
0001
0100
0010
1000
0001
,
0010
0000
0001
1000
0200
0000
0000
0000
,
0300
0000
0000
0000
;

//---------------dance-single - ----------------
#NOTES:
     dance-single:
     :
     Medium:
     10:
     0.515053,0.624294,0.548282,0.448594,0.000000,434.000000,368.000000,66.000000,54.000000,0.000000,0.000000,0.515053,0.624294,0.548282,0.448594,0.000000,434.000000,368.000000,66.000000,54.000000,0.000000,0.000000:
0000
0000
0000
0000
,
0000
0000
0000
0000
,
0000
0000
0000
0000
,
0000
0000
0000
0000
,
1001
0000
0000
0010
,
1000
0000
0000
0001
0000
0000
0100
0000
,
0110
0000
0000
0000
0000
1000
0010
0100
,
0002
0023
0230
2300
,
3010
1000
0100
1000
0020
0000
0030
0000
,
0101
1010
0101
1010
,
0100
1000
0001
1000
0200
0000
0300
0000
,
1100
0011
1100
0011
,
1000
0001
0010
0001
2000
0000
3000
0000
,
1001
0110
1001
0110
,
1010
0101
0011
1100
,
0101
1100
0101
0000
,
1001
0000
0100
0000
0010
1000
0100
0000
,
0010
0000
0001
0000
1000
0001
1000
0010
,
0100
0000
0010
1000
0010
0000
0100
0000
,
0001
0000
1000
0000
0100
0000
1000
0010
,
0100
0000
0010
0000
1000
0001
0100
0000
,
0010
0000
1000
0100
1000
0000
0010
0100
,
0001
0000
0000
1000
0100
0000
0010
0001
,
0100
0000
0000
0010
1000
0000
0000
0001
,
1000
0000
0010
0100
0001
0000
0000
0010
,
0000
0010
0000
0001
1000
0000
0010
0100
,
0010
0000
0000
1000
0001
0000
0100
0000
,
0000
0001
0000
1000
0001
0000
0010
0100
,
1000
0000
0001
0000
1000
0100
0000
0010
,
0001
0000
0100
0000
0010
0000
1000
0001
,
1000
0010
0000
0000
0100
0001
0000
0000
,
0020
0230
2300
3002
,
0103
0000
0010
0000
1000
0100
0001
0000
,
0010
0000
0001
0000
0100
0010
1000
0000
,
0001
0000
0010
0000
0001
0100
1000
0000
,
0010
0000
1000
0000
0001
1000
0100
0000
,
0010
0000
0001
0000
1000
0010
0100
0000
,
0001
0000
0010
0000
0100
0000
1000
0001
,
1000
0010
0100
0001
,
0010
0001
1000
0000
0010
0000
0100
0000
,
0001
0000
0010
0000
0001
1000
0100
0000
,
0010
0000
0100
0000
1000
0010
0001
0000
,
0100
0000
0010
0000
0100
0000
0001
1000
,
0000
0010
0000
1000
0000
0001
0000
1000
,
0100
2000
3002
0203
,
0320
0000
2030
0000
3200
0000
0310
0001
,
0100
0000
0010
1000
0002
0000
0003
0010
,
0100
1000
0000
0001
1000
0000
0010
0100
,
0020
1030
1010
0101
,
1000
0001
0000
0020
0000
0030
0001
0100
,
0002
0013
0011
1100
,
0010
1000
0100
0000
0010
0001
0100
0000
,
0110
2000
3002
0203
,
0320
0000
2030
0000
3200
0000
0310
0001
,
0100
0000
0010
1000
0002
0000
0003
1000
,
0100
0010
0000
0001
1000
0000
1100
0000
,
0020
0130
0101
1100
,
0001
1000
0010
0000
0110
0000
1001
0000
,
0020
0130
1010
0011
,
1000
0001
0100
0010
2000
0000
3000
0000
,
1001
0200
0302
2003
,
3020
0000
2030
0000
3200
0000
0310
0001
,
1000
0000
0001
1000
0020
0000
0030
0100
,
0001
1000
0000
0001
1000
0000
0010
0100
,
0002
0013
0011
1100
,
0010
1000
0000
0200
0000
0300
1000
0001
,
0200
0310
0101
0011
,
0100
1000
0001
0000
0100
0010
1000
0000
,
0110
0002
2003
3200
,
0320
0000
0032
0000
2003
0000
3010
0100
,
0001
0000
0000
1000
2000
0000
3000
0001
,
0100
0010
0000
1000
1000
0000
1001
0000
,
0020
0130
1010
1100
,
1000
0001
0010
0000
0110
0000
1001
0000
,
2000
3001
1010
0101
,
0010
0001
0100
0010
2000
0000
3000
0000
,
0001
0010
0100
0010
0002
0000
0003
0000
,
0011
1010
0011
1010
,
1000
0001
0010
0001
2000
0000
3000
0000
,
1100
0101
1100
0101
,
0010
0100
0001
0100
0020
0000
0030
0000
,
0110
1001
0110
1001
,
0011
1100
1010
0101
,
1100
0101
1100
0000
;

//---------------dance-single - ----------------
#NOTES:
     dance-single:
     :
     Easy:
     7:
     0.316864,0.348907,0.033229,0.132917,0.000000,267.000000,263.000000,4.000000,16.000000,0.000000,0.000000,0.316864,0.348907,0.033229,0.132917,0.000000,267.000000,263.000000,4.000000,16.000000,0.000000,0.000000:
0000
0000
0000
0000
,
0000
0000
0000
0000
,
0000
0000
0000
0000
,
0000
0000
0000
0000
,
1001
0000
0000
0010
,
1000
0000
0100
0000
,
0110
0000
0000
0001
,
1000
1000
0001
0001
,
0010
0001
0200
0300
,
0010
0010
1000
0001
,
1000
0100
0020
0030
,
0001
0001
1000
0010
,
1000
0001
2000
3000
,
0010
0010
0100
0001
,
1000
0100
1000
0010
,
0100
0001
0002
0003
,
0010
0100
1000
0001
,
1000
0010
0100
0001
,
0010
0100
0010
0001
,
1000
0010
1000
0001
,
1000
0010
1000
0100
,
0010
0001
1000
0001
,
0100
0010
0100
0001
,
1001
0000
0110
0000
,
1000
0010
1000
0100
,
0010
0001
0100
0001
,
0010
0100
1000
0010
,
1000
0001
1000
0100
,
0010
0100
0010
0001
,
0100
0010
1000
0001
,
1000
0010
0100
0001
,
0010
0010
0010
0010
,
0001
0000
0100
0010
,
1000
0000
0001
1000
,
0100
0000
0010
0000
,
0001
1000
0001
0100
,
0010
0000
1000
0100
,
1000
0001
0001
1000
,
0100
0000
0010
0000
,
0001
0000
1000
0001
,
1000
0000
0010
0000
,
0100
0000
0010
1000
,
0001
0000
0010
0000
,
0001
0100
0010
1000
,
0100
1000
0001
1000
,
0010
0100
0100
0010
,
1000
0000
0001
0000
,
1000
0000
0100
0010
,
0002
0003
1000
0100
,
1000
0000
0010
1000
,
0200
0300
1000
0001
,
0100
0010
0010
0000
,
0100
0010
1000
0001
,
0010
0100
0010
0001
,
1000
0000
0001
0000
,
1000
0000
0010
0100
,
0002
0003
0010
0100
,
1000
0000
0010
1000
,
0200
0300
1000
0001
,
0100
0010
0100
0000
,
0001
1000
0100
1000
,
0010
0100
0001
1000
,
0100
0000
0010
0000
,
0001
0000
1000
0001
,
0200
0300
0010
1000
,
0001
0000
1000
0100
,
0020
0030
0001
0100
,
0001
1000
1000
0000
,
0100
1000
0001
0100
,
0010
0100
0001
1000
,
0100
0000
0010
0000
,
0001
0000
1000
0010
,
2000
3000
0100
0010
,
0100
0000
1000
0001
,
0020
0030
0001
0100
,
0010
1000
1000
0000
,
0100
0010
0002
0003
,
1000
0001
1000
0010
,
0100
0010
2000
3000
,
0100
0010
0100
1000
,
0001
1000
0020
0030
,
0100
0010
0100
0001
,
1000
0010
1000
0001
,
0100
0100
0200
0000
,
0300
0000
0000
0000
;

//---------------dance-single - ----------------
#NOTES:
     dance-single:
     :
     Beginner:
     4:
     0.181574,0.244235,0.016615,0.083073,0.000000,153.000000,151.000000,2.000000,10.000000,0.000000,0.000000,0.181574,0.244235,0.016615,0.083073,0.000000,153.000000,151.000000,2.000000,10.000000,0.000000,0.000000:
0000
0000
0000
0000
,
0000
0000
0000
0000
,
0000
0000
0000
0000
,
0000
0000
0000
0000
,
1001
0000
0000
0000
,
0010
0000
0100
0000
,
0110
0000
0000
0000
,
0001
0000
1000
0000
,
0001
0001
0001
0000
,
0010
0000
0100
0000
,
1000
1000
1000
0000
,
0010
0000
1000
0000
,
0100
0100
0100
0000
,
0010
0000
0001
0000
,
1000
0000
0001
0000
,
0100
0100
0100
0000
,
0010
0010
0010
0000
,
0000
0000
1000
0000
,
0001
0000
0100
0000
,
0010
0000
1000
0000
,
0100
0000
0010
0000
,
0001
0000
1000
0000
,
0001
0000
0000
0000
,
0100
0000
0100
0000
,
0010
0000
1000
0000
,
0000
0000
0100
0000
,
0010
0000
0001
0000
,
1000
0000
0001
0000
,
0100
0000
0010
0000
,
1000
0000
1000
0000
,
1000
0000
0001
0000
,
0200
0000
0000
0300
,
0100
0000
0010
0000
,
0000
0000
1000
0000
,
0001
0000
0010
0000
,
0001
0000
1000
1000
,
1000
0000
0010
0000
,
0000
0000
0100
0000
,
0001
0000
1000
0000
,
0001
0000
0010
0000
,
0100
0000
0000
0000
,
1000
0000
0001
0000
,
1000
0000
0000
0000
,
0010
0000
0010
0000
,
1000
1000
1000
0000
,
0010
0000
0100
0000
,
0001
0000
0000
0000
,
0010
0000
0001
0000
,
2000
0000
0000
3000
,
1000
0000
0000
0000
,
0020
0000
0000
0030
,
0010
0000
0100
0000
,
0001
0001
0001
0000
,
0010
0000
0100
0000
,
1000
0000
0000
0000
,
0001
0000
1000
0000
,
0002
0000
0000
0003
,
0001
0000
0100
0000
,
0020
0000
0000
0030
,
0010
0000
0100
0000
,
0001
0001
0001
0000
,
0010
0000
0100
0000
,
1000
0000
0000
0000
,
0001
0000
0001
0000
,
0200
0000
0000
0300
,
0100
0000
0010
0000
,
2000
0000
0000
3000
,
1000
0000
0001
0000
,
0100
0100
0100
0000
,
0010
0000
1000
0000
,
0001
0000
0000
0000
,
0010
0000
0100
0000
,
2000
0000
0000
3000
,
1000
0000
0001
0000
,
0020
0000
0000
0030
,
0010
0000
0001
0000
,
0100
0100
0100
0000
,
0010
0000
1000
0000
,
0001
0001
0001
0000
,
1000
0000
0010
0000
,
0100
0100
0100
0000
,
0010
0000
1000
0000
,
0010
0000
0100
0000
,
0001
0001
0002
0000
,
0003
0000
0000
0000
;

//---------------dance-single - ASCENT 2 THE MAX----------------
#NOTES:
     dance-single:
     :
     Edit:
     20:
     1.238975,1.325846,0.481824,0.066458,1.557619,1044.000000,986.000000,58.000000,8.000000,0.000000,0.000000,1.238975,1.325846,0.481824,0.066458,1.557619,1044.000000,986.000000,58.000000,8.000000,0.000000,0.000000:
// measure 0
0000
0000
0000
0000
,  // measure 1
0000
0000
0000
0000
,  // measure 2
0000
0000
0000
0000
,  // measure 3
0000
0000
0000
0000
,  // measure 4
1100
0001
0000
0001
0000
0001
0100
0010
,  // measure 5
1000
0100
0000
0100
1000
0001
0100
0110
,  // measure 6
1001
0000
0010
0000
0100
0001
0100
0001
0100
1000
0100
1000
0100
0010
0100
0010
,  // measure 7
0100
0001
0010
1000
0001
0010
1000
0001
0010
0100
0010
0100
1000
0001
1000
0100
,  // measure 8
0010
0001
0100
0010
1000
0001
1000
0200
0000
0000
0000
0300
0000
0010
0001
0100
,  // measure 9
0010
1000
0010
0000
0100
0001
0100
0000
0001
0010
0001
0000
1000
0100
1000
0000
,  // measure 10
0001
0010
0001
0100
0010
1000
0001
0200
0000
0000
0000
0300
0000
0010
1000
0100
,  // measure 11
1000
0001
0010
0000
0100
0010
0001
0000
0100
0010
1000
0000
0001
1000
0100
0000
,  // measure 12
0010
0001
1000
0001
0100
0010
1000
0002
0000
0000
0000
0003
0000
1000
0001
0010
,  // measure 13
0100
1000
0001
0000
0100
0001
1000
0000
0010
1000
0001
0000
0010
0001
1000
0000
,  // measure 14
0010
0100
0001
1000
0001
1000
0100
0001
0100
0010
1000
0001
0010
1000
0010
0100
,  // measure 15
0001
0000
0010
0001
0100
0000
0010
1000
0002
0000
0000
0000
0003
0000
0000
0000
,  // measure 16
1001
0100
0010
1000
0101
0010
1000
0001
,  // measure 17
0010
0001
0100
1000
0110
0001
0010
0100
,  // measure 18
1000
0000
0010
0000
0100
0000
0001
0000
0011
0000
0100
0010
1000
0000
0001
0000
,  // measure 19
0010
0001
0100
1000
1010
0001
1000
0100
,  // measure 20
0010
0001
1000
0010
1001
0100
0001
0010
,  // measure 21
0100
0000
1000
0000
0010
0000
0100
0001
0110
0000
0010
1000
0100
0000
0010
0000
,  // measure 22
0001
0100
0010
1000
1100
0010
0001
0100
,  // measure 23
0001
0000
1000
0000
0000
0000
0010
0000
1001
0000
0100
0000
0000
0000
0010
1000
,  // measure 24
0001
0000
0010
0000
0001
0000
0100
0000
1010
1000
0100
0000
1000
0000
0001
0000
,  // measure 25
0100
0000
0010
0000
1000
0000
0100
0000
0011
0001
1000
0000
0001
0000
0100
0000
,  // measure 26
0010
0100
0001
0000
1000
0000
0010
0000
0101
0001
1000
0000
0010
0000
0100
0000
,  // measure 27
0001
0010
0100
0000
1000
0000
0001
0000
0011
0001
0100
0000
1000
0000
0010
0000
,  // measure 28
0100
0000
0001
0000
1000
0000
0010
0000
1001
0010
0100
0000
0001
0000
1000
0000
,  // measure 29
0100
0010
0001
0000
1000
0000
0010
0000
1010
0100
0001
0000
1000
0000
0010
0000
,  // measure 30
0100
0001
0010
0001
1000
0000
0010
0100
0110
0000
0001
0010
0001
0000
1000
0000
,  // measure 31
0001
0100
1000
0010
0100
0010
0001
1000
0010
0001
0100
0010
1000
0100
0010
1000
0001
0100
0001
0010
1000
0100
0001
1000
,  // measure 32
0010
0000
1000
0000
0001
0000
0010
0100
1000
0010
1000
0001
0010
0100
1000
0010
,  // measure 33
0100
0000
0001
0000
0010
0000
0100
0010
0001
0100
0010
1000
0100
1000
0001
1000
,  // measure 34
0010
0000
0100
0001
0010
0000
0100
0010
0001
1000
0010
1000
0100
0010
0001
1000
,  // measure 35
0001
0100
0010
1000
0100
0000
0010
0000
0001
1000
0010
1000
0100
0000
0001
0000
,  // measure 36
0010
0100
1000
0000
0001
0000
0100
0010
0100
0001
1000
0000
0100
0010
0001
0000
,  // measure 37
1000
0000
0010
0000
0001
0000
0100
0010
1000
0001
0010
0100
1000
0010
1000
0001
,  // measure 38
0100
0000
0010
0000
1000
0100
0010
0001
0100
0001
1000
0010
0100
0001
0010
0000
,  // measure 39
0100
1000
0001
0000
0100
0010
1000
0000
0001
0010
1000
0000
0100
0010
0001
0000
,  // measure 40
1000
0001
0100
0000
0010
1000
0010
0100
0001
0010
0100
0010
0100
1000
0010
0001
,  // measure 41
0100
0010
1000
0000
0001
1000
0001
0010
0100
1000
0100
0010
0100
1000
0001
0100
,  // measure 42
0010
0000
1000
0000
0001
0010
0100
0010
0001
1000
0010
0100
0001
1000
0100
0010
,  // measure 43
0001
0100
0110
0010
1000
0100
1100
0010
0001
1000
1010
0100
0001
1000
1100
0010
,  // measure 44
1001
0000
0100
0000
0001
0010
0001
0100
0010
1000
0100
1000
0001
0000
0100
0000
,  // measure 45
0010
0000
1000
0000
0100
0000
1000
0000
0010
1000
0001
0010
0001
0100
1000
0000
,  // measure 46
0010
1000
0001
0000
1000
0100
0010
0000
0001
0100
0010
1000
0100
0010
0001
0000
,  // measure 47
0101
0010
1000
0000
0100
0010
0001
1000
1010
0000
0100
0001
0010
0100
1000
0001
,  // measure 48
0110
0000
1000
0000
0010
1000
0100
0010
0100
0010
0100
0001
0100
1000
0001
0000
,  // measure 49
0100
0010
1000
0000
0001
0000
0011
0000
1000
0100
0010
0001
0100
0001
1000
0000
,  // measure 50
1001
0000
0010
0000
0100
0000
0001
0010
0100
1000
0100
1000
0001
1000
0010
0000
,  // measure 51
0110
0000
0000
0000
0000
0000
0100
0000
0000
0001
0000
0000
0010
0000
0000
0100
0000
0000
1000
0000
0000
0010
0000
0000
0100
0000
0000
0000
0000
0000
0001
0000
0000
1000
0000
0000
0001
0000
0000
0010
0000
0000
0100
0000
1000
0000
0001
0000
,  // measure 52
0100
0000
0010
0000
1000
0100
0010
0001
0100
0010
0100
0001
1000
0100
1000
0001
,  // measure 53
0010
0000
0100
0000
1000
0010
0100
0001
0010
0100
0010
0001
1000
0000
0100
0000
,  // measure 54
1000
0000
0010
0000
0100
0001
0010
0100
1000
0000
0010
1000
0001
0010
0001
0100
,  // measure 55
1010
0000
1000
0100
0010
0001
0100
0001
0011
0000
0100
1000
0010
0100
0010
1000
,  // measure 56
0101
0000
0010
0000
1000
0001
0010
0100
0010
0100
1000
0010
0001
0100
0010
1000
,  // measure 57
1100
0000
0010
0000
0001
0100
0010
1000
0100
0010
0100
1000
0001
0010
0100
1000
,  // measure 58
0001
0000
0100
0000
0010
0000
1000
0000
0100
0010
0100
1000
0010
0100
0001
1000
,  // measure 59
1001
0000
0010
0000
0100
0001
1000
0000
1100
0010
0001
0100
0010
1000
0001
0100
,  // measure 60
0101
0000
1000
0000
0010
1000
0100
1000
0001
0010
0100
0010
0001
1000
0100
1000
,  // measure 61
0010
0000
0100
0000
0001
0010
0001
1000
0100
0010
0001
0100
0010
1000
0100
0000
,  // measure 62
0010
0000
0001
0100
0001
1000
0100
0010
0001
1000
0001
0100
0010
1000
1100
0001
,  // measure 63
1001
0000
0010
1000
0100
0010
0011
0000
1001
0000
0100
0000
0010
1000
0001
1000
,  // measure 64
0110
0000
0001
0000
0010
0100
1000
0010
0001
1000
0001
1000
0100
0010
0001
0000
,  // measure 65
0100
0001
1000
0000
0010
0000
0101
1000
0001
0010
0100
0010
0001
1000
0010
0100
,  // measure 66
0110
0000
0001
0000
0010
0001
1000
0001
0100
1000
0010
0100
0010
1000
0001
0100
,  // measure 67
1010
0000
0100
0001
0010
0100
1100
0001
0101
0010
1000
0001
1000
0100
0010
0001
,  // measure 68
1001
0000
0100
0000
0001
1000
0100
0010
0100
1000
0010
0001
0100
0001
1000
0100
,  // measure 69
0010
0000
0001
0000
1000
0000
0010
1000
0100
1000
0001
0010
0100
0010
0100
1000
,  // measure 70
1100
0000
0101
0000
1000
0001
0011
0000
0110
0000
1100
0001
1000
0010
0100
0001
,  // measure 71
1000
0010
0100
0001
0010
0100
0110
1000
1001
0000
0010
0100
0010
1000
0001
0100
,  // measure 72
0101
0010
0100
0000
0001
0000
1000
0100
0010
1000
0001
1000
0001
0010
0100
1000
,  // measure 73
0001
0100
0001
0010
0100
1000
0001
1000
0001
1000
0010
0100
0010
0100
1000
0010
,  // measure 74
1010
0000
0100
0000
0001
0010
0001
0100
1000
0010
1000
0010
1000
0100
0010
0001
,  // measure 75
0011
0000
0100
0000
1000
0010
1000
0001
0010
0100
1000
0010
0001
1000
0001
0100
,  // measure 76
0010
1000
0100
0010
0100
0010
0001
2000
0000
0000
0000
3000
0000
0001
1000
0010
,  // measure 77
0100
0001
0010
0001
1000
0001
0010
0100
0010
0100
0010
0100
1000
0010
0001
0000
,  // measure 78
0100
0001
1000
0001
0010
0100
0010
0002
0000
0000
0000
0003
0000
1000
0001
1000
,  // measure 79
0010
1000
0001
1000
0100
0010
0100
1000
0001
0010
0001
0100
0010
1000
0001
0000
,  // measure 80
0100
0010
0100
0001
0010
0100
1000
0020
0000
0000
0000
0030
0000
0100
0010
1000
,  // measure 81
0100
0001
0010
0100
0010
0001
1000
0010
1000
0001
1000
0100
0010
0001
0100
0000
,  // measure 82
0010
0000
1000
0001
1000
0100
0010
0001
0100
0010
1000
0001
0010
0100
1000
0010
,  // measure 83
0100
0000
0010
1000
0001
0000
1000
0100
0020
0000
0000
0000
0000
0000
0000
0000
,  // measure 84
0030
0000
0000
0000
;
