#VERSION:0.83;
#TITLE:UNLIMITED FIRE;
#SUBTITLE:;
#ARTIST:TAG;
#TITLETRANSLIT:;
#SUBTITLETRANSLIT:;
#ARTISTTRANSLIT:;
#GENRE:;
#ORIGIN:;
#CREDIT:;
#BANNER:UNLIMITED FIRE-bn.png;
#BACKGROUND:UNLIMITED FIRE-bg.png;
#PREVIEWVID:;
#JACKET:UNLIMITED FIRE-jacket.png;
#CDIMAGE:;
#DISCIMAGE:;
#LYRICSPATH:;
#CDTITLE:;
#MUSIC:UNLIMITED FIRE.ogg;
#OFFSET:-0.222222;
#SAMPLESTART:13.722000;
#SAMPLELENGTH:20.000000;
#SELECTABLE:YES;
#DISPLAYBPM:160.000000;
#BPMS:0.000=160.000;
#STOPS:;
#DELAYS:;
#WARPS:;
#TIMESIGNATURES:0.000=4=4;
#TICKCOUNTS:0.000=4;
#COMBOS:0.000=1;
#SPEEDS:0.000=1.000=0.000=0;
#SCROLLS:0.000=1.000;
#FAKES:;
#LABELS:0.000=Song Start;
#BGCHANGES:;
#KEYSOUNDS:;
#ATTACKS:
;

//---------------dance-single - ----------------
#NOTEDATA:;
#CHARTNAME:;
#STEPSTYPE:dance-single;
#DESCRIPTION:;
#CHARTSTYLE:;
#DIFFICULTY:Hard;
#METER:13;
#RADARVALUES:0.651849,0.617786,0.455211,0.195090,0.287216,421.000000,379.000000,42.000000,18.000000,0.000000,0.000000,0.000000,0.000000,0.000000,0.651849,0.617786,0.455211,0.195090,0.287216,421.000000,379.000000,42.000000,18.000000,0.000000,0.000000,0.000000,0.000000,0.000000;
#CREDIT:;
#DISPLAYBPM:160.000000;
#NOTES:
0000
0000
0000
0000
,
0000
0000
0000
0000
,
0000
0000
0000
0000
,
0000
0000
0000
0000
,
1000
0001
1000
0000
0000
0010
0000
0000
0100
0000
0000
0001
0000
0000
1000
0000
,
0000
0100
0000
0000
1000
0000
0000
0010
0000
0000
0100
0000
0000
0001
0100
0001
,
0000
0000
0010
0000
0000
0100
0000
0000
1000
0000
0000
0010
0000
0000
0100
0000
,
0001
1000
0000
0001
1000
0000
0000
0010
0000
0000
0100
0000
0000
0010
1000
0010
,
2000
3002
0013
1001
,
0100
0001
1000
0001
0000
0011
0000
1100
,
0002
0000
0100
0000
0103
0000
0000
0000
0010
1000
0010
0000
1000
0000
0001
0000
,
0010
0100
1000
0001
0000
0101
0000
1010
,
0200
0000
0001
0000
0301
0000
0000
0000
1000
0001
1000
0000
0010
0000
0100
0000
,
0010
1000
0001
0010
0000
0011
0000
1010
,
0002
0000
1000
0000
1003
0000
0000
0000
0001
0100
0001
0000
0010
0000
0100
0000
,
1000
0001
1000
0010
0000
0110
0000
1001
,
0000
0000
0011
0000
0000
0000
1100
0000
0000
0000
0001
0100
0002
0000
0000
0000
,
0013
0001
0100
0010
0000
0110
0000
1001
,
0020
0000
0100
0000
0130
0000
0000
0000
0010
1000
0010
0000
1000
0000
0001
0000
,
0010
0100
1000
0010
0000
1010
0000
0011
,
2000
0000
0001
0000
3001
0000
0000
0000
0100
0010
0100
0000
0001
0000
1000
0000
,
0001
0010
0100
1000
0000
1100
0000
0010
,
1000
0100
1000
0001
0000
0101
0000
0010
,
1000
0001
0010
0100
0000
0110
0000
0011
,
0000
0000
1001
0000
0000
0000
1010
0000
0100
0001
0100
0001
0200
0000
0000
0000
,
0310
0000
0000
1000
0000
0000
0100
0000
0000
0010
0000
0000
0001
0100
0001
0000
,
1000
0000
0000
0001
0000
0000
0010
0000
0000
0100
0000
0000
1000
0010
1000
0000
,
0001
0000
0000
1000
0000
0000
0001
0000
0000
0010
0000
0000
0100
1000
0100
0000
,
1000
0010
0100
0001
0000
0001
0010
1000
,
0100
0000
0000
0010
0000
0000
0100
0000
0000
1000
0000
0000
0001
0100
0001
0000
,
1000
0000
0000
0001
0000
0000
0100
0000
0000
0010
0000
0000
0100
0001
0100
0000
,
0001
0000
0000
0010
0000
0000
0001
0000
0000
1000
0000
0000
0010
0100
0010
0000
,
2010
0000
0001
0000
0100
0100
0100
3100
,
1000
0010
0001
0100
0001
0010
0001
1000
,
0100
0010
0100
1000
0001
0010
0001
0100
,
0001
0010
0001
0100
0010
1000
0100
0010
,
0100
1000
0010
0100
0001
0010
0001
1000
,
0010
0100
0010
0100
0001
0010
0001
0100
,
0001
0010
0100
1000
0010
1000
0001
1000
,
0100
0000
0010
0000
0001
0000
1000
0000
0001
0000
0100
0000
0010
0000
1000
0001
,
1000
0000
0000
0100
0000
0000
1000
0000
0000
0010
0000
0000
0100
0000
0001
0000
,
0010
0000
0000
0000
0001
0100
1001
0000
,
0010
1000
0001
1000
0000
1100
0000
0011
,
0200
0000
0001
0000
0301
0000
0000
0000
1000
0010
1000
0000
0001
0000
0100
0000
,
0001
0010
0001
1000
0000
0101
0000
1010
,
0002
0000
0010
0000
0013
0000
0000
0000
0100
1000
0100
0000
0010
0000
0001
0000
,
0100
0010
1000
0001
0000
0011
0000
1001
,
0020
0000
0100
0000
0130
0000
0000
0000
0001
1000
0001
0000
0010
0000
0100
0000
,
1000
0010
1000
0001
0000
0011
0000
0110
,
0000
0000
1100
0000
0000
0000
0101
0000
0000
0000
0010
1000
0020
0000
0000
0000
,
0130
0001
0010
0100
1000
0010
0100
0002
,
0000
0000
0013
0000
1001
0000
0000
0000
0100
0001
0100
0000
0010
0000
1000
0000
,
0001
0010
0001
0100
0001
0010
0100
2000
,
0000
0000
3010
0000
1100
0000
0000
0000
0010
1000
0010
0000
0100
0000
0001
0000
,
1000
0000
0001
0000
1000
0000
0100
0000
0010
0001
0010
0000
0100
0000
1000
0000
,
0001
0000
0100
0000
0001
0000
1000
0000
0010
0100
0010
0000
1000
0000
0100
0000
,
0010
0001
0100
0010
0000
1010
0000
1001
,
0000
0000
0110
0000
0000
0000
0101
0000
1000
0001
1000
0001
1000
0000
0000
0000
,
1100
0000
0000
0011
0000
0000
1000
0001
,
0000
2002
0000
0000
,
3003
0000
0000
0000
;

//---------------dance-single - ----------------
#NOTEDATA:;
#CHARTNAME:;
#STEPSTYPE:dance-single;
#DESCRIPTION:;
#CHARTSTYLE:;
#DIFFICULTY:Medium;
#METER:10;
#RADARVALUES:0.540369,0.552756,0.628624,0.270959,0.005419,349.000000,291.000000,58.000000,25.000000,0.000000,0.000000,0.000000,0.000000,0.000000,0.540369,0.552756,0.628624,0.270959,0.005419,349.000000,291.000000,58.000000,25.000000,0.000000,0.000000,0.000000,0.000000,0.000000;
#CREDIT:;
#DISPLAYBPM:160.000000;
#NOTES:
0000
0000
0000
0000
,
0000
0000
0000
0000
,
0000
0000
0000
0000
,
0000
0000
0000
0000
,
1000
0010
1000
0000
0001
0000
0101
0000
,
0010
1000
0100
0000
0011
0000
1000
0001
,
0100
0010
1000
0000
0001
0010
0100
0000
,
1000
0000
0010
0000
0100
0000
0000
0000
0001
0000
0000
1000
0000
0000
0001
0000
,
0200
0320
1030
1001
,
0001
0010
0001
1000
0000
0101
0000
2100
,
0000
0001
3001
0000
0010
0001
0100
0000
,
0001
1000
0010
1000
0000
1010
0000
0201
,
0000
0010
0310
0000
0100
0001
1000
0000
,
0010
1000
0001
0100
0000
0110
0000
1002
,
0000
0100
0103
0000
0001
1000
0001
0000
,
0010
0001
0010
0100
0000
1100
0000
1010
,
0000
1001
0000
0110
0000
0202
0300
0000
,
1003
0001
1000
0100
0000
0011
0000
1020
,
0000
1000
1030
0000
0010
1000
0001
0000
,
0010
0001
0010
0100
0000
1100
0000
0120
,
0000
0100
0130
0000
0010
0001
1000
0000
,
0001
0100
0001
1000
0000
0001
0000
0010
,
0100
0010
0001
1000
0000
0010
0000
0100
,
0001
1000
0001
0010
0000
0011
0000
0101
,
0000
0110
0000
1001
0000
2200
0300
0000
,
3001
0000
0010
0000
0001
0000
1000
0001
,
0010
0000
0001
0000
0100
0000
0010
1000
,
0010
0000
1000
0000
0100
0000
0010
0001
,
1000
0001
1000
0001
0000
0012
0000
0100
,
0103
0000
0010
0000
0100
0001
1000
0000
,
0001
0000
0010
0000
0001
0100
1000
0000
,
0001
0000
0010
0000
0001
1000
0010
0100
,
0002
0000
0000
0000
1003
0001
1000
0001
,
0010
0000
0001
0100
0001
0000
0101
0000
,
1000
0000
0010
0100
0010
0000
0110
0000
,
0100
0000
0001
1000
0001
0000
1001
0000
,
0010
0000
0100
1000
0100
0000
1100
0000
,
0001
0100
0010
0000
1001
0000
1010
0000
,
0001
1000
0001
0010
0100
0000
0110
0000
,
1000
0001
0100
0000
0001
0010
1000
0000
,
1100
0000
0101
0000
1100
0000
0010
1000
,
0001
0000
0000
0000
0100
0020
0000
0000
,
1030
0010
0100
0001
0000
0011
0000
1002
,
0000
1000
1003
0000
0001
0010
0001
0000
,
0100
0010
1000
0001
0000
0101
0000
1020
,
0000
0100
0130
0000
0010
1000
0010
0000
,
1000
0100
0010
0001
0000
1001
0000
0210
,
0000
0001
0301
0000
0100
0001
0010
0000
,
0001
1000
0001
0100
0000
0101
0000
0011
,
0000
1100
0000
1001
0000
0220
0300
0000
,
1030
0010
0100
0001
0000
0011
0000
2100
,
0000
0100
3100
0000
1000
0010
0100
0001
,
0010
0001
1000
0001
0000
0101
0000
0021
,
0000
0001
0031
0000
1000
0001
0100
0010
,
1000
0100
0010
0001
0000
0101
0000
0010
,
0100
0001
1000
0100
0000
1100
0000
0010
,
1000
0001
1000
0001
0000
0011
0000
1001
,
0000
0110
0000
1010
0000
0202
0300
0000
,
1003
0000
0000
0001
0000
0000
0100
0110
,
0000
2002
0000
0000
,
3003
0000
0000
0000
;

//---------------dance-single - ----------------
#NOTEDATA:;
#CHARTNAME:;
#STEPSTYPE:dance-single;
#DESCRIPTION:;
#CHARTSTYLE:;
#DIFFICULTY:Easy;
#METER:7;
#RADARVALUES:0.363859,0.420934,0.325150,0.065030,0.000000,235.000000,205.000000,30.000000,6.000000,0.000000,0.000000,0.000000,0.000000,0.000000,0.363859,0.420934,0.325150,0.065030,0.000000,235.000000,205.000000,30.000000,6.000000,0.000000,0.000000,0.000000,0.000000,0.000000;
#CREDIT:;
#DISPLAYBPM:160.000000;
#NOTES:
0000
0000
0000
0000
,
0000
0000
0000
0000
,
0000
0000
0000
0000
,
0000
0000
0000
0000
,
1000
0010
1000
0001
,
0010
0100
1000
0001
,
1000
0010
0100
0001
,
0010
0100
1000
0001
,
0200
0020
0330
1001
,
0010
1000
0010
0100
,
0001
0001
1000
0001
,
0010
0001
0100
0010
,
1000
1000
0001
0010
,
0001
0100
0010
1000
,
0100
0100
0010
0001
,
1000
0000
0000
0001
0000
1000
0000
0110
,
0000
1001
0000
0110
0000
1001
0000
0000
,
0010
1000
0001
0010
,
0001
0001
0100
0010
,
1000
0100
1000
0001
,
0100
0100
0010
0100
,
0001
0000
0000
1010
0000
1010
0000
0000
,
1000
0000
0000
0101
0000
0101
0000
0000
,
0001
0000
0000
0010
0000
0100
0000
1001
,
0000
0110
0000
1001
0000
0110
0000
0000
,
1000
0000
0000
0010
0000
0000
0100
0000
,
0001
0000
0000
0010
0000
0000
0100
0000
,
0010
0000
0000
0001
0000
0000
1000
0000
,
0001
0100
0001
0100
0000
0110
0000
0000
,
1000
0000
0000
0010
0000
0000
1000
0000
,
0100
0000
0000
0010
0000
0000
0001
0000
,
0100
0000
0000
0010
0000
0000
1000
0000
,
0002
0000
2000
3003
,
0001
0010
0001
0100
,
0010
1000
0001
0100
,
0001
0010
0100
1000
,
0010
1000
0001
0010
,
0100
0010
0001
0100
,
0001
0010
1000
0001
,
1000
0010
1000
0001
,
0100
0100
0100
0100
,
0010
0000
0110
1001
,
0001
0010
0100
0010
,
0001
0100
1000
0010
,
1000
0001
0010
0001
,
0100
0010
1000
0100
,
0001
1000
0001
0010
,
0100
0010
0001
0100
,
0001
0000
0000
1000
0000
0100
0000
1001
,
0000
0110
0000
1001
0000
0110
0000
0000
,
0100
0001
0010
0100
,
1000
0001
1000
0000
0010
0000
0100
0000
,
0001
0010
0001
0100
,
0010
1000
0010
0000
0100
0000
0001
0000
,
0010
0000
0000
0011
0000
0011
0000
0000
,
0100
0000
0000
1100
0000
1100
0000
0000
,
1000
0000
0000
0010
0000
0100
0000
0110
,
0000
1001
0000
0110
0000
1001
0000
0000
,
1000
0000
0000
0010
0000
0000
0000
0110
,
0000
2002
0000
3003
;

//---------------dance-single - ----------------
#NOTEDATA:;
#CHARTNAME:;
#STEPSTYPE:dance-single;
#DESCRIPTION:;
#CHARTSTYLE:;
#DIFFICULTY:Beginner;
#METER:3;
#RADARVALUES:0.187349,0.256869,0.021677,0.043353,0.000000,121.000000,119.000000,2.000000,4.000000,0.000000,0.000000,0.000000,0.000000,0.000000,0.187349,0.256869,0.021677,0.043353,0.000000,121.000000,119.000000,2.000000,4.000000,0.000000,0.000000,0.000000,0.000000,0.000000;
#CREDIT:;
#DISPLAYBPM:160.000000;
#NOTES:
// measure 0
0000
0000
0000
0000
,  // measure 1
0000
0000
0000
0000
,  // measure 2
0000
0000
0000
0000
,  // measure 3
0000
0000
0000
0000
,  // measure 4
1000
0000
1000
0000
,  // measure 5
0001
0000
0001
0000
,  // measure 6
0100
0000
0100
0000
,  // measure 7
0010
0000
0010
0000
,  // measure 8
1000
0000
0000
0000
,  // measure 9
0001
0000
0010
0000
,  // measure 10
0001
0000
0100
0000
,  // measure 11
0010
0000
1000
0000
,  // measure 12
0100
0000
0010
0000
,  // measure 13
0001
0000
1000
0000
,  // measure 14
0010
0000
1000
0000
,  // measure 15
0100
0000
0010
0000
,  // measure 16
0001
0001
0001
0000
,  // measure 17
0010
0000
0001
0000
,  // measure 18
0100
0000
0010
0000
,  // measure 19
1000
0000
0100
0000
,  // measure 20
1000
0000
0001
0000
,  // measure 21
0100
0000
0010
0000
,  // measure 22
0100
0000
0010
0000
,  // measure 23
0100
0000
0001
0000
,  // measure 24
1000
1000
1000
0000
,  // measure 25
0001
0000
0000
0100
,  // measure 26
0100
0000
0000
0010
,  // measure 27
0010
0000
0000
1000
,  // measure 28
1000
0000
0001
0000
,  // measure 29
1000
0000
0000
0010
,  // measure 30
0010
0000
0000
0100
,  // measure 31
0100
0000
0000
0001
,  // measure 32
0001
0000
1000
0000
,  // measure 33
0002
0000
0003
0000
,  // measure 34
0020
0000
0030
0000
,  // measure 35
0200
0000
0300
0000
,  // measure 36
2000
0000
3000
0000
,  // measure 37
0010
0000
0010
0000
,  // measure 38
1000
0000
1000
0000
,  // measure 39
0001
0000
0001
0000
,  // measure 40
0100
0100
0100
0100
,  // measure 41
0100
0000
1001
0000
,  // measure 42
0010
0010
0010
0000
,  // measure 43
1000
0000
0001
0000
,  // measure 44
1000
1000
1000
0000
,  // measure 45
0100
0000
0010
0000
,  // measure 46
0100
0100
0100
0000
,  // measure 47
1000
0000
0001
0000
,  // measure 48
0010
0000
0001
0000
,  // measure 49
0100
0100
0100
0000
,  // measure 50
0010
0010
0010
0000
,  // measure 51
1000
1000
1000
0000
,  // measure 52
0001
0001
0001
0000
,  // measure 53
0010
0010
0010
0000
,  // measure 54
0100
0000
0010
0000
,  // measure 55
0100
0000
0010
0000
,  // measure 56
0100
0000
1000
0000
,  // measure 57
0001
0001
0001
0000
,  // measure 58
0100
0000
0000
0010
,  // measure 59
0000
1001
0000
0000
;
