#TITLE:UNLIMITED FIRE;
#SUBTITLE:(DJ Amane Remix);
#ARTIST:DJ Amane;
#TITLETRANSLIT:;
#SUBTITLETRANSLIT:;
#ARTISTTRANSLIT:;
#GENRE:;
#CREDIT:;
#BANNER:UNLIMITED FIRE (DJ Amane Remix)-bn.png;
#BACKGROUND:UNLIMITED FIRE (DJ Amane Remix)-bg.png;
#LYRICSPATH:;
#CDTITLE:;
#MUSIC:UNLIMITED FIRE (DJ Amane Remix).ogg;
#OFFSET:1.258000;
#SAMPLESTART:24.871000;
#SAMPLELENGTH:20.000000;
#LASTBEATHINT:0.666500;
#SELECTABLE:YES;
#DISPLAYBPM:155.000000;
#BPMS:0.000000=155.000000
;
#STOPS:
;
#BGCHANGES:;
#KEYSOUNDS:;
#ATTACKS:;

//---------------dance-single - ----------------
#NOTES:
     dance-single:
     :
     Hard:
     15:
     0.663008,0.810711,0.176882,0.067384,0.964430,551.000000,530.000000,21.000000,8.000000,0.000000,0.000000,0.663008,0.810711,0.176882,0.067384,0.964430,551.000000,530.000000,21.000000,8.000000,0.000000,0.000000:
0000
0000
0000
0000
,
0000
0000
0000
0000
,
0000
0000
0000
0000
,
0000
0000
0000
0000
,
0000
0000
0000
0000
,
1000
0000
0010
0000
0100
0000
0001
0010
0000
0000
0000
0000
0000
0100
0000
0100
,
1000
0000
0010
0000
0100
0000
0001
1000
0000
0000
0000
0000
0000
0001
0000
0001
,
0100
0000
0010
0000
0000
1000
0000
1000
0100
0000
0010
0000
0000
0001
0000
0001
,
1000
0000
0010
0000
1000
0000
0001
0100
0000
0000
0110
0000
0000
0010
0000
0010
,
0100
0000
0010
0000
1000
0000
0001
0010
0000
0000
0000
0000
0000
0100
0000
0100
,
1000
0000
0010
0000
0100
0000
0010
1000
0000
0000
0000
0000
0000
0001
0000
0001
,
1000
0000
0010
0000
0000
0100
0000
0100
0001
0000
0010
0000
0000
0100
0000
0100
,
1000
0001
1000
0000
0100
0000
0010
0000
0010
0000
0000
0010
0000
0000
0010
0000
,
0001
0000
0010
0000
0100
0000
1000
0001
1000
0000
0000
0000
0010
0100
0000
0100
,
0001
0000
0010
0000
0100
0000
1000
0001
1000
0000
0000
0000
0010
1000
0000
1000
,
0001
0000
0010
0000
1000
0000
0010
0000
0001
0100
1000
0100
0001
0000
0010
0000
,
0100
0000
1000
0000
0001
0000
1000
0010
0000
0100
0001
0000
1000
0000
0010
0100
,
0001
0000
1000
0100
0000
0100
0000
0100
0000
1000
0000
0010
0100
0000
0001
0000
,
1000
0000
0001
0010
0000
0010
0000
0100
0000
0100
0000
1000
0001
0000
0100
0000
,
0001
0000
0010
0100
0000
0100
0000
1000
0000
0001
0000
1000
0001
0000
0100
0000
,
0010
0000
1000
0001
0000
0010
0000
0100
0000
0100
0000
0100
1000
0000
0001
0000
,
0010
0000
0001
0100
0000
0001
0000
1000
0000
1000
0000
0001
0010
0000
0100
0000
,
1000
0000
0010
0100
0000
0100
0000
0001
0000
0010
0000
0100
1000
0000
0001
0000
,
0100
0000
0010
1000
0000
0001
0000
0010
0000
0001
0000
1000
0010
0000
0100
0000
,
0010
0000
0100
0001
0000
0001
0000
1000
0000
1000
0000
0001
0010
0000
0100
0000
,
1100
0000
1000
0010
0000
0100
0000
0001
0000
1000
0000
0001
0010
0000
0100
0000
,
0110
0000
0100
0010
0000
0010
0000
0001
0000
1000
0000
0100
1000
0000
0001
0000
,
0011
0000
0010
0001
0000
0001
0000
1000
0000
0010
0000
1000
0100
0000
0100
0000
,
1001
0000
0010
0100
0000
0010
0000
1000
0000
1000
0000
0001
0100
0000
0001
0000
,
0101
0000
0100
0010
0000
0010
0000
1000
0000
0001
0000
0010
0100
0000
1000
0000
,
1010
0000
0010
1000
0000
1000
0000
0001
0000
0010
0000
0100
1000
0000
0001
0000
,
0110
0000
0010
1000
0000
1000
0000
0100
0000
0010
0000
0010
0001
0000
0100
0000
,
0101
0000
1000
0001
0000
0001
0000
0010
0000
0010
0000
0010
0100
0000
1000
0000
,
2002
0000
0000
0000
,
0000
0000
0000
0000
,
0000
0000
0000
0000
,
0000
0000
0000
3003
,
0002
0000
0000
0000
,
0023
0000
0000
0000
,
0230
0000
0000
0000
,
1300
0001
1000
0010
0000
0100
0000
0001
,
0010
0000
0000
0001
0000
0000
1000
0000
0000
0010
0000
0000
0100
0000
0001
0000
,
1000
0000
0000
0100
0000
0000
1000
0000
0000
0001
0000
0000
0100
0000
0010
0000
,
1000
0000
0000
0100
0000
0000
0010
0000
0000
0001
0000
0000
0100
0000
0010
0000
,
1000
0001
0010
0100
0000
1000
0000
0010
,
1000
0000
0000
0001
0000
0000
0010
0000
0000
0010
0000
0000
0100
0000
1000
0000
,
0010
0000
0000
0100
0000
0000
0001
0000
0000
0001
0000
0000
1000
0000
0010
0000
,
0100
0000
0000
0001
0000
0000
0010
0000
0000
0010
0000
0000
0001
0000
1000
0000
,
0020
0000
0000
0000
0000
0000
0000
0000
0130
0000
0000
0000
0000
0001
0000
0001
,
1000
0000
0010
0000
0100
0000
0001
1000
0000
0000
0000
0000
0000
0100
0000
0100
,
1000
0000
0010
0000
0100
0000
0010
1000
0000
0000
0000
0000
0000
0001
0000
0001
,
0100
0000
0010
0000
1000
0000
0100
0010
0000
0000
0000
0000
0000
0001
0000
0001
,
1000
0000
0010
0000
1000
0000
0100
0010
0000
0000
0000
0000
0000
0001
0000
0001
,
1000
0000
0010
0000
0100
0001
0000
0001
0100
0000
0010
0000
1000
0100
0000
0100
,
1000
0000
0010
0000
1000
0001
0000
0001
1000
0000
0010
0000
0100
0010
0000
0010
,
1000
0000
0100
0010
0001
0000
1000
0010
1000
0001
0010
0100
1000
0010
0100
0001
,
0010
0000
0000
0010
0000
0000
0010
0000
0000
0010
0000
0000
0010
0000
0010
0000
,
0010
0000
0000
0000
1001
0110
0000
0000
,
1001
0000
0100
0010
0000
0010
0000
0010
0000
0010
0000
0010
1000
0000
0100
0000
,
1000
0000
0001
0100
0000
0110
0000
0110
0000
0110
0000
0010
1000
0000
0001
0000
,
0011
0000
0100
1000
0000
0010
0000
1000
0000
0001
0000
1000
0100
0000
0010
0000
,
0001
0000
1000
0001
0000
0100
0000
0010
0000
0010
0000
0010
1000
0000
0001
0000
,
0100
0000
0001
0010
0000
0100
0000
1000
0000
1000
0000
0001
1000
0000
0100
0000
,
0010
0000
0001
1000
0000
0010
0000
0100
0000
0100
0000
0010
1000
0000
0001
0000
,
0010
0000
0100
1000
0000
1000
0000
1000
0000
0001
0000
1000
0010
0000
0100
0000
,
0001
0000
0010
0001
0000
1000
0000
1000
0000
0010
0000
1000
0001
0000
0010
0100
,
1000
0000
0010
0000
0100
0000
0001
1000
0000
0100
0000
0100
1000
0000
0001
0100
,
0001
0000
0010
0000
0100
0000
1000
0001
0000
0001
0000
1000
0010
0000
0100
0001
,
1000
0000
0010
0000
0100
0001
0000
1000
0100
0000
0010
0000
0001
1000
0000
0001
,
0100
0001
1000
0000
0001
0000
0100
0000
0010
1000
0000
0010
1000
0000
0010
0000
,
0100
0000
0010
0000
0100
0000
0001
1000
0000
0100
0000
0100
0010
0000
0001
1000
,
0001
0000
0010
0000
0100
0000
1000
0010
0000
0010
0000
0100
0001
0000
1000
0100
,
1000
0000
0010
0000
0100
0001
0000
0001
1000
0000
0010
1000
0100
0000
0010
0000
,
0001
0000
0010
0000
0100
0000
1000
0001
0000
0001
0000
0001
0100
0000
0010
0000
,
1010
0000
0001
0000
1000
0000
1100
0000
0010
0001
0100
0000
0110
0000
2002
0000
,
0000
0000
0000
0000
,
0000
0000
0000
0000
,
3003
0000
0000
0000
;

//---------------dance-single - ----------------
#NOTES:
     dance-single:
     :
     Medium:
     13:
     0.477703,0.583712,0.151613,0.084230,0.299015,397.000000,379.000000,18.000000,10.000000,0.000000,0.000000,0.477703,0.583712,0.151613,0.084230,0.299015,397.000000,379.000000,18.000000,10.000000,0.000000,0.000000:
0000
0000
0000
0000
,
0000
0000
0000
0000
,
0000
0000
0000
0000
,
0000
0000
0000
0000
,
0000
0000
0000
0000
,
1000
0000
0010
0000
0000
0100
0000
0000
0001
0000
0000
0010
0000
0000
0100
0000
,
0000
1000
0000
0000
0001
0000
0000
0100
0000
0000
0010
0000
0000
1000
0000
1000
,
0000
0000
0010
0000
0000
0100
0000
0000
0010
0000
0000
1000
0000
0000
0001
0000
,
0010
0100
0000
0000
1100
0000
0000
0101
0000
0000
1100
0000
0000
0000
0001
1000
,
0001
0000
0010
0000
0000
0100
0000
0000
1000
0000
0000
0010
0000
0000
1000
0000
,
0000
0001
0000
0000
0100
0000
0000
0010
0000
0000
1000
0000
0000
0001
0000
0001
,
0100
0000
0010
0000
0000
1000
0000
0000
0100
0000
0000
0010
0000
0000
0001
0000
,
1000
0000
1000
0000
0001
0000
0001
0000
0010
0000
0000
0010
0000
0000
0010
0000
,
0001
0000
0010
0000
0100
0000
1000
0001
0000
0000
0000
0000
0000
0000
0000
0000
,
0100
0000
0010
0000
0100
0000
0001
1000
0000
0000
0000
0000
0000
0000
0000
0000
,
0001
0010
1000
0010
0001
0001
0001
0010
,
0100
1000
0001
0000
0100
0010
1000
0000
,
0001
0000
0010
0000
0100
0000
0000
1000
0000
1000
0000
0000
0010
0000
0100
0000
,
0001
0000
1000
0000
0010
0000
0000
0100
0000
0100
0000
0000
0001
0000
0010
0000
,
0001
0000
0100
0000
1000
0000
0000
0010
0000
0010
0000
0000
1000
0000
0100
0000
,
1000
0010
0100
0010
1000
0100
0010
0001
,
0100
0000
0001
0000
0010
0000
0000
0100
0000
0100
0000
0000
1000
0000
0001
0000
,
0100
0000
0001
0000
1000
0000
0000
0010
0000
0010
0000
0000
1000
0000
0100
0000
,
0010
0000
0001
0000
0100
0000
0000
0001
0000
0001
0000
0000
1000
0000
0100
0000
,
0010
0001
0100
0010
1000
1000
0001
0100
,
0110
0000
1000
0100
0010
0000
0001
1000
,
1001
0000
0010
1000
0010
0100
0001
1000
,
1100
0000
0010
0001
0101
0000
1000
0100
,
0010
0001
0100
0001
1000
0010
1000
0100
,
0010
0000
0001
0000
1000
0000
0000
0010
0000
0010
0000
0000
0100
0000
0001
0000
,
1000
0000
0100
0000
1000
0000
0000
0001
0000
0001
0000
0000
0100
0000
0010
0000
,
1000
0000
0001
0000
0010
0000
0000
0100
0000
0100
0000
0000
1000
0000
0001
0000
,
0100
0000
0001
0000
0010
0000
0000
0001
0000
0001
0000
0000
1000
0000
0010
0000
,
2002
0000
0000
0000
,
0000
0000
0000
0000
,
0000
0000
0000
0000
,
0000
0000
0000
3003
,
0002
0000
0000
0000
,
0023
0000
0000
0000
,
0230
0000
0000
0000
,
2300
0000
0000
0000
,
3001
0000
0000
1000
0000
0000
0010
0100
,
0001
0000
0000
0010
0000
0000
0001
1000
,
0100
0000
0000
0100
0000
0000
0010
0001
,
1000
0010
0100
0001
0000
1000
0000
1000
,
0001
0000
0000
0010
0000
0000
0100
1000
,
0010
0000
0000
0100
0000
0000
0010
1000
,
0001
0000
0000
1000
0000
0000
0001
0100
,
0020
0000
0130
0000
,
0001
0000
0010
0000
0100
0000
1000
0100
0000
0000
0000
0000
0000
0000
0000
0000
,
1000
0000
0010
0000
0100
0000
0001
1000
0000
0000
0000
0000
0000
0000
0000
0000
,
0100
0000
0010
0000
0100
0000
1000
0001
0000
0000
0000
0000
0000
0000
0000
0000
,
0100
0000
0010
0000
1000
0000
0001
0010
0000
0000
0000
0000
0000
0000
0000
0000
,
1001
0010
0100
0000
0110
0010
0001
0000
,
0011
0010
0100
0000
1100
0010
1000
0000
,
0001
0001
1000
1000
0001
0001
1000
1000
,
0010
0000
0000
0010
0000
0000
0010
0000
0000
0010
0000
0000
0010
0000
0010
0000
,
0010
0000
0000
0000
0100
0001
0000
0000
,
1002
0000
0000
0000
0100
0000
0000
1000
0000
1003
0000
0000
0001
0000
0100
0000
,
0010
0000
0000
1000
0000
0001
0000
1000
0000
0001
0000
0000
0110
0000
0000
0000
,
0010
0000
1000
0000
0100
0000
0000
1000
0000
1000
0000
0000
0001
0000
0100
0000
,
0001
0000
0010
0000
0100
0000
0000
1000
0000
1000
0000
0000
1000
0000
0001
0000
,
0100
0000
0010
0000
1000
0000
0000
0100
0000
0100
0000
0000
1000
0000
0001
0000
,
0010
0000
0001
0000
0100
0000
0000
0001
0000
0001
0000
0000
1000
0000
0100
0000
,
0010
0000
0001
0000
0100
0000
0000
0010
0000
0010
0000
0000
1000
0000
0100
0000
,
1000
0000
0001
0000
0100
0000
0000
0010
0000
0010
0000
0000
0100
0000
0001
0000
,
1000
0000
0010
0000
1000
0000
0001
0100
0000
0000
0000
0000
0000
0000
0000
0000
,
0001
0000
0010
0000
0100
0000
1000
0010
0000
0000
0000
0000
0000
0000
0000
0000
,
1000
0010
0100
0000
0001
0010
0100
0000
,
1000
0000
1000
0000
0001
0000
0001
0000
0010
0000
0000
0010
0000
0000
0010
0000
,
0100
0000
0010
0000
0001
0000
0100
0001
0000
0000
0000
0000
0000
0000
0000
0000
,
1000
0000
0010
0000
1000
0000
0001
0010
0000
0000
0000
0000
0000
0000
0000
0000
,
0100
0010
0100
1000
0010
0100
0001
1000
,
0001
0010
0001
0100
0010
1000
0100
1000
,
1010
0000
0000
0101
0000
0000
1001
2002
,
0000
0000
0000
0000
,
0000
0000
0000
0000
,
3003
0000
0000
0000
;

//---------------dance-single - ----------------
#NOTES:
     dance-single:
     :
     Easy:
     9:
     0.367001,0.518855,0.320073,0.117922,0.000000,305.000000,267.000000,38.000000,14.000000,0.000000,0.000000,0.367001,0.518855,0.320073,0.117922,0.000000,305.000000,267.000000,38.000000,14.000000,0.000000,0.000000:
0000
0000
0000
0000
,
0000
0000
0000
0000
,
0000
0000
0000
0000
,
0000
0000
0000
0000
,
0000
0000
0000
0000
,
1000
0010
1000
0000
1001
0000
0000
0000
,
0001
0010
0001
0000
1001
0000
0000
0000
,
0100
0010
0000
0000
0100
0010
0000
0000
,
0100
0010
0100
0000
1001
0000
0000
0000
,
0100
0010
1000
0000
1100
0000
0000
0000
,
0100
0010
0001
0000
0011
0000
0000
0000
,
1000
0010
0000
0000
0001
0010
0000
0000
,
1000
0010
1000
0000
0101
0000
1100
0000
,
0001
0010
0001
0000
0110
0000
0000
0000
,
1000
0010
1000
0000
0110
0000
0000
0000
,
1010
0000
0101
0000
1000
0001
1000
0000
,
0010
1000
0100
0000
1100
0000
0101
0000
,
0010
0000
1000
0000
0100
0010
0001
0000
,
0100
0000
0001
0000
1000
0010
0100
0000
,
0001
0000
0010
0000
0001
0100
0010
0000
,
1000
0000
0100
0000
1000
0001
1000
0001
,
0100
0000
0010
0000
0100
0001
1000
0000
,
0001
0000
0010
0000
0100
1000
0010
0000
,
1000
0000
0001
0000
0010
0001
0100
0000
,
0010
0000
1000
0000
0100
0010
0100
0010
,
1001
0001
0010
1000
,
1100
0000
0010
0000
0001
1000
0001
0000
,
0011
0100
1010
0100
,
0011
0000
1000
0000
0001
0100
0010
0000
,
1000
0100
1000
0100
1000
0100
0000
0000
,
0001
0100
0001
0100
0001
0100
0000
0000
,
0010
1000
0100
0000
0010
0001
0100
0000
,
0010
0000
1000
0000
0001
0000
0010
0100
,
2002
0000
0000
0000
,
0000
0000
0000
0000
,
0000
0000
0000
0000
,
0000
0000
0000
3003
,
0000
0000
0000
0000
,
0000
0000
0000
0000
,
0000
0000
0000
0000
,
0000
0000
0000
0000
,
0020
0000
0000
0000
,
0230
0000
0000
0000
,
0302
0000
0000
0000
,
2003
0000
0000
0000
,
3200
0000
0000
0000
,
0320
0000
0000
0000
,
0032
0000
0000
0000
,
2003
0000
3001
0000
,
1000
0010
1000
0000
0101
0000
0000
0000
,
0001
0010
0001
0000
1100
0000
0000
0000
,
0100
0010
0100
0000
1001
0000
0000
0000
,
0001
0010
0100
0000
1100
0000
0000
0000
,
1000
0010
0000
0000
0001
0010
0000
0000
,
1000
0010
0000
0000
0001
0010
0000
0000
,
1100
0000
0101
0000
1000
0001
1000
0001
,
0010
0000
0010
0000
0010
0000
0010
0010
,
0010
0000
0000
0000
1000
0001
0000
0000
,
2002
0000
0000
3003
,
0010
0001
0010
0100
1000
0000
0110
0000
,
0001
0000
0010
0000
0001
0100
1000
0000
,
0010
0000
1000
0000
0001
0100
0010
0000
,
1000
0000
0001
0000
0010
0001
0100
0000
,
0001
0000
0010
0000
0100
1000
0010
0000
,
1000
0000
0001
0000
1000
0010
0001
0000
,
0100
0000
0010
0000
0100
0001
1000
0000
,
1000
0010
1000
0000
0101
0000
1100
0000
,
0001
0010
0001
0000
1001
0000
0011
0000
,
0100
0010
0000
0000
0100
0010
0000
0000
,
1000
0001
1000
0000
1010
0000
1100
0000
,
0001
0010
0001
0010
0001
0000
0110
0000
,
1000
0010
1000
0010
1000
0000
1001
0000
,
0100
0010
1000
0000
0100
0010
0001
0000
,
1000
0010
0100
0010
0100
0010
1000
0000
,
1010
0000
0000
0101
0000
0000
0010
2002
,
0000
0000
0000
0000
,
0000
0000
0000
0000
,
3003
0000
0000
0000
;

//---------------dance-single - ----------------
#NOTES:
     dance-single:
     :
     Beginner:
     5:
     0.198541,0.324284,0.277958,0.033692,0.000000,165.000000,132.000000,33.000000,4.000000,0.000000,0.000000,0.198541,0.324284,0.277958,0.033692,0.000000,165.000000,132.000000,33.000000,4.000000,0.000000,0.000000:
0000
0000
0000
0000
,
0000
0000
0000
0000
,
0000
0000
0000
0000
,
0000
0000
0000
0000
,
0000
0000
0000
0000
,
1000
0000
1001
0000
,
0001
0000
1001
0000
,
0100
0000
0100
0000
,
0010
0000
1001
0000
,
0100
0000
0110
0000
,
0001
0000
0110
0000
,
1000
0000
1000
0000
,
0001
0001
0001
0000
,
0110
0000
0110
0000
,
1001
0000
1001
0000
,
0010
0010
0010
0010
,
0010
0000
0000
0000
,
1000
0000
0001
0000
,
0010
0000
0100
0000
,
1000
0000
0010
0000
,
0100
0100
0100
0000
,
0001
0000
0010
0000
,
0001
0000
0100
0000
,
0010
0000
1000
0000
,
0001
0001
0001
0000
,
1001
0000
0100
0000
,
1001
0000
0010
0000
,
0110
0000
1001
0000
,
0001
0001
0001
0000
,
0010
0010
0010
0000
,
0100
0100
0100
0000
,
1000
0000
0001
0000
,
0100
0000
0010
0000
,
2002
0000
0000
0000
,
0000
0000
0000
0000
,
0000
0000
0000
0000
,
0000
0000
0000
3003
,
0000
0000
0000
0000
,
0000
0000
0000
0000
,
0000
0000
0000
0000
,
0000
0000
0000
0000
,
0001
0000
0000
0000
,
0010
0000
0000
0000
,
0100
0000
0000
0000
,
1000
0000
0000
0000
,
0010
0000
0000
0000
,
1000
0000
0000
0000
,
0001
0000
0000
0000
,
0100
0000
0100
0000
,
0001
0000
1001
0000
,
1000
0000
1001
0000
,
0010
0000
0110
0000
,
0100
0000
0110
0000
,
1001
0000
1001
0000
,
0110
0000
0110
0000
,
1000
1000
1000
1000
,
1000
0000
0001
0000
,
0100
0000
0110
0000
,
1001
0000
0000
0000
,
0100
0100
0100
0000
,
0001
0000
0010
0000
,
0001
0000
1000
0000
,
0010
0000
1000
0000
,
0100
0000
0010
0000
,
0100
0000
1000
0000
,
0001
0000
0100
0000
,
0010
0010
0010
0000
,
0100
0100
0100
0000
,
0001
0000
1000
0000
,
0100
0100
0100
0000
,
1001
0000
0110
0000
,
1001
0000
0110
0000
,
1001
0000
1001
0000
,
0001
0001
0001
0000
,
0110
0000
0110
0000
,
2002
0000
0000
0000
,
0000
0000
0000
0000
,
3003
0000
0000
0000
;

//---------------dance-single - ----------------
#NOTES:
     dance-single:
     :
     Challenge:
     18:
     0.959015,1.459279,0.673837,0.042115,1.457173,797.000000,717.000000,80.000000,5.000000,0.000000,0.000000,0.959015,1.459279,0.673837,0.042115,1.457173,797.000000,717.000000,80.000000,5.000000,0.000000,0.000000:
// measure 0
0000
0000
0000
0000
,  // measure 1
0000
0000
0000
0000
,  // measure 2
0000
0000
0000
0000
,  // measure 3
0000
0000
0000
0000
,  // measure 4
0000
0000
0000
0000
,  // measure 5
1000
0000
0010
0000
0100
0001
0000
0001
0010
0000
0010
0100
0000
0100
1000
0000
,  // measure 6
1000
0001
0000
0001
0100
0000
0100
0010
0000
0010
1000
0000
0100
1000
0001
0100
,  // measure 7
0001
0000
0010
0000
0100
1000
0000
1000
0001
0000
0001
0100
0000
0100
0010
0000
,  // measure 8
1000
1000
0000
0000
1100
0000
0000
0011
0000
0000
0101
0000
0000
1000
0100
0010
,  // measure 9
0001
0000
0010
0000
0001
0100
0000
0100
0010
0000
0010
1000
0000
1000
0001
0100
,  // measure 10
0010
1000
0000
1000
0100
0000
0100
0010
0000
0010
0001
0000
1000
0001
0100
0010
,  // measure 11
1000
0000
0010
0000
0100
0001
0000
0001
1000
0000
1000
0010
0000
0010
0100
0001
,  // measure 12
1000
0100
0010
0001
1000
0010
0100
0001
0010
0000
0001
1000
0000
0001
0100
0010
,  // measure 13
1000
0000
0000
0000
0000
0000
0010
0000
0000
0000
0000
0000
1000
0000
0000
0100
0000
0000
0010
0000
0000
0001
0000
0000
0100
0000
0000
0000
0000
0000
0001
0000
0010
0000
0100
0000
1000
0000
0000
0001
0000
0000
1000
0000
0000
0010
0000
0000
,  // measure 14
0100
0000
0000
0001
0000
0000
0010
0000
0000
0001
0000
0000
0100
0000
0000
0000
0000
0000
0010
0000
0000
1000
0000
0000
0100
0000
0000
0000
0000
0000
1000
0000
0010
0000
0100
0000
0001
0000
0000
1000
0000
0000
0001
0000
0000
0100
0000
0000
,  // measure 15
0001
0000
0000
0010
0000
0000
0100
0000
0000
1000
0000
0000
0010
0000
0000
0100
0000
0000
0001
0000
1000
0000
0001
0000
1000
0000
0000
0100
0000
0000
0010
0000
0000
0001
0000
0000
0100
0000
0010
0000
0100
0000
0010
0000
0000
1000
0000
0000
,  // measure 16
0001
0000
0010
0000
0100
0000
1000
0010
0100
0001
0010
0100
1000
0010
0100
0001
,  // measure 17
1000
0000
0010
0100
0000
0101
0000
1100
0000
0101
0000
0001
0010
0000
0100
0000
,  // measure 18
1000
0000
0001
0100
0000
0110
0000
1001
0000
0110
0000
0010
1000
0000
0100
0000
,  // measure 19
0001
0000
0010
0100
0000
1100
0000
0110
0000
0011
0000
0100
0010
0000
1000
0000
,  // measure 20
0001
0000
1000
0001
0000
0101
0000
0110
0000
0101
0000
1000
0100
0000
0010
0000
,  // measure 21
0001
0000
1000
0100
0000
0011
0000
1001
0000
0110
0000
1000
0001
0000
0100
0000
,  // measure 22
0001
0000
0010
0100
0000
1100
0000
1010
0000
1001
0000
0001
1000
0000
0100
0000
,  // measure 23
0010
0000
0001
0100
0000
0110
0000
1010
0000
1100
0000
1000
0001
0000
0100
0000
,  // measure 24
0010
0000
1000
0001
0000
0101
0000
1100
0000
0101
0000
0010
1000
0000
0100
0000
,  // measure 25
1001
0000
0010
1000
0000
1100
0000
0110
0000
0011
0000
0100
0001
0000
1000
0000
,  // measure 26
0110
0000
0001
0010
0000
1001
0000
0101
0000
0011
0000
0100
1000
0000
0001
0000
,  // measure 27
0011
0000
1000
0001
0000
1010
0000
0101
0000
1001
0000
0010
1000
0000
0100
0000
,  // measure 28
1100
0000
0010
0001
0000
1001
0000
0110
0000
1001
0000
0100
0001
0010
0100
1000
,  // measure 29
0001
0000
0000
0000
0000
0000
0100
0000
0000
0010
0000
0000
0000
0000
0000
1010
0000
0000
0000
0000
0000
0101
0000
0000
0000
0000
0000
1000
0000
0000
0001
0000
0100
0000
0010
0000
1000
0000
0000
0000
0000
0000
0001
0000
0000
0000
0000
0000
,  // measure 30
0010
0000
0000
0000
0000
0000
0100
0000
0000
1000
0000
0000
0000
0000
0000
0110
0000
0000
0000
0000
0000
0011
0000
0000
0000
0000
0000
0001
0000
0000
0100
0000
0010
0000
1000
0000
0001
0000
0000
0000
0000
0000
1000
0000
0000
0000
0000
0000
,  // measure 31
0001
0000
0000
0100
0000
0000
0010
0000
0000
0100
0000
0000
0001
0000
0000
1000
0000
0000
0100
0000
0010
0000
0100
0000
0010
0000
0000
0001
0000
0000
1000
0000
0000
0010
0000
0000
0100
0000
0001
0000
0100
0000
0001
0000
0000
1000
0000
0000
,  // measure 32
0100
0000
0010
0001
0000
1000
0000
0010
0000
0010
0000
0010
1000
0000
0100
0000
,  // measure 33
2002
0000
0000
0000
,  // measure 34
0000
0000
0000
0000
,  // measure 35
0000
0000
0000
0000
,  // measure 36
0000
0000
0000
3003
,  // measure 37
0010
0000
0000
0010
0000
0000
0010
1000
,  // measure 38
0100
0000
0000
0100
0000
0000
0100
0010
,  // measure 39
0001
0000
0000
0001
0000
0000
0001
1000
,  // measure 40
0001
0100
0010
1000
0000
1000
0000
0001
,  // measure 41
0010
0000
0000
0001
0000
0000
0100
0000
0000
0010
0000
0000
1000
0000
0100
0000
,  // measure 42
1000
0000
0000
0001
0000
0000
0100
0000
0000
0010
0000
0000
0100
0000
0001
0000
,  // measure 43
1000
0000
0000
0001
0000
0000
0010
0000
0000
0001
0000
0000
1000
0000
0100
0000
,  // measure 44
1000
0010
0100
0001
0000
0001
0000
1000
,  // measure 45
0001
0000
0000
0010
0000
0000
0001
0000
0000
0100
0000
0000
0010
0000
1000
0000
,  // measure 46
0100
0000
0000
0010
0000
0000
0100
0000
0000
0010
0000
0000
0001
0000
1000
0000
,  // measure 47
0001
0000
0000
0100
0000
0000
0010
0000
0000
1000
0000
0000
0100
0000
1000
0000
,  // measure 48
0002
0000
0000
0000
0000
0000
0000
0000
0103
0000
0000
0000
0000
0010
0000
0010
,  // measure 49
1000
0000
0010
0000
0100
0001
0100
0001
1000
0100
1000
0100
0010
0001
1000
0001
,  // measure 50
0100
0000
0010
0000
0100
0001
0100
0001
1000
0010
1000
0010
1000
0001
0100
0010
,  // measure 51
1000
0000
0010
0000
1000
0001
1000
0001
0010
0100
0010
0100
1000
0001
0100
0010
,  // measure 52
0100
0000
0010
0000
1000
0100
1000
0100
0010
0001
0010
0001
1000
0001
0010
0100
,  // measure 53
1000
0000
0000
0000
0000
0000
0010
0000
0100
0000
0001
0000
1000
0000
0000
0010
0000
0000
1000
0000
0000
0001
0000
0000
0100
0000
0000
0000
0000
0000
0010
0000
1000
0000
0001
0000
0100
0000
0000
0001
0000
0000
0010
0000
0000
0100
0000
0000
,  // measure 54
1000
0000
0010
0000
0100
0000
0001
0000
0000
1000
0000
0000
0010
0000
0000
0100
0000
0000
0010
0000
0100
0000
0001
0000
1000
0000
0000
0001
0000
0000
0100
0000
0010
0000
0100
0000
0010
0000
0000
1000
0000
0000
0001
0000
0000
0010
0000
0000
,  // measure 55
0100
0000
1000
0000
0100
0000
1000
0000
0000
0001
0000
0000
0100
0000
0010
0000
0100
0000
0010
0000
0000
1000
0000
0000
0001
0000
0010
0000
0001
0000
0010
0000
0000
0100
0000
0000
1000
0000
0001
0000
1000
0000
0001
0000
0000
0100
0000
0000
,  // measure 56
0001
0010
0100
1000
0100
0010
0001
0010
0100
1000
0100
0010
0001
0010
0100
1000
0100
0010
0001
0010
0100
1000
0100
0010
,  // measure 57
0001
0000
0000
0000
1100
0101
0000
0000
,  // measure 58
1001
0000
0010
1000
0000
0100
0000
1000
0000
0001
0000
0100
0010
0000
1000
0000
,  // measure 59
1100
0000
0001
0101
0000
1100
0000
0101
0000
0011
0000
0100
0110
0000
1001
0000
,  // measure 60
0010
0000
1000
0100
0000
1001
0000
1010
0000
0101
0000
0001
0010
0000
0100
0000
,  // measure 61
1000
0000
0001
1000
0000
0110
0000
1001
0000
0011
0000
0100
1000
0000
0001
0000
,  // measure 62
0010
0000
0100
1000
0000
1100
0000
1010
0000
1100
0000
0001
1000
0000
0010
0000
,  // measure 63
0100
0000
0001
0010
0000
0011
0000
1001
0000
1010
0000
1000
0001
0000
0100
0000
,  // measure 64
0010
0000
0100
0001
0000
0110
0000
1001
0000
1100
0000
0010
0001
0000
0100
0000
,  // measure 65
0010
0000
1000
0001
0000
0011
0000
0110
0000
1100
0000
1000
0001
0100
0010
1000
,  // measure 66
0100
0000
0010
0000
0001
1000
0010
1000
0100
0010
0100
1000
0001
0100
0010
1000
,  // measure 67
0100
0000
0010
0000
0001
1000
0001
0100
0001
0010
0100
1000
0010
1000
0001
0100
,  // measure 68
0001
0000
0010
0000
0100
1000
0010
0100
0001
0010
0100
0010
0100
1000
0010
0100
,  // measure 69
0001
0000
0010
0000
0001
1000
0010
1000
0100
0010
0100
1000
0010
0100
0001
1000
,  // measure 70
0100
0000
0000
0000
0000
0000
0010
0000
0000
0001
0000
0000
0100
0000
0000
0010
0000
0000
0100
0000
0000
0001
0000
0000
1000
0000
0000
0010
0000
0000
1000
0000
0100
0000
0010
0000
0001
0000
0000
0000
0000
0000
0100
0000
0000
0010
0000
0000
,  // measure 71
1000
0000
0000
0000
0000
0000
0010
0000
0000
1000
0000
0000
0100
0000
0000
0010
0000
0000
0001
0000
0000
0100
0000
0000
0001
0000
0000
1000
0000
0000
0010
0000
1000
0000
0001
0000
0100
0000
0000
0000
0000
0000
0010
0000
0000
1000
0000
0000
,  // measure 72
0001
0000
0000
0010
0000
0000
0001
0000
0000
0100
0000
0000
0010
0000
0000
1000
0000
0000
0100
0000
0010
0000
0001
0000
0100
0000
0000
0010
0000
0000
1000
0000
0000
0001
0000
0000
1000
0000
0010
0000
1000
0000
0100
0000
0000
0010
0000
0000
,  // measure 73
0001
0000
1000
0000
0010
0000
1000
0000
0000
0100
0000
0000
0010
0000
0100
0000
0010
0000
0001
0000
0000
1000
0000
0000
0001
0000
0100
0000
0010
0000
1000
0000
0000
0100
0000
0000
1000
0000
0001
0000
1000
0000
0010
0000
0000
0100
0000
0000
,  // measure 74
0110
0000
0001
0000
1000
0000
1010
0000
0100
0010
0001
0000
0110
0000
2002
0000
,  // measure 75
0000
0000
0000
0000
,  // measure 76
0000
0000
0000
0000
,  // measure 77
3003
0000
0000
0000
;
