#TITLE:Twist;
#ARTIST:Goldfrapp;
#BANNER:Twist.png;
#BACKGROUND:Twist-bg.png;
#JACKET:Twist-jacket.png;
#MUSIC:Twist.ogg;
#SAMPLESTART:38.668;
#SAMPLELENGTH:20;
#DISPLAYBPM:130;
#BPMS:0=130;
#BGCHANGES:;

//---------------dance-single - ----------------
#NOTES:
     dance-single:
     :
     Beginner:
     3:
     :
0000
0000
0000
0000
,
0000
0000
0000
0000
,
0000
0000
0000
0000
,
1000
0000
0000
0000
,
0001
0000
0000
0000
,
0001
0000
1000
0000
,
1000
0000
0010
0000
,
0200
0000
0000
0300
,
0100
0000
0010
0000
,
1000
0000
0001
0000
,
0100
0000
0001
0000
,
0020
0000
0000
0030
,
0010
0000
0100
0000
,
1000
0000
0100
0000
,
0010
0000
0001
0000
,
2000
0000
0000
3000
,
1000
0000
0001
0000
,
0100
0000
0001
0000
,
1000
0000
0010
0000
,
0220
0000
0000
0330
,
0000
0000
0000
0000
,
1000
0000
0000
0001
,
0000
0000
0100
0000
,
0100
0000
0000
0010
,
0000
0000
1000
1000
,
1000
0000
0001
0000
,
1000
0000
0001
0001
,
0001
0000
0100
0000
,
0010
0000
0010
0000
,
0100
0000
0000
0001
,
0000
0000
1000
0000
,
1000
0000
0000
0010
,
0000
0000
0100
0100
,
0100
0000
0010
0000
,
0100
0000
0001
0000
,
1000
0000
0001
0000
,
1000
0000
0001
0000
,
2000
0000
0000
3000
,
1000
0000
0001
0000
,
0100
0000
0100
0000
,
0010
0000
0010
0000
,
1000
0000
0001
0001
,
0001
0000
0100
0100
,
0100
0000
0010
0010
,
0010
0000
0000
0000
,
1000
1000
0000
0100
,
0100
0000
0010
0010
,
0010
0010
0000
0001
,
0001
0000
1000
1000
,
1000
0000
1000
0000
,
0010
0000
0010
0000
,
0100
0000
0001
0000
,
1000
0000
0100
0000
,
0100
0100
0100
0000
,
0100
0000
0010
0000
,
0110
0000
0000
0000
;

//---------------dance-single - ----------------
#NOTES:
     dance-single:
     :
     Easy:
     5:
     :
0000
0000
0000
0000
,
0000
0000
0000
0000
,
0000
0000
0000
0000
,
0001
0000
0000
0000
,
1000
0000
0000
0000
,
0001
0001
1000
0100
,
0010
0100
0010
0000
,
1000
0000
1000
0000
,
1000
0000
1000
0000
,
1000
1000
0001
0010
,
0100
0010
0100
0000
,
0001
0000
0001
0000
,
0001
0000
0001
0000
,
1000
0100
0100
0010
,
0001
0001
0100
0010
,
1000
0000
0100
0000
,
1000
0000
0100
0000
,
0001
0010
0010
0100
,
1000
1000
0010
0100
,
0001
0000
0010
0000
,
0001
0000
0010
0010
,
2000
3000
0002
0003
,
2000
3000
0010
0100
,
0020
0030
0200
0300
,
0020
0030
0100
0001
,
0010
0000
1000
0000
,
0100
0000
0001
0000
,
1000
0000
0001
0000
,
1000
0000
0001
0000
,
0020
0030
0200
0300
,
0020
0030
1000
0001
,
2000
3000
0002
0003
,
2000
3000
0001
0100
,
1000
0000
0010
0000
,
0001
0000
0100
0000
,
0010
0000
0100
0000
,
0010
0000
1000
0100
,
0001
0000
0010
0000
,
1000
0000
0100
0000
,
0010
0000
0100
0000
,
0001
0001
1000
1000
,
0002
0000
0003
0000
,
2000
0000
3000
0000
,
0020
0000
0000
0030
,
0200
0000
0000
0300
,
0002
0003
2000
3000
,
0002
0003
0100
0010
,
0200
0300
0020
0030
,
0200
0300
0010
1000
,
0100
0000
0001
0000
,
0010
0000
1000
0000
,
0002
0000
1003
0000
,
2000
0000
3001
0000
,
0010
0000
0000
0000
;

//---------------dance-single - ----------------
#NOTES:
     dance-single:
     :
     Medium:
     8:
     :
0000
0000
0000
0000
,
0000
0000
0000
0000
,
0000
0000
0000
0000
,
0000
0000
0000
0000
,
0000
0000
0000
0000
,
0010
1000
0100
0001
,
0100
0000
1000
0020
0000
0000
0130
0000
,
0001
1000
0010
0000
0100
0000
0001
0002
,
0000
1000
0100
1003
,
0010
0001
0100
1000
,
0100
0000
0001
0020
0000
0000
0130
0000
,
1000
0001
0010
0000
0100
0000
1000
2000
,
0000
0001
0100
3001
,
0001
0100
0001
0000
0100
0000
0010
0000
,
1000
0100
0010
0001
,
0001
0100
0001
0000
1000
0100
1000
0000
,
1001
0000
0101
0000
,
1000
0100
1000
0000
0010
0000
0100
0000
,
0001
0010
0100
1000
,
1000
0100
1000
0000
0001
0100
0001
0000
,
1001
0000
1100
0000
,
0101
0000
1000
0100
0000
0000
0011
0000
,
1000
0010
0000
0000
0001
0000
0010
0000
,
1100
0000
0001
0100
0000
0000
1010
0000
,
0001
0010
0000
0000
1000
0000
0100
0000
,
0010
0001
0200
0000
0010
0000
0010
0000
,
0310
0000
0100
0000
0001
1000
0100
1000
,
0000
0010
0100
0001
,
0010
0100
1000
0100
,
0101
0000
1000
0100
0000
0000
0011
0000
,
1000
0010
0000
0000
0001
0000
0010
0000
,
1100
0000
0001
0100
0000
0000
1010
0000
,
0001
0010
0000
0000
1000
0000
0100
0000
,
0010
0001
0200
0000
0010
0000
0010
0000
,
0310
0000
0100
0000
0001
1000
0100
1000
,
0000
0100
0010
0001
,
0100
0010
1000
0100
,
0010
0001
2000
0000
0100
0000
0100
0000
,
3100
0000
0010
0000
0001
0100
0010
0100
,
0000
0100
0010
1000
,
0100
0010
0001
0100
,
0010
1000
0000
0020
0000
0000
0130
0000
,
0010
0000
1000
0002
0000
0000
0103
0000
,
0010
0001
0000
0020
0000
0000
0130
0000
,
0010
0000
0001
2000
0000
0000
3000
0000
,
0110
0000
1000
0100
0000
0000
1001
0000
,
0010
0001
0000
0000
1000
0000
0100
0000
,
0110
0000
0001
0100
0000
0000
1001
0000
,
0010
1000
0000
0000
0100
0000
0010
0000
,
0001
0100
0020
0000
1000
0000
1000
0000
,
1030
0000
0100
0000
0010
1000
0001
1000
,
0000
0010
0100
0001
,
0100
0000
1000
0000
0010
0001
0100
0000
,
0010
0001
0200
0000
0010
0000
0010
0000
,
0310
0000
0100
0000
0001
1000
0100
1000
;

//---------------dance-single - ----------------
#NOTES:
     dance-single:
     :
     Hard:
     10:
     :
0000
0000
0000
0000
,
0000
0000
0000
0000
,
0000
0000
0000
0000
,
2000
0000
3002
0000
,
0103
0000
0001
0000
0100
0001
0010
0000
,
0002
0100
2003
0100
,
3002
0000
0100
0003
2000
0000
3010
0000
,
1010
1100
1010
1001
,
0011
0000
0101
0000
0001
0001
1000
0100
,
2000
0100
3002
0010
,
2003
0010
3002
0103
,
0101
1100
0101
0110
,
1010
0011
1010
1001
,
0210
0301
0210
1300
,
0210
0301
0210
1300
,
0001
0100
0010
0100
0001
0010
0001
0010
,
0100
1000
0100
0010
0100
1000
0010
1000
,
1002
0103
2001
3010
,
0102
1003
2100
3001
,
0100
0010
0100
0001
0100
0010
1000
0100
,
1100
0000
0000
0000
0000
0000
0001
1000
,
1010
0011
0110
1100
,
0101
0000
0110
0000
1001
0100
0110
0000
,
0011
1010
0110
1100
,
0101
0000
1001
0000
0011
0100
0110
0000
,
0002
0203
2300
3020
,
0032
0000
1003
0000
0001
0100
0010
1000
,
0100
2000
0100
3002
,
0100
2003
0100
3001
,
0101
1100
0110
0011
,
1010
0000
0110
0000
1001
0010
0110
0000
,
1100
0101
0110
0011
,
1010
0000
1001
0000
1100
0010
0110
0000
,
2000
3020
0032
0203
,
2300
0000
3001
0000
1000
0100
0010
0001
,
0100
2000
0010
3002
,
0010
0000
1003
0000
1001
0100
1001
0000
,
0200
0302
0023
2030
,
3200
0000
0310
0000
0001
0100
0010
1000
,
0001
2000
0100
3002
,
0100
0000
1003
0100
0010
0001
0100
0010
,
1001
0000
0110
0000
1000
1000
1000
0000
,
0011
0000
1010
0000
0100
0100
0100
0000
,
1001
0000
0010
0010
0000
0100
0100
0000
,
1001
0000
0001
0100
1000
0100
0001
0010
,
0011
1010
0110
0101
,
1100
0000
0110
0000
1001
0100
0110
0000
,
1010
0011
0110
0101
,
1100
0000
1001
0000
1010
0100
0110
0000
,
2000
3200
0302
0023
,
2030
0000
3001
0000
0010
0001
0100
0001
,
0010
0002
0010
2003
,
0010
0000
3001
0000
1001
0100
1001
0000
,
2000
3200
0302
0023
,
2030
0000
3010
0000
0100
0001
0010
0100
,
1000
0000
0000
0000
;

//---------------dance-single - ----------------
#NOTES:
     dance-single:
     :
     Challenge:
     13:
     :
0000
0000
0000
0000
,
0000
0000
0000
0000
,
0000
0000
0000
0000
,
1001
0000
0100
0010
0100
0001
0000
0010
,
0100
0000
1000
0001
1000
0010
0000
0100
,
0001
0010
0001
0100
0010
1000
0100
0010
,
0001
0100
0001
0010
0001
0100
1000
0000
,
1001
0000
0010
1000
0100
0010
0000
0001
,
1000
0000
0010
1000
0001
0010
0000
0100
,
1000
0010
1000
0001
0010
0100
1000
0010
,
1000
0001
0010
0100
0000
1000
0100
0001
,
1001
0000
0001
0010
0001
1000
0100
0010
,
0001
0000
0010
0001
0100
0010
0000
1000
,
0100
0010
0001
0100
0001
1000
0100
0010
,
0100
1000
0010
0100
0001
0010
1000
0000
,
1100
0000
0010
0001
0100
0001
1000
0000
,
0101
0000
0010
2000
0000
3001
0100
0000
,
0001
0010
0001
0100
1000
0010
1000
0001
,
0010
1000
0100
0010
0100
1000
0001
0000
,
0011
1000
0100
1000
0010
0100
0001
0000
,
0110
0001
1000
0001
0010
0100
1000
0001
,
0010
0000
0001
0100
0001
0000
1000
0000
0100
0000
0000
0000
1010
0000
0001
1000
,
0001
0000
0100
0000
0010
0000
0000
0000
1000
0100
1000
0000
0001
0000
0000
0000
,
0101
0000
0010
1000
0010
0000
0100
0000
0001
0000
0000
0000
1100
0000
0001
0010
,
0001
0000
0100
0000
1000
0000
0000
0000
0010
1000
0010
0000
0100
0000
0000
0000
,
0011
0100
1100
0010
0101
0010
1100
0001
,
1001
0000
1000
0010
1000
0100
0001
0010
,
1000
0100
0010
0001
0100
0010
1000
0000
,
0001
0000
0010
0000
1000
0000
0001
0000
1000
0100
1000
0000
0010
0000
0100
0000
,
0001
0000
0010
0100
0010
0000
0001
0000
1000
0000
0000
0000
0110
0000
0001
0010
,
0001
0000
0100
0000
1000
0000
0000
0000
0010
0100
0010
0000
1000
0000
0000
0000
,
1100
0000
0010
0001
0010
0000
0100
0000
1000
0000
0000
0000
1001
0000
0001
0100
,
0001
0000
0010
0000
0100
0000
0000
0000
1000
0001
1000
0000
0010
0000
0000
0000
,
1010
0001
0101
0010
1100
1000
1010
0100
,
1001
0000
0010
1000
0100
0001
1000
0001
,
0010
0000
0001
0000
0100
0000
0001
0000
1000
0000
0100
0010
0100
0000
1000
0000
,
0001
0010
0001
0100
1000
0010
0001
0000
,
0011
1000
1010
0100
0101
0010
1100
0001
,
1001
0000
0010
1000
0100
1000
0010
0001
,
0100
0000
0001
0000
0010
0000
1000
0000
0100
0000
0010
0001
0010
0000
0100
0000
,
1000
0000
0001
0100
0001
0100
0001
0100
0001
0000
0010
0000
0100
0000
1000
0000
,
1002
0000
0010
1000
1003
0000
0100
0010
,
0012
0000
0100
0010
0013
1000
0001
0100
,
2010
0000
3001
0012
0100
0000
1003
0001
,
0120
0000
1030
0100
0001
0100
0010
0100
,
1000
0000
0001
0010
0001
0000
0100
0000
0010
0000
0000
0000
1001
0000
0100
0001
,
0100
0000
0010
0000
1000
0000
0000
0000
0001
0010
0001
0000
1000
0000
0000
0000
,
1100
0000
0100
0010
0100
0000
1000
0000
0001
0000
0000
0000
1010
0000
1000
0100
,
1000
0000
0010
0000
0001
0000
0000
0000
0100
0010
0100
0000
0001
0000
0000
0000
,
0011
1000
0101
0010
1010
1000
1100
0100
,
1001
0000
0100
0001
0010
1000
0001
0100
,
0010
0000
1000
0000
0100
0000
0010
0000
0001
0000
1000
0010
1000
0000
0001
0000
,
0100
0001
0010
1000
0001
0010
0100
0000
,
1100
0010
0101
0010
1001
0100
0110
1000
,
1001
0000
0100
0001
1000
0010
0100
0001
;

//---------------dance-double - ----------------
#NOTES:
     dance-double:
     :
     Easy:
     4:
     :
00000000
00000000
00000000
00000000
,
00000000
00000000
00000000
00000000
,
00000000
00000000
00000000
00000000
,
00010000
00000000
00000000
00000000
,
00001000
00000000
00000000
00000000
,
00010000
00010000
00001000
00010000
,
00000100
00001000
00000100
00000000
,
00000020
00000000
00000000
00000030
,
00000002
00000000
00000000
00000003
,
00000100
00000100
00001000
00010000
,
00100000
10000000
00100000
00000000
,
02000000
00000000
00000000
03000000
,
00020000
00000000
00000000
00030000
,
10000000
01000000
01000000
00010000
,
00001000
00001000
00000100
00000001
,
00000020
00000000
00000000
00000030
,
00000200
00000000
00000000
00000300
,
00001000
00000001
00000001
00000100
,
00001000
00001000
00010000
01000000
,
20000000
00000000
00000000
30000000
,
00020000
00000000
00000000
00030000
,
00200000
00300000
20000000
30000000
,
02000000
03000000
00010000
00001000
,
00000200
00000300
00000002
00000003
,
00000020
00000030
00001000
00010000
,
00100000
00000000
10000000
00000000
,
01000000
00000000
00010000
00000000
,
00001000
00000000
00000100
00000000
,
00000001
00000000
00001000
00000000
,
00000020
00000030
00000002
00000003
,
00000200
00000300
00001000
00010000
,
02000000
03000000
20000000
30000000
,
00200000
00300000
00010000
00001000
,
00000010
00000000
00000001
00000000
,
00000100
00000000
00001000
00000000
,
00010000
00000000
01000000
00000000
,
10000000
00000000
00100000
01000000
,
10000000
00000000
00100000
00000000
,
00010000
00000000
00001000
00000000
,
00000010
00000000
00000001
00000000
,
00001000
00001000
00000010
00000010
,
00000200
00000000
00000300
00000000
,
00002000
00000000
00003000
00000000
,
00020000
00000000
00000000
00030000
,
02000000
00000000
00000000
03000000
,
00200000
00300000
20000000
30000000
,
02000000
03000000
00010000
00001000
,
00000200
00000300
00000002
00000003
,
00000020
00000030
00001000
00010000
,
01000000
00000000
10000000
00000000
,
00100000
00000000
00010000
00000000
,
00002000
00000000
00013000
00000000
,
00020000
00000000
00031000
00000000
,
00000020
00000000
00000000
00000030
,
00000200
00000000
00000000
00000300
;

//---------------dance-double - ----------------
#NOTES:
     dance-double:
     :
     Medium:
     8:
     :
00000000
00000000
00000000
00000000
,
00000000
00000000
00000000
00000000
,
00000000
00000000
00000000
00000000
,
00000000
00000000
00000000
00000000
,
00000000
00000000
00000000
00000000
,
10000000
00010000
10000000
01000000
,
00100000
00000000
00010000
00100000
00000000
00000000
00001000
00000000
,
00000100
00000000
00000010
00000000
00001000
00000100
00000001
00000100
,
00000000
00000000
00000000
00000000
,
00001000
00010000
00001000
00000100
,
00000010
00000000
00001000
00000001
00000000
00000000
00000000
00000000
,
00001000
00000000
00010000
00000000
00100000
10000000
01000000
00100000
,
00000000
00000000
00000000
00000000
,
00001000
00000010
00000100
00000000
00000001
00000000
00000100
00000000
,
00001000
01000000
00100000
01000000
,
10010000
00000000
01100000
00000000
,
00110000
00000000
00011000
00000000
,
00001000
00000010
00000100
00000000
00000001
00000000
00000100
00000000
,
00001000
01000000
00100000
01000000
,
10010000
00000000
01100000
00000000
,
00110000
00000000
00011000
00000000
,
00000100
00000001
00000100
00000000
00000100
00000000
00001000
00010000
,
00001000
00001000
00100000
00000000
,
00100000
10000000
00100000
00000000
00100000
00000000
01000000
10000000
,
01000000
01000000
00010000
00000000
,
00001000
00000010
00000001
00000100
00001000
00000000
00000100
00000000
,
00000001
00000000
00000000
00000000
00000010
00001000
00010000
01000000
,
00000000
10000000
00100000
01000000
,
00001000
00010000
00000010
00000010
,
00000100
00000001
00000100
00000000
00000100
00000000
00001000
00010000
,
00001000
00001000
00100000
00000000
,
00100000
10000000
00100000
00000000
00100000
00000000
01000000
10000000
,
01000000
01000000
00010000
00000000
,
00001000
00000010
00000001
00000100
00001000
00000000
00000100
00000000
,
00000001
00000000
00000000
00000000
00000010
00001000
00010000
01000000
,
00000000
10000000
01000000
00010000
,
00001000
00000100
00000001
00000100
,
00001000
00010000
00100000
10000000
01000000
00000000
10000000
00000000
,
00100000
00000000
00000000
00000000
00001000
00000100
00000001
00000100
,
00000000
00000001
00000100
00001000
,
00010000
01000000
10000000
00100000
,
01000000
00010000
00000000
01100000
00000000
00000000
00001000
00000000
,
00010000
00000100
00000000
00011000
00000000
00000000
00000010
00000000
,
00001000
00000001
00000000
00000101
00000000
00000000
00000010
00000000
,
00000100
00001000
00000000
00000110
00000000
00000000
00000001
00000000
,
00000100
00000001
00000100
00000000
00000100
00000000
00001000
00010000
,
00001000
00001000
00100000
00000000
,
00100000
10000000
00100000
00000000
00100000
00000000
01000000
10000000
,
01000000
01000000
00010000
00000000
,
00001000
00000010
00000001
00000100
00001000
00000000
00000100
00000000
,
00000001
00000000
00000000
00000000
00000010
00001000
00010000
01000000
,
00000000
10000000
00100000
01000000
,
00010000
00100000
00001000
00010000
,
01000000
10000000
00100000
00010000
00001000
00000000
00010000
00000000
,
00100000
00000000
00000000
00000000
10000000
01000000
00010000
00001000
;

//---------------dance-double - ----------------
#NOTES:
     dance-double:
     :
     Hard:
     11:
     :
00000000
00000000
00000000
00000000
,
00000000
00000000
00000000
00000000
,
00000000
00000000
00000000
00000000
,
00000000
00000000
00000000
00000000
,
00000000
00000000
00000000
00000000
00000000
00000000
00000000
10000000
,
00100000
00000000
00010000
00000000
00100000
10000000
00000000
00010000
,
00000000
10000000
00000000
00010000
00100000
01000000
10000000
01000000
,
00020000
00000000
00031000
00000000
00010000
00001000
00000100
00001000
,
00020000
00000000
00130000
00000000
00010000
00001000
00000010
00000001
,
00000100
00000000
00001000
00000100
00000000
00000001
00000000
00001000
,
00000000
00000001
00000000
00001000
00000010
00000100
00000001
00000100
,
00002000
00000000
00013000
00000000
00001000
00010000
01000000
00010000
,
00002000
00000000
00003010
00000000
00001000
00010000
00100000
10000000
,
01000000
00000000
01000000
10000000
00100000
00000000
01000000
00010000
,
00100000
00000000
00100000
00010000
01000000
00000000
00001000
00010000
,
00000100
00000000
00001000
00000010
00000000
00001000
00000100
00000010
,
00000001
00000000
00000100
00000001
00000000
00000010
00000001
00000100
,
00000010
00000000
00000010
00001000
00000100
00000000
00000100
00010000
,
00001000
00000000
00010000
00001000
01000000
00000000
01000000
00010000
,
00100000
00000000
01000000
10000000
00000000
01000000
00100000
00010000
,
01000000
00000000
00100000
01000000
10010000
01000000
10010000
01000000
,
00200000
00000000
00310000
00002000
00000000
00000000
00003100
00000010
,
00001000
00000002
00000000
00001003
00000100
00000010
00001000
00000010
,
00000002
00000000
00001003
00000020
00000000
00000130
00001000
00010000
,
00100000
00020000
00000000
00031000
00000100
00001000
00010000
00100000
,
01000000
00010000
10000000
01000000
00100000
10000000
00010000
00100000
,
01000000
00010000
10000000
01000000
00100000
10000000
00100000
00010000
,
02000000
00000000
03001000
00020000
00000000
00031000
00000000
00000100
,
00000200
00000000
00000301
00000002
00000000
00001003
00001000
00000001
,
00000020
00000000
00001030
00020000
00000000
00000000
01030000
00100000
,
00010000
20000000
00000000
30010000
01000000
00100000
00010000
00100000
,
20000000
00000000
30010000
00200000
00000000
01300000
00010000
00001000
,
00000010
00002000
00000000
00013000
01000000
00010000
00001000
00000010
,
00000100
00001000
00000001
00000100
00000010
00000001
00001000
00000010
,
00000100
00001000
00000001
00000100
00000010
00000001
00000010
00001000
,
00000200
00000000
00010300
00002000
00000000
00013000
00000000
01000000
,
02000000
00000000
13000000
10000000
00010000
00010000
01000000
00100000
,
00010000
00100000
10000000
01000000
00010000
00001000
00000100
00000001
,
00000010
00001000
00000010
00000001
00000100
00001000
00010000
02000000
,
00000000
00000000
10000000
00000000
00010000
00000000
10000000
03000000
,
00100000
10000000
01000000
10000000
00010000
01000000
00001000
00010000
,
00000100
00001000
00001000
00000100
00000011
00000000
00000001
00001000
,
00000100
00000100
00010000
00011000
00000000
00010000
01000000
10000000
,
00100000
01000000
01000000
00100000
10010000
00000000
10000000
01000000
,
00010000
00010000
00001000
00001100
00000000
00000001
00001000
00000100
,
00000020
00000000
00001030
00020000
00000000
00000000
01030000
00100000
,
00010000
20000000
00000000
30010000
01000000
00100000
00010000
00100000
,
20000000
00000000
30010000
00200000
00000000
01300000
00010000
00001000
,
00000010
00002000
00000000
00013000
01000000
00010000
00001000
00000010
,
00000100
00001000
00000001
00000100
00000010
00000001
00001000
00000010
,
00000100
00001000
00000001
00000100
00000010
00000001
00000010
00001000
,
00000100
00000010
00000100
00001000
00000020
00000000
00010030
00001000
,
01000000
00100000
01000000
00020000
00000000
00000000
01030000
00100000
,
00010000
00100000
10000000
01000000
00010000
00001000
00000100
00000001
,
00000010
00001000
00000010
00000001
00000100
00001000
00010000
00001000
;
