#TITLE:Turning the motor over;
#SUBTITLE:;
#ARTIST:Delaware feat. Jeff Coote;
#TITLETRANSLIT:;
#SUBTITLETRANSLIT:;
#ARTISTTRANSLIT:;
#GENRE:;
#CREDIT:;
#BANNER:Turning the motor over-bn.png;
#BACKGROUND:Turning the motor over-bg.png;
#LYRICSPATH:;
#CDTITLE:;
#MUSIC:Turning the motor over.ogg;
#OFFSET:1.011000;
#SAMPLESTART:36.742001;
#SAMPLELENGTH:20.000000;
#LASTBEATHINT:0.008900;
#SELECTABLE:YES;
#DISPLAYBPM:178.000000;
#BPMS:0.000000=178.000000
;
#STOPS:
;
#BGCHANGES:;
#KEYSOUNDS:;
#ATTACKS:;

//---------------dance-single - ----------------
#NOTES:
     dance-single:
     :
     Hard:
     11:
     0.604292,0.620063,0.417782,0.496116,0.000000,324.000000,292.000000,32.000000,38.000000,0.000000,0.000000,0.604292,0.620063,0.417782,0.496116,0.000000,324.000000,292.000000,32.000000,38.000000,0.000000,0.000000:
0000
0000
0000
0000
,
0000
0000
0000
0000
,
0000
0000
0000
0000
,
0000
0000
0000
0000
,
0000
0000
0000
0000
,
0000
0000
0000
0000
0000
0000
0001
0001
,
0010
0100
2000
0000
3010
0100
0010
1000
,
0100
0001
0000
0010
0010
0200
0000
1300
,
0001
0000
0200
0000
0310
0100
0001
0000
,
1000
0001
0000
0011
0000
1010
0000
1001
,
0100
0000
0010
1000
0001
0000
0010
0100
,
1000
0001
0000
0100
0000
0010
0100
0001
,
0000
0000
1000
0100
0001
0000
0010
0100
,
1000
0010
0100
0002
0000
1003
0001
1001
,
0000
0000
0010
1000
0100
0000
0010
0001
,
1000
0010
0000
1000
0000
0001
0000
0020
,
0000
0100
0130
0000
1000
0001
0000
1000
,
0000
0010
0100
0001
0000
1000
1000
0001
,
1000
0110
0001
0110
,
1000
0001
1000
0200
0000
0310
0001
2000
,
0000
0000
3001
0100
0000
0020
0000
2030
,
0000
3100
0010
0000
0001
1000
0001
0001
,
0100
1001
0010
1001
,
0100
0001
0010
0100
0000
1000
0000
0100
,
2100
0000
0001
3001
0100
0010
1000
0001
,
0010
0100
0010
0001
0000
1000
1000
0000
,
0000
0010
0000
0100
0000
0010
0000
0100
,
0000
0010
0000
0100
0000
0001
0101
0000
,
1001
0000
0200
0000
0302
0000
1003
0100
,
0010
0001
0100
0010
1000
0100
0001
0000
,
0100
0000
0110
0000
2010
0000
3001
1000
,
0010
1000
0100
0010
0001
0100
1000
0000
,
1100
0000
0020
0000
0032
0000
1003
0001
,
1000
0010
0100
0001
0010
0100
1000
0000
,
0010
0000
0110
0000
0102
0000
1003
0001
,
0010
0100
1000
0020
0000
0230
0000
0301
,
1001
0000
0020
0000
1000
0000
0130
0100
,
0001
0000
1000
0002
0000
0010
0013
0000
,
1000
0001
0000
0001
1000
0100
0010
0000
,
0001
0100
0010
0100
0001
1000
0100
0100
,
0110
0000
0001
1000
0010
1000
0100
0010
,
0002
0000
2003
0010
0000
0100
3100
0001
,
0011
0000
0100
1000
0001
0000
0100
0010
,
1000
0100
0010
0001
0000
0100
0100
0010
,
2000
0000
3100
0010
0002
0000
0013
0001
,
2000
0010
3010
0100
0002
1000
1003
0000
,
1100
0011
0101
1010
,
0001
0010
0100
1000
0000
1010
0100
0100
,
0002
0000
0013
0100
2000
0000
3001
1000
,
0020
0100
0130
0010
2000
0001
3001
0000
,
0011
1100
0101
1010
,
0001
1000
0000
1001
0000
0110
0000
1001
,
0200
0000
0301
1000
0200
0000
0310
0001
,
2000
0010
3010
1000
0002
0010
0013
0100
,
2000
0000
3001
0000
0200
0000
0310
1000
,
0200
0010
0310
0001
2000
0010
3010
0110
;

//---------------dance-single - ----------------
#NOTES:
     dance-single:
     :
     Medium:
     9:
     0.421512,0.510640,0.313336,0.522227,0.000000,226.000000,202.000000,24.000000,40.000000,0.000000,0.000000,0.421512,0.510640,0.313336,0.522227,0.000000,226.000000,202.000000,24.000000,40.000000,0.000000,0.000000:
0000
0000
0000
0000
,
0000
0000
0000
0000
,
0000
0000
0000
0000
,
0000
0000
0000
0000
,
0000
0000
0000
0000
,
0000
0000
0000
0000
0000
0000
0001
1000
,
0001
0000
0010
0000
0001
0000
1000
0010
,
0100
0001
0000
0000
0010
0200
0000
1300
,
0001
0000
0100
0000
0001
1000
0001
0000
,
0010
0100
0000
1100
0000
0101
0000
1100
,
0000
0000
0001
1000
0001
0000
0000
0010
,
0100
1000
0000
0010
0000
0200
0000
0000
,
0300
0000
0001
0010
0001
0000
0000
1000
,
0010
0100
0000
0002
0000
1003
0000
1001
,
0000
0000
0010
0100
0001
0000
0000
1000
,
0100
0010
0000
0001
0000
1000
0000
0002
,
0000
0000
0013
0000
0001
1000
0000
0100
,
0000
1100
0000
0000
0000
1000
0010
0100
,
0001
0000
1000
0000
,
0001
0100
0001
0100
0000
0000
0000
0020
,
0000
0000
1030
0001
0000
1000
0000
0200
,
0000
0310
0000
0000
0000
0000
0001
1000
,
0100
0000
0010
0000
,
0100
0000
1000
0001
0000
0000
0000
0201
,
0000
0000
0310
0100
0000
0010
0000
2000
,
0000
0000
0001
0001
0000
0000
3100
0000
,
0000
0001
0000
0001
0000
0001
0000
0001
,
0000
0001
0000
0001
0000
1000
0001
0000
,
0000
0000
1100
0000
0101
0000
0000
0010
,
1000
0100
0000
1000
0000
0001
0000
0000
,
0000
0000
0200
0000
0020
0000
0330
1000
,
0010
1000
0000
0001
0000
0001
0000
0000
,
1001
0000
0200
0000
0002
0000
0303
1000
,
0001
0100
0000
0010
0000
0010
0000
0000
,
0000
0000
1010
0000
0101
0000
0000
1000
,
0001
2000
0000
3200
0000
0320
0000
0032
,
0000
0000
0103
0000
0010
0000
0000
1000
,
0001
0000
0000
0011
0000
0000
0110
0000
,
0000
1100
0000
0000
0001
0100
2000
0000
,
0000
3020
0000
0000
2030
0000
3002
0000
,
1003
0100
0000
0010
0000
0000
0000
0001
,
2000
0000
3020
0000
1030
0000
0100
0010
,
0001
0000
0000
0100
0010
0000
0000
0000
,
2020
0000
0000
0030
0000
0001
3001
1000
,
0020
1030
0200
0301
,
2000
3010
0002
0103
,
0110
1001
0110
1001
,
1000
0100
0000
0010
0000
0001
0000
0100
,
0020
1030
0200
0301
,
2000
3010
0002
0103
,
0101
1100
0101
1100
,
0001
1000
0000
1000
0000
0001
0000
1000
,
0200
0310
0002
1003
,
0020
0000
0130
0000
0002
0000
1003
0001
,
2000
3010
2000
3100
,
0020
0000
0031
0000
2000
0000
3010
0110
;

//---------------dance-single - ----------------
#NOTES:
     dance-single:
     :
     Easy:
     6:
     0.274169,0.329003,0.078334,0.235002,0.000000,147.000000,141.000000,6.000000,18.000000,0.000000,0.000000,0.274169,0.329003,0.078334,0.235002,0.000000,147.000000,141.000000,6.000000,18.000000,0.000000,0.000000:
0000
0000
0000
0000
,
0000
0000
0000
0000
,
0000
0000
0000
0000
,
0000
0000
0000
0000
,
0000
0000
0000
0000
,
0000
0000
0000
0000
,
0000
0001
1000
0010
,
1000
0000
0100
0000
,
0010
0001
0100
0001
,
1000
0010
0100
0001
,
1000
0001
1000
0000
,
0100
0100
0001
0000
,
0010
0100
0100
0000
,
1000
0001
1000
0000
,
0010
1000
0010
0000
,
0001
1000
0100
0000
,
0010
0010
0001
1000
,
0001
0000
0000
0000
,
0100
0000
0010
0000
,
1000
0100
0001
0000
,
0010
0001
0010
0100
,
1000
0000
0000
0000
,
0001
0000
1000
0000
,
0010
1000
0100
0000
,
1000
1000
0001
0001
,
0100
0010
0100
0001
,
2000
0000
0000
0000
,
0000
0000
3000
1001
,
0010
0100
0100
0000
,
0001
0010
0001
0000
,
1000
0100
0100
0000
,
0010
0001
0100
1000
,
0010
0100
0100
0000
,
0001
1000
0001
0000
,
1000
0100
0010
0000
,
0001
0001
1000
1000
,
1001
0100
0000
0000
,
0010
1000
0100
0001
,
0000
0110
0000
1001
,
0000
0100
0001
1000
,
0100
0100
0100
0000
,
1000
0001
0000
0010
,
0100
0000
0110
0000
,
0002
0000
0000
1003
,
0020
0030
2000
3000
,
0002
0003
0200
0300
,
0010
0010
1000
0100
,
1000
0010
0100
0001
,
2000
3000
0200
0300
,
0020
0030
0002
0003
,
0100
0100
0010
1000
,
0100
0010
0001
1000
,
0002
0003
0020
0030
,
0200
0300
2000
3000
,
0020
0030
2000
3000
,
0200
0300
0020
0030
,
0110
0000
0000
0000
;

//---------------dance-single - ----------------
#NOTES:
     dance-single:
     :
     Beginner:
     2:
     0.154803,0.219335,0.026111,0.000000,0.000000,83.000000,81.000000,2.000000,0.000000,0.000000,0.000000,0.154803,0.219335,0.026111,0.000000,0.000000,83.000000,81.000000,2.000000,0.000000,0.000000,0.000000:
// measure 0
0000
0000
0000
0000
,  // measure 1
0000
0000
0000
0000
,  // measure 2
0000
0000
0000
0000
,  // measure 3
0000
0000
0000
0000
,  // measure 4
0000
0000
0000
0000
,  // measure 5
0000
0000
0000
0000
,  // measure 6
0000
0001
0000
0001
,  // measure 7
0000
0001
0000
0000
,  // measure 8
0100
0000
0010
0000
,  // measure 9
1000
0000
0001
0000
,  // measure 10
1000
0000
0010
0000
,  // measure 11
0100
0000
0010
0000
,  // measure 12
0000
0000
1000
0000
,  // measure 13
0100
0000
1000
0000
,  // measure 14
0000
0000
0001
0000
,  // measure 15
0010
0000
0100
0000
,  // measure 16
1000
0000
1000
0000
,  // measure 17
0001
0000
0000
0000
,  // measure 18
1000
0000
0001
0000
,  // measure 19
1000
0000
0000
0000
,  // measure 20
0100
0000
0100
0000
,  // measure 21
0100
0000
0000
0000
,  // measure 22
0010
0000
0100
0000
,  // measure 23
0010
0000
0000
0000
,  // measure 24
0001
0000
0001
0000
,  // measure 25
0001
0000
0000
0000
,  // measure 26
0000
0000
0000
0000
,  // measure 27
0000
0000
0000
0000
,  // measure 28
1001
0000
0000
0000
,  // measure 29
1000
0000
0001
0000
,  // measure 30
0100
0000
0010
0000
,  // measure 31
0010
0000
0000
0000
,  // measure 32
0000
0000
1000
0000
,  // measure 33
0100
0000
1000
0000
,  // measure 34
0000
0000
0001
0000
,  // measure 35
0100
0000
0010
0000
,  // measure 36
0010
0000
0000
0000
,  // measure 37
1000
0000
0000
0000
,  // measure 38
0001
0000
0001
0000
,  // measure 39
0010
0000
0100
0000
,  // measure 40
1000
0000
0001
0000
,  // measure 41
1000
1000
0000
0000
,  // measure 42
0010
0000
0000
0000
,  // measure 43
0100
0000
0000
0000
,  // measure 44
0001
0000
0001
0000
,  // measure 45
1000
0000
1000
0000
,  // measure 46
0010
0000
1000
0000
,  // measure 47
0001
0000
0100
0000
,  // measure 48
0010
0000
0010
0000
,  // measure 49
0100
0000
0100
0000
,  // measure 50
0001
0000
1000
0000
,  // measure 51
0100
0000
0010
0000
,  // measure 52
0001
0000
0001
0000
,  // measure 53
1000
0000
1000
0000
,  // measure 54
0010
0000
0010
0000
,  // measure 55
0100
0000
0100
0000
,  // measure 56
0110
0000
0000
0000
;
