#TITLE:Turkey In The Straw;
#ARTIST:Hisayoshi Aoki;
#BANNER:Turkey In The Straw-bn.png;
#BACKGROUND:Turkey In The Straw-bg.png;
#JACKET:Turkey In The Straw-jacket.png;
#MUSIC:Turkey In The Straw.ogg;
#SAMPLESTART:56.168;
#SAMPLELENGTH:20;
#DISPLAYBPM:85:170;
#BPMS:0=170,144=85,152=170;
#BGCHANGES:;

//---------------dance-single - ----------------
#NOTES:
     dance-single:
     :
     Beginner:
     3:
     :
0000
0000
0000
0000
,
0000
0000
0000
0000
,
1000
0000
0000
0000
,
0001
0000
0000
0000
,
1000
0000
0000
0000
,
0001
0001
0001
0000
,
0010
0000
0001
0000
,
0010
0000
0100
0000
,
1000
0000
0010
0000
,
1000
0000
0001
0000
,
0100
0000
0010
0000
,
0100
0000
0001
0000
,
0010
0000
0001
0000
,
1000
0000
0100
0000
,
1000
0000
1000
0000
,
0001
0000
0001
0000
,
0100
0000
0100
0000
,
0010
0000
0010
0000
,
1001
0000
1001
0000
,
0110
0000
0110
0000
,
0001
0000
0010
0000
,
1000
1000
1000
0000
,
0100
0000
0010
0000
,
0001
0000
0100
0000
,
1000
0000
0010
0000
,
1000
0000
0001
0000
,
0010
0000
0001
0000
,
1000
0000
0010
0000
,
1000
0000
0100
0000
,
0001
0001
0001
0000
,
0010
0000
0001
0000
,
1000
0000
0010
0000
,
0100
0000
0010
0000
,
1000
0000
0001
0000
,
1001
0000
1001
0000
,
0110
0000
0110
0000
,
1000
0000
0001
0000
,
0010
0010
0010
0000
,
0001
0001
0001
0000
,
1000
1000
1000
0000
,
0010
0010
0010
0000
,
1000
1000
1000
0000
,
0100
0100
0100
0000
,
0010
0010
0010
0000
,
0001
0000
0100
0000
,
1000
1000
1000
0000
,
0001
0000
0001
0000
,
1000
0000
1000
0000
,
0010
0000
0010
0000
,
0100
0000
0100
0000
,
1001
0000
1001
0000
,
0110
0000
0110
0000
,
0010
0000
1000
0000
,
0100
0100
0100
0000
,
0110
0000
0000
0000
,
1001
0000
0000
0000
,
1001
0000
0000
0010
,
0000
0000
0110
0000
;

//---------------dance-single - ----------------
#NOTES:
     dance-single:
     :
     Easy:
     7:
     :
0000
0000
0000
0000
,
0000
0000
0000
0000
,
1000
0100
0000
0100
,
0001
0100
0000
0100
,
1000
0010
0000
0010
,
0001
0001
0001
0100
,
0010
1000
0100
0010
,
0001
0100
1000
0010
,
1000
1000
0001
0001
,
0010
0001
0100
0010
,
1000
1000
0100
1000
,
0010
0100
0001
0010
,
0001
0100
0010
1000
,
0100
0100
0200
0300
,
1000
0010
0002
0003
,
0010
0001
0200
0300
,
0001
0010
2000
3000
,
0100
1000
0002
0003
,
0100
0100
0010
0010
,
0100
0010
0100
0001
,
0010
0010
0001
0100
,
1000
0010
2000
3001
,
1000
0100
0010
0001
,
0010
0100
1000
0010
,
0100
0100
0100
0010
,
1000
0001
0001
0010
,
0001
0010
1000
0100
,
0010
0010
0100
1000
,
0010
1000
0100
0001
,
0010
0001
2000
3000
,
1010
0000
0001
0100
,
0101
0000
1000
0010
,
0000
0110
0000
0000
0001
0000
1000
0000
,
1100
0001
0200
0300
,
0010
0010
0100
0100
,
0010
0100
0010
1000
,
1001
0110
1000
0100
,
0001
0001
0002
0013
,
0001
0010
1000
0100
,
0010
0100
0010
0001
,
0100
0100
0100
0100
,
0001
0010
1000
0001
,
0100
0001
0010
0001
,
0010
0100
1000
0010
,
1000
1000
0100
0100
,
1000
0100
0002
0003
,
0011
0001
0200
0300
,
1010
0001
0200
0300
,
0110
0001
2000
3000
,
1100
1000
0020
0030
,
1000
1000
0001
0001
,
1000
0001
1000
0010
,
1000
0100
0010
0001
,
0100
0100
0200
0300
,
0110
0001
0000
0001
,
1001
1000
0000
1000
,
1100
0000
0011
0101
,
0000
1001
0110
0000
;

//---------------dance-single - ----------------
#NOTES:
     dance-single:
     :
     Medium:
     9:
     :
0000
0000
0000
0000
,
0000
0000
0000
0000
,
1000
0000
0010
0000
1000
0100
0001
0000
,
0001
0000
0010
0000
0001
0100
1000
0000
,
1000
0000
0100
0000
1000
0010
0001
0000
,
1001
0000
0110
0000
1001
0000
0001
0100
,
0010
0000
1000
0100
0010
0000
0001
0100
,
0010
0000
1000
0100
0001
0000
0010
0100
,
1000
0000
1000
0000
1000
0010
0100
0001
,
0010
0000
0010
0000
0010
0000
0001
1000
,
0010
0000
1000
0100
0010
0000
0001
1000
,
0100
0000
1000
0010
0001
0000
0100
0010
,
1000
0010
0100
0000
0001
0010
0100
0000
,
1000
0001
0100
0001
2000
0000
3000
0000
,
0010
1000
0000
0001
0200
0000
0300
0000
,
0001
0010
0000
0100
2000
0000
3000
0000
,
0001
1000
0000
0010
0200
0000
0300
0000
,
1000
0100
0000
0010
0002
0000
0003
0100
,
0010
0010
1001
1001
,
1100
0000
0101
0000
1100
0000
0001
0100
,
0010
0100
0001
0000
1000
0100
0010
0000
,
0001
0100
0010
0100
0002
0000
0013
0001
,
1000
0000
0010
1000
0001
0000
1000
0100
,
0010
0000
0001
0100
0010
0000
1000
0001
,
0100
0000
0100
0000
0100
0010
1000
0001
,
0010
0000
0010
0000
0010
0000
0001
1000
,
0100
0000
0010
0001
1000
0000
0100
1000
,
0010
0000
1000
0100
0001
0000
0010
0001
,
0010
0100
1000
0000
0010
1000
0001
0000
,
1000
0100
0010
0001
0200
0000
0300
0000
,
0010
1000
0000
0100
1000
0000
0001
0000
,
0010
0001
0000
0100
0010
0000
1000
0001
,
0000
0110
0000
0001
1000
0000
0010
0000
,
1000
0100
0000
0010
0002
0000
0003
0100
,
0010
0010
1001
1001
,
1100
0000
0101
0000
1100
0000
0010
0100
,
0002
0000
0000
0000
0013
0000
0000
0001
1000
0000
0010
0000
0100
0000
0001
0000
,
1000
0000
1000
0000
0001
0000
0001
0000
0200
0000
0000
0000
0310
0000
1000
0001
,
1000
0000
0010
1000
0100
0000
0010
0001
,
1000
0000
0001
0100
0010
0000
1000
0001
,
0010
0000
0010
0000
0010
0001
1000
0100
,
1000
0000
0010
0100
0001
0000
0010
0001
,
1000
0000
0010
1000
0100
0000
1000
0010
,
0001
0000
0010
0100
1000
0000
0001
0100
,
0010
0100
0001
0000
1000
0100
0010
0000
,
0100
0010
0001
1000
0020
0000
0030
0000
,
0100
0010
0000
1000
0002
0000
0003
0000
,
0010
0001
0000
0100
2000
0000
3000
0000
,
1000
0001
0000
0100
0020
0000
0030
0000
,
0100
0001
0000
0010
2000
0000
3000
0100
,
0010
0010
1001
1001
,
0101
0000
1100
0000
0101
0000
0010
1000
,
0001
1000
0100
0000
0010
0001
0100
0000
,
0010
1000
0100
1000
0002
0000
0003
0000
,
0110
0000
0001
0000
1000
0010
0100
0000
,
1001
0000
0010
0000
0001
0100
1000
0000
,
0101
0000
0000
0001
1000
0000
0100
0000
,
0010
1001
0110
0000
;

//---------------dance-single - ----------------
#NOTES:
     dance-single:
     :
     Hard:
     13:
     :
0000
0000
0000
0000
,
0000
0000
0000
0000
,
1000
0010
0100
0010
1000
0100
0001
0000
,
0001
0100
0010
0100
0001
0010
1000
0000
,
1000
0100
0010
0100
1000
0010
0001
0000
,
0001
0100
0010
1000
0001
0000
0001
0100
,
1000
0100
0010
0100
1000
0100
0010
0100
,
1000
0100
0001
0100
0010
0000
1000
0001
,
0011
0000
1100
0000
0011
0001
0100
0010
,
1010
0000
0101
0000
1010
0000
1000
0100
,
0001
0100
1000
0100
0010
0100
0001
0100
,
1000
0100
0001
0100
1000
0000
0010
0100
,
1000
0100
0010
0100
0001
0010
1000
0010
,
0100
0001
0100
1000
0010
0000
1001
0000
,
0001
0001
0100
0010
2000
0001
3001
0000
,
1000
1000
0010
0100
0002
1000
1003
0000
,
0010
0010
0001
1000
0020
0100
0130
0000
,
0100
0000
0100
0000
0001
0000
1000
0000
0020
0000
0100
0000
0130
0000
0001
1000
,
0001
0001
0011
0011
,
1100
0000
0101
0000
1100
0000
0010
0100
,
0001
0100
0010
0100
1000
0100
0001
0100
,
1000
0100
0010
1000
0002
0000
0013
0100
,
1000
0010
0100
0010
0001
0010
1000
0010
,
0001
0010
0100
1000
0100
0000
0100
0001
,
0011
0000
1100
0000
0011
0100
0010
1000
,
1010
0000
0101
0000
1010
0000
1000
0100
,
0001
0100
0010
0100
0001
0100
1000
0100
,
0001
0100
0010
0100
1000
0000
0001
1000
,
0010
0001
0010
1000
0100
0001
0100
1000
,
0001
0100
1000
0100
0002
0010
0013
0000
,
0001
0001
0100
0010
1000
0100
0001
0000
,
1000
1000
0010
0100
0001
0010
0001
1000
,
0000
0110
0000
0001
1000
0010
0100
0000
,
0010
0000
0010
0000
1000
0000
0001
0000
0200
0000
0000
0000
0310
0000
1000
0001
,
2000
0000
0000
0000
3010
0000
0000
0100
0001
0000
0000
0001
0100
0000
0000
0100
,
0010
0000
1010
0000
0011
0000
1000
0001
,
0020
0000
0130
0000
0110
0000
0001
0100
1000
0100
0001
0000
0010
0100
1000
0000
,
0002
0000
0203
0000
2300
0000
3200
0000
0302
1000
1003
0000
1001
0000
0010
0001
,
1000
0010
0001
0010
1000
0010
0001
0010
,
1000
0100
0001
0100
1000
0000
0010
0100
,
0101
0000
1100
0000
0101
0010
1000
0001
,
0010
1000
0010
0001
0100
0000
0010
1000
,
0001
0100
1000
0100
0001
0100
1000
0100
,
0001
0010
1000
0010
0001
0000
0100
0010
,
1000
0100
0001
0100
0010
1000
0010
0001
,
0100
1000
0100
0001
0200
0010
0310
0000
,
0010
0010
0001
1000
0020
0100
0130
0000
,
0001
0001
1000
0010
2000
0100
3100
0000
,
1000
1000
0100
0010
0002
1000
1003
0000
,
0100
0000
0100
0000
0010
0000
1000
0000
0002
0000
0010
0000
0013
0000
0001
1000
,
0001
0001
0101
0101
,
1001
0000
1010
0000
1100
0000
0010
0100
,
0001
0010
1000
0010
0001
0100
1000
0100
,
0010
0001
0010
1000
0200
0010
0310
0000
,
0110
0001
1000
0010
1000
0100
0001
0000
,
1001
0010
0001
0100
0001
0010
1000
0000
,
1010
0000
0001
0100
1010
0000
0101
0000
,
0010
1001
0110
0000
;
