#VERSION:0.83;
#TITLE:Truly Madly Deeply;
#SUBTITLE:;
#ARTIST:Savage Garden;
#TITLETRANSLIT:;
#SUBTITLETRANSLIT:;
#ARTISTTRANSLIT:;
#GENRE:;
#ORIGIN:;
#CREDIT:;
#BANNER:Truly Madly Deeply-bn.png;
#BACKGROUND:Truly Madly Deeply-bg.png;
#PREVIEWVID:;
#JACKET:Truly Madly Deeply-jacket.png;
#CDIMAGE:;
#DISCIMAGE:;
#LYRICSPATH:;
#CDTITLE:;
#MUSIC:Truly Madly Deeply.ogg;
#OFFSET:0.000000;
#SAMPLESTART:44.595001;
#SAMPLELENGTH:20.000000;
#SELECTABLE:YES;
#DISPLAYBPM:84.000000;
#BPMS:0.000=84.090;
#STOPS:;
#DELAYS:;
#WARPS:;
#TIMESIGNATURES:0.000=4=4;
#TICKCOUNTS:0.000=4;
#COMBOS:0.000=1;
#SPEEDS:0.000=1.000=0.000=0;
#SCROLLS:0.000=1.000;
#FAKES:;
#LABELS:0.000=Song Start;
#BGCHANGES:;
#KEYSOUNDS:;
#ATTACKS:
;

//---------------dance-single - ----------------
#NOTEDATA:;
#CHARTNAME:;
#STEPSTYPE:dance-single;
#DESCRIPTION:;
#CHARTSTYLE:;
#DIFFICULTY:Hard;
#METER:10;
#RADARVALUES:0.341151,0.350249,0.167164,0.103483,0.107463,300.000000,279.000000,21.000000,13.000000,0.000000,0.000000,0.000000,0.000000,0.000000,0.341151,0.350249,0.167164,0.103483,0.107463,300.000000,279.000000,21.000000,13.000000,0.000000,0.000000,0.000000,0.000000,0.000000;
#CREDIT:;
#DISPLAYBPM:84.000000;
#NOTES:
0000
0000
0000
0000
,
0000
0000
0000
0000
,
0000
0000
0000
0000
,
0000
0000
0000
0000
,
0110
1000
1000
0001
0001
0010
0010
0100
,
0100
1000
1000
0001
1000
0010
0100
0000
,
1001
0100
0100
0001
0001
1000
1000
0010
,
0010
1000
1000
0100
1000
0001
0100
0010
,
1010
0001
0001
1000
1000
0100
0100
0010
,
0010
0001
0001
1000
0001
0100
0010
1000
,
0101
0010
0010
1000
1000
0100
0100
0001
,
0001
0010
0010
0100
1000
0001
0100
0010
,
1000
1000
0100
0020
0000
0031
0000
0100
,
0010
0010
1000
0002
0000
0103
0000
0001
,
0100
0100
0010
2000
0000
3001
1000
0100
,
1001
0000
0000
0000
0010
0000
0100
0000
0000
0001
1000
0000
1000
0000
0100
0000
,
1100
0000
0101
0000
1000
0010
1000
0001
,
0010
0100
1000
0002
0000
0103
0100
0010
,
1010
0000
0000
0000
0011
0000
0001
1000
0001
0000
1000
0000
0100
0000
0010
0000
,
0001
0000
0100
0000
0010
0000
1000
0000
0100
0010
0100
0000
1000
0000
0001
0000
,
0110
0000
1001
0000
0100
0001
1000
0100
,
0010
0000
0100
0000
1000
0000
0001
0100
0001
0000
1000
0000
1000
0000
0010
0000
,
1010
0000
0000
0000
0101
0000
0100
0010
0100
0000
0001
0000
1000
0000
0001
0000
,
0010
0000
0100
0000
1000
0000
0001
0000
0000
1000
0001
0000
0100
0000
0010
0000
,
1001
0000
0000
0000
1010
0000
0001
0100
0001
0000
1000
0000
0100
0000
0010
0000
,
0001
0000
0100
0010
1000
0000
0100
0010
0001
0000
1000
0000
1000
0000
0001
0000
,
0110
0001
0100
1000
0001
0010
0001
0100
,
0010
0000
1000
0000
0100
0000
1000
0001
1000
0000
0010
0000
0100
0000
0001
0000
,
0010
0100
1100
0000
0101
0010
1000
0001
,
0010
0000
0001
0000
0100
0000
0010
1000
0010
0100
0001
0000
1000
0000
0001
0000
,
0011
0000
0000
0000
1010
0000
0001
1000
0100
0000
0010
0000
0100
0000
1000
0000
,
0001
0000
1000
0000
0010
0000
1000
0000
0001
0010
0100
0000
1000
0000
0001
0100
,
0002
0000
0000
0000
1003
0000
0010
0100
0010
0000
1000
0000
0001
0000
0000
0000
,
2000
0000
0000
0000
3002
0000
0000
0000
2003
0000
0000
0000
3100
0010
0000
0010
,
0001
1000
0010
0200
0000
0301
0010
1000
,
0100
0000
0010
0000
0001
0000
0100
0000
0000
0010
1000
0000
0001
0000
1000
0200
,
0000
0000
0310
0001
0000
0000
2000
0000
0000
0000
3010
0000
0100
0000
0001
0000
,
1000
0000
0001
0000
0010
0000
0100
0000
0000
1000
0010
0000
0100
0000
0001
2000
,
0000
0000
3100
0010
0000
0000
0002
0000
0000
0000
0103
0000
0001
0000
1000
0000
,
0010
0000
1000
0000
0100
0000
0010
0001
1000
0000
0000
0001
0000
0100
0000
0000
,
0110
0000
0000
0000
;

//---------------dance-single - ----------------
#NOTEDATA:;
#CHARTNAME:;
#STEPSTYPE:dance-single;
#DESCRIPTION:;
#CHARTSTYLE:;
#DIFFICULTY:Medium;
#METER:7;
#RADARVALUES:0.225160,0.254726,0.167164,0.111443,0.000000,198.000000,177.000000,21.000000,14.000000,0.000000,0.000000,0.000000,0.000000,0.000000,0.225160,0.254726,0.167164,0.111443,0.000000,198.000000,177.000000,21.000000,14.000000,0.000000,0.000000,0.000000,0.000000,0.000000;
#CREDIT:;
#DISPLAYBPM:84.000000;
#NOTES:
0000
0000
0000
0000
,
0000
0000
0000
0000
,
0000
0000
0000
0000
,
0000
0000
0000
0000
,
0110
1000
0010
0001
,
0100
0000
0010
0000
1000
0001
1000
0000
,
1001
0100
0001
0010
,
1000
0000
0001
0000
1000
0010
0100
0001
,
0000
0010
0100
0000
1000
0000
0001
0000
,
0100
0000
0010
0000
1000
0100
1000
0100
,
0000
0010
0001
0000
1000
0000
0001
0000
,
0100
0000
0010
0000
1000
0001
1000
0000
,
0001
0200
0000
0320
0000
1030
0000
0001
,
1000
0100
1000
0002
0000
0103
0000
0010
,
1000
0002
0000
2003
0000
3100
0010
0002
,
0000
0000
0000
0003
0000
1000
1000
0001
,
1001
0000
0110
0000
1000
0010
0100
0001
,
0000
1000
0010
0100
0000
0001
0001
0100
,
0101
0000
1100
0000
1000
0001
0010
0100
,
0000
1000
0001
1000
0000
0010
0010
0100
,
0110
0000
1001
0000
0110
0000
1000
0001
,
0000
0010
0001
0100
0000
1000
1000
0001
,
0011
0000
1100
0000
0100
0010
0000
0001
,
0000
1000
0010
1000
0000
0001
0001
1000
,
1100
0000
0101
0000
1000
0010
0100
0010
,
0000
1000
0001
0010
0000
0100
0100
1000
,
1001
0000
0000
0001
0100
0010
1000
0001
,
0000
0000
0000
0000
0010
0001
0100
1000
,
0000
0000
1010
0000
0101
0000
1000
0001
,
0000
0010
0100
0000
0000
1000
1000
0001
,
0101
0000
1100
0000
0100
0010
0000
0001
,
0000
0000
0000
0000
2000
0000
3010
0200
,
0002
0000
0000
0303
,
0020
0032
2003
3002
,
0103
0000
0010
1000
0000
1001
0000
0110
,
0000
1000
0100
1000
0000
0001
0001
0000
,
0100
0010
1000
0100
,
0010
0000
0001
1000
0000
0010
0010
0000
,
0100
0001
1000
0100
,
0010
0000
0001
0100
0020
0000
1030
0000
,
0110
0000
0000
0000
;

//---------------dance-single - ----------------
#NOTEDATA:;
#CHARTNAME:;
#STEPSTYPE:dance-single;
#DESCRIPTION:;
#CHARTSTYLE:;
#DIFFICULTY:Easy;
#METER:4;
#RADARVALUES:0.110306,0.143284,0.047761,0.007960,0.000000,97.000000,91.000000,6.000000,1.000000,0.000000,0.000000,0.000000,0.000000,0.000000,0.110306,0.143284,0.047761,0.007960,0.000000,97.000000,91.000000,6.000000,1.000000,0.000000,0.000000,0.000000,0.000000,0.000000;
#CREDIT:;
#DISPLAYBPM:84.000000;
#NOTES:
0000
0000
0000
0000
,
0000
0000
0000
0000
,
0000
0000
0000
0000
,
0000
0000
0000
0000
,
0110
0000
0001
0000
,
1000
0000
0010
0100
,
0001
0000
0100
0000
,
0001
0000
1000
0100
,
0010
0000
0001
0000
,
1000
0000
0001
1000
,
0100
0000
0010
0000
,
0001
0000
0100
0000
,
1001
0000
0010
0000
,
0110
0000
1000
0000
,
0001
0100
0010
1000
,
1001
0000
0000
0000
,
0100
0100
1000
0001
,
0100
0000
0000
0000
,
0010
0010
1000
0001
,
1000
0000
0000
0000
,
0001
0001
1000
0010
,
0100
0000
0000
0000
,
0010
0010
0100
0010
,
1000
0000
0000
0000
,
0001
0001
1000
0010
,
1000
0000
0000
0000
,
1001
0000
0100
0001
,
1000
0000
0010
0000
,
1000
1000
0100
0010
,
0001
0000
0000
0000
,
1000
0001
0100
0010
,
1000
0000
0001
0000
,
0200
0000
0000
0300
,
0010
0010
1000
0001
,
1000
0000
0000
0000
,
0100
0000
0000
0000
,
0010
0010
0001
0001
,
1000
0001
0100
0000
,
0010
0010
1000
1000
,
0100
0010
0001
0000
,
0110
0000
0000
0000
;

//---------------dance-single - ----------------
#NOTEDATA:;
#CHARTNAME:;
#STEPSTYPE:dance-single;
#DESCRIPTION:;
#CHARTSTYLE:;
#DIFFICULTY:Beginner;
#METER:2;
#RADARVALUES:0.064819,0.095522,0.039801,0.000000,0.000000,57.000000,52.000000,5.000000,0.000000,0.000000,0.000000,0.000000,0.000000,0.000000,0.064819,0.095522,0.039801,0.000000,0.000000,57.000000,52.000000,5.000000,0.000000,0.000000,0.000000,0.000000,0.000000,0.000000;
#CREDIT:;
#DISPLAYBPM:84.000000;
#NOTES:
// measure 0
0000
0000
0000
0000
,  // measure 1
0000
0000
0000
0000
,  // measure 2
0000
0000
0000
0000
,  // measure 3
0000
0000
0000
0000
,  // measure 4
0110
0000
0000
0000
,  // measure 5
0001
0000
0000
0000
,  // measure 6
1000
0000
0000
0000
,  // measure 7
0010
0000
0000
0000
,  // measure 8
1000
0000
0000
0000
,  // measure 9
0100
0000
0000
0000
,  // measure 10
0010
0000
0000
0000
,  // measure 11
0001
0000
0000
0000
,  // measure 12
0100
0000
0000
0000
,  // measure 13
0010
0000
0000
0000
,  // measure 14
0100
0000
0000
0000
,  // measure 15
1001
0000
0000
0000
,  // measure 16
0001
0000
0001
0000
,  // measure 17
0001
0000
0000
0000
,  // measure 18
1000
0000
1000
0000
,  // measure 19
1000
0000
0000
0000
,  // measure 20
0010
0000
0010
0000
,  // measure 21
0010
0000
0000
0000
,  // measure 22
0100
0000
0100
0000
,  // measure 23
0100
0000
0000
0000
,  // measure 24
0010
0010
0010
0000
,  // measure 25
1000
0000
0000
0000
,  // measure 26
1001
0000
0001
0000
,  // measure 27
0100
0000
0010
0000
,  // measure 28
1000
1000
1000
0000
,  // measure 29
0001
0000
0000
0000
,  // measure 30
1000
0000
0100
0000
,  // measure 31
0010
0000
0001
0000
,  // measure 32
1001
0000
0000
0000
,  // measure 33
0100
0000
0100
0000
,  // measure 34
0001
0000
0000
0000
,  // measure 35
1000
0000
0000
0000
,  // measure 36
0001
0000
0100
0000
,  // measure 37
0001
0000
0000
0000
,  // measure 38
1000
0000
0100
0000
,  // measure 39
1000
0000
0000
0000
,  // measure 40
0110
0000
0000
0000
;
