#TITLE:Trim;
#ARTIST:kobo;
#BANNER:Trim-bn.png;
#BACKGROUND:Trim-bg.png;
#JACKET:Trim-jacket.png;
#MUSIC:Trim.ogg;
#SAMPLESTART:76.24;
#SAMPLELENGTH:20;
#DISPLAYBPM:170;
#BPMS:0=170.616,4=169.987,168=170.018,199.75=170.012,264=170.168;
#BGCHANGES:;

//---------------dance-single - ----------------
#NOTES:
     dance-single:
     :
     Beginner:
     2:
     :
0000
0000
0000
0000
,
0000
0000
0000
0000
,
0000
0000
0000
0000
,
0000
0000
0000
0000
,
0000
0000
0000
0000
,
0000
0000
0000
0000
,
0000
0000
0000
0000
,
0000
0000
0000
0000
,
0000
0000
0000
0000
,
0000
0000
0000
0000
,
1001
0000
0000
0000
,
0000
0000
0000
0000
,
0000
0000
0000
0000
,
0010
0010
0010
0000
,
0110
0000
0000
0000
,
0000
0000
0000
0000
,
0000
0000
0000
0000
,
0001
0000
1000
0000
,
0010
0000
0000
0000
,
1000
0000
0000
0000
,
0100
0000
0000
0000
,
1000
0000
0001
0000
,
1000
0000
0000
0000
,
0001
0000
0000
0000
,
0100
0000
0000
0000
,
0010
0000
0100
0000
,
0110
0000
0000
0000
,
0001
0001
0000
0000
,
1000
1000
0000
0000
,
0010
0010
0000
0000
,
1000
1000
0000
0000
,
0100
0100
0000
0000
,
0010
0010
0000
0000
,
0001
0001
0000
0000
,
1001
0000
0000
0000
,
0100
0000
0010
0000
,
0100
0000
0000
0000
,
0001
0001
0000
0000
,
1000
1000
0000
0000
,
0001
0001
0000
0000
,
0010
0010
0000
0000
,
0100
0100
0000
0000
,
1000
0000
0000
0000
,
0000
0000
0000
0000
,
0001
0000
0000
0000
,
0000
0000
0000
0000
,
0100
0000
0000
0000
,
0000
0000
0000
0000
,
0000
0000
0000
0000
,
0010
0010
0000
0000
,
1001
0000
0000
0000
,
1000
0000
0001
0000
,
0100
0000
0000
0000
,
0010
0000
1000
0000
,
0001
0000
0000
0000
,
0010
0000
0000
0000
,
0100
0100
0000
0000
,
1000
0000
0001
0000
,
0110
0000
0000
0000
,
1000
1000
0000
0000
,
0001
0001
0000
0000
,
0010
0000
0001
0000
,
0100
0100
0000
0000
,
0001
0000
0000
0000
,
1000
0000
0000
0000
,
0010
0000
1000
0000
,
0100
0000
0000
0000
,
0000
0000
0000
0000
,
0000
0000
0000
0000
,
0000
0000
0000
0000
,
1000
0000
0000
0000
,
0000
0000
0000
0000
,
0000
0000
0000
0000
,
0001
0000
0000
0000
,
0010
0000
0000
0000
;

//---------------dance-single - ----------------
#NOTES:
     dance-single:
     :
     Easy:
     6:
     :
0000
0000
0000
0000
,
0000
0000
0000
0000
,
0000
0000
0000
0000
,
0000
0000
0000
0000
,
0000
0000
0000
0000
,
0000
0000
0000
0000
,
0000
0000
0000
0000
,
0000
0000
0000
0000
,
0000
0000
0000
0000
,
0000
0000
0000
0000
,
1001
0010
0200
0000
,
0302
0000
2003
0000
,
3002
0000
0013
0000
,
0001
0100
1000
0000
,
1001
0010
0200
0000
,
0302
0000
2003
0000
,
3002
0010
1000
0103
,
0010
1000
0100
0001
,
1001
0100
0000
0010
,
0000
1000
0000
0001
,
0000
0010
0000
0001
,
0100
0010
1000
0001
,
1001
0010
1000
0100
,
0000
0001
0000
1000
,
0000
0010
0000
0100
,
0001
0010
0000
1000
,
0110
0001
0100
1000
,
0000
0010
1000
0100
,
0000
0001
0010
1000
,
0110
0001
1000
0010
,
0000
0100
0001
0010
,
0000
0001
1000
0100
,
0000
0010
0000
0001
,
1000
0010
1000
0100
,
0110
1001
0100
0001
,
1001
0110
0000
1000
,
0001
0010
0000
0100
,
1000
0010
0000
0001
,
0000
1000
0001
0100
,
0010
0100
0000
0001
,
0000
1000
0000
0001
,
1000
0010
0100
0001
,
0110
0001
2000
0000
,
3002
0000
0203
0000
,
0310
0010
1000
0001
,
0100
0100
1001
0000
,
0120
0000
1000
0000
,
1000
0000
1000
0000
,
1030
0001
1000
0010
,
1000
1001
0000
0200
,
0301
0010
0000
0001
,
1000
0100
1000
0001
,
0010
0100
0000
1000
,
0001
0100
0010
0010
,
0010
1000
0000
0001
,
0000
1000
0100
0001
,
1000
0001
0010
0100
,
1000
0001
1001
0000
,
0110
0002
0000
0000
,
1003
0001
0010
0100
,
1000
0010
0000
0100
,
0000
0001
0010
1000
,
0100
1000
0001
0100
,
0010
0100
0001
0001
,
1000
0001
0000
1000
,
0000
0001
0010
1000
,
0100
0010
0002
0000
,
2003
0000
3020
0000
,
0230
0000
0000
0000
,
0010
0010
0010
0300
,
0001
1000
0002
0000
,
0023
0000
0230
0000
,
2300
0000
0000
0000
,
3001
0010
1000
0100
,
0010
0000
0000
0000
;

//---------------dance-single - ----------------
#NOTES:
     dance-single:
     :
     Medium:
     10:
     :
0000
0000
0000
0000
,
0000
0000
0000
0000
,
0000
0000
0000
0000
,
0000
0000
0000
0000
,
0000
0000
0000
0000
,
0000
0000
0000
0000
,
0000
0000
0000
0000
,
0000
0000
0000
0000
,
0000
0000
0000
0000
,
0000
0000
0000
0000
,
1001
0000
0010
1000
0002
0000
0000
0000
,
0023
0000
0230
0000
,
2300
0000
0002
3003
,
1001
0000
1000
0010
0000
0001
0100
0000
,
0000
0000
0001
1000
0020
0000
0000
0000
,
0230
0000
0302
0000
,
1003
0010
1000
0000
0100
0000
0010
0001
,
1000
0000
0001
0100
0000
0010
1000
0000
,
1001
0000
0010
0001
0010
0100
1000
0000
,
0010
0000
1000
0000
0100
1000
0001
0000
,
0010
0000
0001
0000
1000
0001
1000
0010
,
0100
0000
0001
1000
0000
0001
0100
0000
,
0001
0000
0010
1000
0100
1000
0001
0000
,
0010
0000
0001
0000
1000
0001
0100
0000
,
0110
0000
1000
0000
0010
0100
0001
1000
,
0001
0000
0010
0000
0001
0100
1000
0000
,
1100
0000
0101
0000
1000
0001
1000
0000
,
1010
0000
0101
0000
0010
0001
0100
0000
,
0110
0000
1001
0000
0010
1000
0001
0010
,
0100
0000
1000
0001
0000
1000
0001
0000
,
0101
0000
0011
0000
0010
0001
1000
0000
,
0101
0000
1010
0000
1000
0100
0001
0000
,
0011
0000
1001
0000
0010
0001
1000
0100
,
0010
0000
0001
0000
1000
0001
0100
0010
,
0100
0000
0001
0010
0001
1000
0100
0000
,
1001
0000
1000
0010
0000
0100
0001
0000
,
0011
0000
1010
0000
0100
0001
0010
0100
,
1000
0000
0001
1000
0000
0001
0100
0000
,
0110
0000
1010
0000
0100
1000
0001
0000
,
0011
0000
0110
0000
0010
0001
1000
0000
,
1100
0000
0101
0000
1000
0010
1000
0001
,
0100
0000
1001
0000
0010
0100
0001
0000
,
0012
0000
1000
0000
1000
0000
1003
0001
,
0100
0000
0010
0000
0010
1000
0100
2000
,
0000
3001
0100
0000
0001
0000
1000
0010
,
1000
0001
1100
0000
,
0102
0010
0010
0010
,
1000
1000
1000
1000
,
0103
0001
0010
0000
0001
0000
1000
0010
,
0100
0000
0001
1000
0000
0001
0020
0000
,
0031
0000
1001
0000
0010
1000
0100
0000
,
0010
0001
0100
0000
1000
0010
0001
0000
,
0100
0010
1000
0000
0001
1000
0100
0000
,
0010
0000
0001
0000
1000
1000
1000
0001
,
1000
0000
1010
0000
0100
0001
0010
0100
,
2000
0000
3001
0010
0001
0100
0100
0000
,
0010
1000
0100
0000
0010
0001
0100
0000
,
0001
0010
0001
0010
1000
1000
0000
0100
,
1000
0000
0102
0000
0013
0001
0100
0000
,
0001
0010
0100
1000
0010
0100
0001
0000
,
1000
0001
0100
0000
0001
1000
0100
0000
,
0010
0000
0001
0100
0001
0010
0010
0010
,
0100
0000
1100
0000
0001
1000
0001
0000
,
1000
0000
0110
0000
0001
1000
0001
0000
,
0010
0100
1000
0000
0001
0100
0001
0000
,
1000
0010
1000
0010
0100
0001
0100
0001
,
0010
0000
0001
0100
2000
0000
0000
0000
,
3020
0000
0230
0000
,
0302
0000
1000
0100
,
1003
0000
0010
0100
0001
0000
1000
0000
,
0001
0000
0010
0100
2000
0000
0000
0000
,
3002
0000
0203
0000
,
0320
0000
0000
0000
,
1030
0001
1000
0010
0000
0100
0001
0100
,
0010
0000
0000
0000
;

//---------------dance-single - ----------------
#NOTES:
     dance-single:
     :
     Hard:
     13:
     :
0000
0000
0000
0000
,
0000
0000
0000
0000
,
0000
0000
0000
0000
,
0000
0000
0000
0000
,
0000
0000
0000
0000
,
0000
0000
0000
0000
,
0000
0000
0000
0000
,
0000
0000
0000
0000
,
0000
0000
0000
0000
,
0000
0000
0000
0000
,
1001
0000
0000
0000
0010
1000
0010
1000
0010
0000
0000
0000
0100
0000
0000
0000
,
0001
0010
1000
0000
0001
0100
1000
0000
,
0010
0100
1020
0130
,
0201
0000
1000
1000
0000
0001
0301
0000
,
0100
0000
0000
0000
0001
0010
0001
0010
0001
0000
0000
0000
1000
0000
0000
0000
,
0010
1000
0100
0000
0010
0001
0100
0000
,
0010
1000
0100
0010
0001
1000
0010
0000
,
0101
0000
1010
0001
0000
0100
0100
0000
,
1001
0000
0000
0000
1000
0100
1000
0100
1000
0000
0001
0000
0100
0000
0000
0000
,
0010
0000
0000
0000
0100
0000
0000
0001
0000
1000
0001
0000
0100
0000
0000
0000
,
0010
0000
0000
0000
1000
0000
0000
0001
0000
0010
0001
0000
0100
0000
0010
0000
,
1000
0000
0001
0100
0000
0010
0010
0000
,
0100
0000
0000
0000
0001
1000
0001
1000
0001
0000
0010
0000
0100
0000
0000
0000
,
1000
0000
0010
0000
0100
0000
0000
0001
1000
0000
0001
0000
0100
0000
0000
0000
,
0110
0000
0000
0000
1001
0000
0000
0010
1000
0000
0001
0000
0100
0000
0001
0000
,
0010
0000
0100
0000
1000
0000
0000
0001
0000
1000
0010
0000
0100
0001
0000
1000
,
0001
0000
0000
0000
0010
0000
0000
0100
0000
0010
0001
0000
1000
0000
0000
0000
,
0010
0000
0000
0000
0100
0000
0000
0001
1000
0000
0010
0000
0100
0000
0000
0010
,
1000
0000
0000
0000
0001
0000
0000
1000
0100
0000
0010
0000
0001
0000
0100
0000
,
0020
0000
1000
1000
0000
0001
0031
0000
,
1000
0000
0000
0000
0001
0000
0000
0010
0000
0100
0010
0000
0001
0000
0000
0000
,
1100
0000
0000
0000
0011
0000
0000
1000
0001
0000
0100
0000
0010
0000
0000
0000
,
1000
0000
0000
0000
0001
0000
0000
1000
0100
0000
0010
0000
0001
0000
0100
0000
,
0010
0000
0000
0000
1000
0000
0000
0001
1000
0000
0010
0000
0100
0001
0100
0001
,
0100
0000
0000
0000
0010
0000
0000
1000
0000
1000
0001
0000
0010
0000
0000
0000
,
1100
0000
0000
0000
0101
0000
0000
0010
1000
0010
1000
0000
0100
0000
0000
1000
,
0001
0000
0000
0000
0010
0000
0000
0001
0100
0001
0100
0000
0010
0000
1000
0000
,
0100
0000
1000
0001
0000
1000
0100
0000
,
0010
0000
0000
0000
0001
0000
0000
1000
0000
0010
0100
0000
0001
0000
0000
0000
,
0012
0000
0000
0000
1003
0000
0000
0010
0000
0100
0001
0000
0010
0000
0001
0000
,
0100
0000
0000
0000
1000
0000
0000
0001
0100
0001
0100
0000
0010
0000
1000
0000
,
0100
0000
0000
0000
1001
0000
0000
0010
1000
0010
1000
0000
0001
0100
0000
0001
,
0010
0000
0000
0000
0100
1000
0100
1000
0100
0000
0000
0000
0010
0000
0000
0000
,
0001
0000
0100
0000
1000
0010
0100
0001
,
0000
0001
0010
0000
0100
0000
1000
0001
,
0100
0000
0010
0000
2001
0001
3001
0000
,
0101
0000
0000
0000
1000
0001
1000
0001
1000
0000
0000
0000
0020
0000
0000
0000
,
0100
0001
1000
0001
,
0130
0010
1000
0001
0010
0100
1000
0001
,
0100
0000
0001
1000
0001
0000
0100
0000
0000
0000
0010
0000
2000
0000
0000
0000
,
3001
0000
0000
0000
0011
0000
0000
0100
0000
0100
1000
0000
0001
0000
0100
0000
,
0010
0000
1000
0000
0001
1000
0000
0001
0010
0000
0100
0000
1000
0000
0001
0000
,
0100
0000
0000
0000
0110
0000
0000
1000
0000
0001
0100
0000
0010
0000
1000
0000
,
0100
0000
0000
0010
0000
0000
0001
0000
1000
0000
1000
0000
1000
0000
1000
0000
,
0002
0000
0000
0000
1003
0000
0010
0000
0100
0001
0100
0000
0010
0000
1000
0000
,
0100
0000
0000
0000
0010
0001
0010
0001
0010
0000
0100
0000
1000
0000
0001
0000
,
1000
0000
0010
0000
0100
0000
0000
0001
0000
0010
0100
0000
1000
0000
0001
0000
,
1000
0000
0010
0000
0100
0001
0000
0001
1000
0000
1001
0000
0000
0000
0010
0100
,
0010
0000
0000
0000
1001
0000
0000
1000
0100
0000
0010
0000
0001
0000
0100
0000
,
0010
0000
1000
0000
0001
0010
0000
0001
0100
0000
0010
0000
1000
0000
0001
0000
,
1000
0000
0100
0000
0010
0000
0000
0001
1000
0000
0001
0000
0100
0000
0010
0000
,
1000
0000
0001
0000
0010
0000
0100
1000
0100
1000
0100
0000
1000
0000
0001
0000
,
0110
0000
0000
0000
1010
0000
0000
0001
1000
0000
0100
0000
0001
0000
0010
0100
,
0010
0000
0001
0000
1000
0000
0000
0010
0100
0010
0100
0000
0001
0000
0000
1000
,
0001
0000
1000
0000
0100
0000
0000
0010
0001
0000
0100
0000
0001
0000
1000
0000
,
0010
0000
1000
0000
0100
0010
0000
0010
0000
0001
1000
0000
0010
0000
0100
0001
,
0100
0000
0000
0000
0001
1000
0001
1000
0002
0000
0000
0000
0000
0000
0000
0000
,
0023
0000
0230
0000
,
1300
0000
0001
0000
0100
0000
0000
0001
0010
0000
0100
0000
1000
0000
0000
0000
,
0001
0000
0100
0001
1000
0000
0010
0000
,
0100
0000
0000
0000
0001
1000
0001
1000
0002
0000
0000
0000
0000
0000
0000
0000
,
0023
0000
0230
0000
,
1300
0000
0010
0000
0100
0000
0001
0000
1000
0100
1000
0000
0001
0000
0100
0000
,
0010
0001
0010
1000
0100
0010
0001
1000
,
0010
0000
0000
0000
;
