#TITLE:Trigger;
#SUBTITLE:(25th Anniversary Special);
#ARTIST:sonic-coll.;
#BANNER:Trigger (25th Anniversary Special)-bn.png;
#BACKGROUND:Trigger (25th Anniversary Special)-bg.png;
#JACKET:Trigger (25th Anniversary Special)-jacket.png;
#MUSIC:Trigger (25th Anniversary Special).ogg;
#SAMPLESTART:19.222;
#SAMPLELENGTH:20;
#DISPLAYBPM:200;
#BPMS:0=200;
#BGCHANGES:;

//---------------dance-single - ----------------
#NOTES:
     dance-single:
     :
     Challenge:
     16:
     :
0000
0000
0000
0000
,
0000
0000
0000
0000
,
0000
0000
0000
0000
,
0000
0000
0000
0000
,
1100
0000
1100
0000
0001
0100
0100
0000
,
0010
0010
1000
0001
0001
0000
0100
0010
,
0101
0000
0101
0000
1000
0100
0100
0000
,
1000
0000
0000
0000
0100
0000
0000
0000
1000
0000
0000
0000
0001
0000
0000
0000
0100
0000
0000
0000
0001
0000
0000
0000
0010
0000
0000
0100
0000
0000
0010
0000
0000
0100
0000
0000
0010
0000
0000
0000
0000
0000
0000
0000
0000
0000
0000
0000
,
0011
0001
0100
0010
1000
0100
0000
1010
,
0000
0001
0001
0100
0000
1000
1000
0010
,
0100
0001
0010
0001
1000
0010
0000
0110
,
0000
0001
0010
1000
0000
0100
1000
0001
,
0010
0100
0010
0001
1000
0010
0100
0001
,
1000
0100
1000
0001
0000
0010
0001
1000
,
0010
0100
0010
1000
0100
0001
0100
1000
,
0010
0100
0001
0010
1000
0010
0001
1000
,
0001
0100
0001
0100
0001
0100
0001
0100
0001
0100
0001
0100
,
0001
0000
0100
0000
0001
0000
0100
0000
0001
0000
0100
0000
,
0010
1000
0100
0001
1000
0001
0010
0100
,
0000
0000
1000
0000
0100
0000
0001
0000
0010
0100
1000
0100
0010
0000
0001
0000
,
0100
0001
0010
0100
0001
0100
1000
0001
,
0000
0000
0010
0000
0001
0000
1000
0000
0010
0100
0001
0100
0010
0000
1000
0000
,
0001
0000
0010
0100
0010
0000
0001
0000
1000
0000
0010
0000
1000
0000
0100
0000
,
0001
0100
1000
0010
0000
1000
0100
0001
,
0011
0011
0000
1100
0000
0101
0101
0000
,
0000
1001
0000
0110
1000
0010
0001
0100
,
2020
0000
0030
0001
,
0001
0000
3000
0000
0000
0110
0000
0000
,
0110
0000
0000
1001
,
0010
0000
0010
0000
0010
0000
0010
0000
0000
0000
0000
0000
,
0022
0000
0000
0030
,
1000
0000
1000
0000
0000
0100
0100
0000
,
0100
0000
0000
0000
0000
1000
1000
0000
,
0010
0003
1001
0000
,
1100
0001
0100
1000
0010
0000
0100
0001
,
0010
0000
1000
0000
0100
0000
0000
0000
0010
0000
0001
0000
1000
0100
1000
0000
,
0001
0010
1000
0100
0001
0000
1000
0100
,
0001
0010
1000
0000
0100
0100
0010
0001
,
1000
0000
0010
0000
1000
0100
1000
0000
0001
0000
0000
0000
0011
0000
0001
0000
,
0100
0010
1010
0000
0100
1000
0011
0000
,
0100
0100
0010
0010
1000
1000
0001
0001
,
0010
0001
0000
0000
1000
0010
0000
0000
0100
0001
0100
0001
0100
0001
0100
0000
,
0010
1000
1010
0101
0000
0000
0001
0010
,
0100
1100
0101
0000
0010
1001
0000
0100
,
1010
0000
0100
0011
0000
0000
1000
1100
,
0000
0011
0000
0101
0000
1010
0001
0000
,
0100
0010
0110
1001
0000
0000
0010
1000
,
0001
0000
0011
0000
1100
0000
0000
0000
0001
0000
0110
0000
0000
0000
1000
0100
,
1000
0001
0011
0101
0000
0000
0011
1001
,
0000
0110
0000
1010
0000
1100
0000
0000
,
0011
0100
1100
0110
0000
0000
0011
0001
,
1000
0000
0110
0000
1010
0000
0000
0000
0100
0000
1001
0000
0000
0000
0010
1000
,
0001
0000
0000
0000
0011
0000
1010
0000
0000
0000
0000
0000
0010
1000
0100
0000
,
0000
1001
0000
0011
0000
0110
0000
1000
,
1100
0001
0101
0110
0000
0000
1010
0100
,
1000
0011
1001
0000
0010
0101
0000
1000
,
1010
0100
1001
0011
0000
0000
1100
0011
,
0000
1100
0000
0011
0000
1100
0000
0000
,
1001
0010
1001
0000
0100
0100
0100
0000
,
0001
0000
0001
0000
0010
0000
1000
0000
1000
0000
0000
0000
0100
0010
0100
0000
,
1100
0001
1100
0001
0000
0100
0010
0000
,
1000
1000
1000
1000
0000
0001
0000
0100
,
0110
0001
0110
1000
0010
0010
0010
0100
,
0001
0000
0001
0000
0010
0000
1000
0000
1000
0000
0100
0000
0010
0001
0010
0000
,
0011
0100
0011
1000
0001
0100
0100
0000
,
0001
0000
0000
0000
0010
0000
0000
0000
0001
0000
0000
0000
1000
0000
0000
0000
0010
0000
0000
0000
1000
0000
0000
0000
0100
0000
0000
0010
0000
0000
0100
0000
0000
0010
0000
0000
0100
0000
0000
0000
0000
0000
0000
0000
0000
0000
0000
0000
,
1001
0000
0010
1000
0001
0000
0100
0000
0010
0000
1010
0000
0000
0000
1100
0000
,
0000
0001
0010
1000
0000
0100
1000
0001
,
0010
0000
0001
1000
0001
0000
0100
0000
0000
0000
0010
1000
0010
0000
0100
0000
,
0001
0010
0001
1000
0000
0110
1000
0001
,
0010
0000
0001
0100
0001
0000
0010
0000
1000
0000
0100
0000
1000
0000
0001
0000
,
0010
1000
0100
0001
0000
0010
0001
0100
,
0110
0110
0110
1000
0100
0001
0000
0010
,
0001
0100
1000
0010
1000
0100
0001
0010
,
1000
0100
1000
0010
1000
0000
0001
0000
0100
0000
0010
0000
0100
0000
1000
0000
,
0100
0000
0001
0000
0010
0000
0100
0000
1000
0001
0010
0001
1000
0000
0100
0000
,
0010
0100
0010
0001
1000
0000
0010
0000
0100
0000
1000
0000
0100
0000
0001
0000
,
0010
0000
0001
0000
0100
0000
1000
0000
0001
0010
0100
0010
0001
0000
1000
0100
,
0010
0000
0001
0100
0001
0000
0010
0100
1000
0000
0010
0000
1000
0000
0001
0000
,
0100
0000
0010
0000
0100
0000
1000
0000
0100
0000
0001
0000
0010
0100
1000
0000
,
1100
1010
0000
0101
0000
0011
0101
0000
,
0000
1001
0000
0110
1000
0010
0001
0100
,
2020
0000
0000
0000
0000
0000
0000
0000
0030
0000
0000
0000
3001
0100
0001
0000
,
0102
2000
0000
0000
0003
0000
0010
3010
,
0000
1000
0100
0001
0011
1100
0000
0000
;
