#TITLE:Tower of the Sun;
#ARTIST:Naya~n feat. Yajuuoukoku;
#BANNER:Tower of the Sun-bn.png;
#BACKGROUND:Tower of the Sun-bg.png;
#JACKET:Tower of the Sun-jacket.png;
#MUSIC:Tower of the Sun.ogg;
#OFFSET:0.4;
#SAMPLESTART:84.75;
#SAMPLELENGTH:20;
#DISPLAYBPM:186;
#BPMS:0=186;
#BGCHANGES:;

//---------------dance-single - ----------------
#NOTES:
     dance-single:
     :
     Beginner:
     5:
     :
0000
0000
0000
0000
,
0000
0000
0000
0000
,
0000
0000
0000
0000
,
0000
0000
0000
0000
,
0000
0000
0000
0000
,
0001
0000
0001
0000
,
0001
0000
0000
0000
,
1000
0000
0001
0000
,
0100
0000
0100
0000
,
0000
0000
0010
0000
,
1000
0000
0100
0000
,
1000
0000
0001
0000
,
0100
0000
0010
0000
,
0000
0000
1000
0000
,
0001
0000
0010
0000
,
0001
0000
0100
0000
,
2000
0000
0000
3000
,
0000
0000
0100
0000
,
1000
0000
0001
0000
,
1000
0000
0010
0000
,
0100
0000
0001
0000
,
0000
0000
0010
0000
,
0001
0000
0100
0000
,
0001
0000
1000
0000
,
0020
0000
0000
0030
,
0000
1000
1000
0000
,
0002
0000
0000
0003
,
0000
0010
0010
0000
,
0200
0000
0300
0000
,
1000
0000
1000
0000
,
1000
0000
1000
0000
,
0001
0000
0001
0000
,
0002
0000
0000
0003
,
0000
0010
0010
0000
,
0200
0000
0000
0300
,
0000
1000
1000
0000
,
0002
0000
0003
0000
,
0100
0000
0100
0000
,
0100
0000
0100
0000
,
0010
0000
0010
0000
,
0020
0000
0030
0000
,
1001
0000
0000
0000
,
0100
0000
0010
0000
,
0100
0000
0001
0000
,
1000
0000
0010
0000
,
0110
0000
0000
0000
,
0001
0000
0010
0000
,
0001
0000
0100
0000
,
0010
0000
1000
0000
,
0001
0000
0010
0000
,
0001
0000
0100
0000
,
1000
0000
0010
0000
,
2000
0000
0000
3000
,
0000
0000
0100
0000
,
1000
0000
0001
0000
,
1000
0000
0010
0000
,
0200
0000
0300
0000
,
0002
0000
0003
0000
,
2000
0000
3000
0000
,
0010
0000
1000
0000
,
0100
0000
0001
0000
,
0010
0000
0010
0000
,
0001
0000
1000
0000
,
0010
0000
0010
0000
,
0010
0000
1000
0000
,
0001
0000
0000
0000
,
0000
0000
0010
0000
,
0001
0000
0100
0000
,
0001
0000
1000
0000
,
1000
0000
0100
0000
,
0000
0000
1000
0000
,
0001
0000
0010
0000
,
0001
0000
0100
0000
,
0020
0000
0000
0030
,
0000
0000
1000
0000
,
0010
0000
1000
0000
,
0100
0000
0010
0000
,
0001
0000
0001
0000
,
0000
0000
0100
0000
,
0001
0000
0010
0000
,
0001
0000
0100
0000
,
1000
0000
0000
0010
,
0000
0000
0100
0000
,
0001
0000
0010
0000
,
0002
0000
0003
0000
,
0010
0000
0001
0000
,
0010
0000
0100
0000
,
1000
0000
0001
0000
,
1000
0000
0000
0010
,
0000
0000
0100
0100
;

//---------------dance-single - ----------------
#NOTES:
     dance-single:
     :
     Easy:
     7:
     :
0000
0000
0000
0000
,
0000
0000
0000
0000
,
0000
0000
0000
0000
,
0000
0000
0000
0000
,
0000
0000
0000
0000
,
0001
0100
1000
0100
,
0010
0001
1000
0000
,
0001
0100
0010
1000
,
0100
0010
0001
0000
,
0010
1000
0010
1000
,
0100
0010
0001
0000
,
0100
0010
1000
0000
,
0002
0000
2000
3003
,
0010
1000
0001
1000
,
0100
0010
0001
0000
,
1000
0001
0100
0000
,
0020
0000
0000
0030
,
1000
0001
1000
0100
,
0010
0001
0100
0000
,
0001
0010
0100
0000
,
2000
0000
0002
3003
,
0010
0001
0010
0001
,
0010
0100
1000
0000
,
0001
0100
1000
0000
,
0020
0000
0000
0030
,
0100
0001
1000
0000
,
0020
0200
0000
0330
,
0010
1000
0100
0000
,
2000
0002
0000
3003
,
0011
0000
1100
0000
,
0101
0000
1010
0000
,
1000
0100
0001
0100
,
2000
0000
0000
3000
,
0010
1000
0001
0000
,
2000
0200
0000
3300
,
0010
0100
0010
0000
,
0002
2000
0000
3003
,
1010
0000
0101
0000
,
0011
0000
1100
0000
,
0010
1000
0001
1000
,
0200
0000
0000
0300
,
1001
0100
0010
0100
,
0010
1000
1000
0001
,
0010
0001
0100
0010
,
1000
0100
1000
0001
,
0110
0001
0100
0010
,
0100
0001
0001
1000
,
0010
1000
0100
1000
,
0010
0100
0001
1000
,
1001
0010
1000
0100
,
1000
0001
0001
0100
,
0010
1000
0100
0001
,
0200
0000
0000
0300
,
0110
0010
1000
0010
,
1000
0100
0010
0001
,
0100
0001
1000
0001
,
0020
0000
0000
0030
,
0002
0200
0000
0303
,
0020
2000
3030
0001
,
1000
0010
1000
0100
,
0010
0001
0100
0001
,
1000
0010
1000
0001
,
0010
0100
0010
0001
,
0100
0100
0100
0100
,
0010
1000
0001
1000
,
0010
0000
0000
0000
,
0100
0001
0100
0010
,
1000
0100
0001
0000
,
0010
0001
0100
0000
,
0020
0000
2000
3030
,
0100
1000
0010
1000
,
0100
0010
0001
0000
,
0010
0001
0100
0000
,
2000
0000
0000
3000
,
0100
1000
0100
0010
,
0001
0100
0010
0000
,
1000
0001
1000
0000
,
0002
0000
0020
0033
,
0001
0100
0010
0100
,
0010
1000
0001
0000
,
0010
0001
0100
0000
,
0010
1000
0100
1000
,
0001
0000
0100
0100
,
0010
0100
0010
1000
,
0002
0000
0000
0003
,
0010
0001
0010
0100
,
1000
0001
1000
0100
,
0010
0001
0100
0010
,
2000
0000
3000
0002
,
0000
0003
0110
1001
;

//---------------dance-single - ----------------
#NOTES:
     dance-single:
     :
     Medium:
     9:
     :
0000
0000
0000
0000
,
0000
0000
0000
0000
,
0000
0000
0000
0000
,
0000
0000
0000
0000
,
0000
0000
0000
0000
,
0002
0000
0000
0000
1003
0000
0000
0020
,
0000
0000
0000
0030
,
0000
0100
0000
0010
1000
0000
0000
0002
,
0000
0000
0000
2000
0000
0000
3003
0000
,
0000
0000
0010
0000
1000
0000
0100
0020
,
0000
0000
0031
0000
1000
0001
0000
0000
,
0100
0000
0010
0000
0100
0001
0000
2000
,
0000
3020
0000
0230
0000
0000
0300
0000
,
0000
0000
0001
0000
0010
0000
0001
2000
,
0000
0000
3010
0000
1000
0100
0000
0000
,
1000
0000
0001
0000
0100
0010
0000
0110
,
0000
0002
2000
3003
,
0000
0000
0010
0000
1000
0000
0001
0020
,
0000
0000
0031
0000
0100
0010
0000
0000
,
1000
0000
0100
0000
1000
0001
0000
0020
,
0000
0032
0000
2003
0000
0000
3000
0000
,
0000
0000
0010
0000
0100
0000
0001
2000
,
0000
0000
3100
0000
1000
0010
0000
0000
,
0100
0000
0001
0000
1000
0010
0000
1001
,
0000
0020
0200
0330
,
0001
0000
0100
0000
0010
1000
0000
0100
,
0000
2000
0002
0000
0000
0000
3003
0000
,
0010
0000
0001
0000
0010
0100
0000
1000
,
0000
0002
0200
0000
0000
0000
0303
0010
,
0000
0010
0000
1000
0000
1000
0000
0001
,
0000
0001
0000
0100
0000
0100
0000
0002
,
0000
2003
0000
3020
0000
0230
0000
0302
,
0000
0000
0000
0003
,
0010
0000
0001
0000
1000
0001
0000
0100
,
0000
0020
2000
0000
0000
0000
3030
0000
,
0100
0000
1000
0000
0001
1000
0000
0001
,
0000
0200
0020
0000
0000
0000
0330
1000
,
0000
1000
0000
0010
0000
0010
0000
0100
,
0000
0100
0000
0001
0000
0001
0000
0020
,
0000
0032
0000
2003
0000
3020
0000
0230
,
0000
0000
0000
0300
,
1001
0000
0000
1010
0000
0101
0000
1010
,
0000
0000
0000
0011
0000
0000
0000
1100
,
0000
0000
0001
0000
0000
0010
0000
0000
,
0001
0000
0000
0100
0000
0000
1000
0000
,
0110
0000
0000
0011
0000
1100
0000
0011
,
0000
0000
0000
1010
0000
0000
0000
0101
,
0000
0000
1000
0000
0000
0010
0000
0000
,
1000
0000
0000
0100
0000
0000
0001
0000
,
0010
0000
0001
0000
0100
0010
0000
1000
,
0000
0100
0000
1000
0000
0001
0000
0100
,
0000
0010
2000
0000
3000
0100
1000
0002
,
0000
0000
0000
0003
0000
1100
0000
0101
,
0000
0000
0010
0000
1000
0000
0000
0001
,
0000
0010
0000
0001
0000
0100
0000
1000
,
0000
0010
0200
0000
0300
0001
1000
0002
,
0000
0000
0000
0003
,
1000
0001
0200
0000
0000
0000
0300
0110
,
0000
2002
0000
0003
0000
3010
0000
0000
,
2000
3200
2300
3002
,
0203
0000
0320
0000
2030
0000
3001
0100
,
0000
0010
1000
0100
,
1000
0001
0100
0001
1000
0000
0010
0000
,
0100
0001
1000
0000
0100
1000
0001
0000
,
0010
0000
0001
1000
0020
0000
0130
0001
,
1000
1010
0101
1100
,
0000
0001
0010
0000
0001
0000
0100
0020
,
0000
0000
1030
0000
0100
1000
0000
0000
,
0001
0000
0010
0000
0001
1000
0000
0200
,
0000
2300
0000
3001
0000
0101
0000
1100
,
0000
0010
1000
0000
0100
0000
1000
0002
,
0000
0000
0013
0000
0001
1000
0000
0000
,
0010
0000
1000
0000
0001
0100
0000
0220
,
0000
0000
0030
0000
0301
1000
0000
0001
,
0000
0010
0100
0000
1000
0000
0010
0200
,
0000
0000
0301
0000
1000
0100
0000
0000
,
1000
0000
0010
0000
1000
0001
0000
0200
,
0000
0310
0000
2000
0000
0000
3000
0000
,
0000
0100
1000
0000
0001
0000
0010
0200
,
0000
0000
0310
0000
0001
1000
0000
0000
,
0010
0000
1000
0000
0001
0100
0000
0010
,
1000
0000
0000
0001
0000
0000
0010
0000
,
0001
0200
0000
0000
0310
0000
1000
0000
,
0100
0000
1000
0002
0000
0013
0001
0200
,
0000
0000
0000
0300
,
0010
0000
0000
1000
0000
0000
0001
0000
,
0010
0200
0000
0000
1300
0000
0010
0100
,
0000
0001
0000
1000
0000
0010
1000
0002
,
0000
0000
0000
0000
,
0000
0000
0000
0000
0003
0000
1000
0001
;

//---------------dance-single - ----------------
#NOTES:
     dance-single:
     :
     Hard:
     11:
     :
0000
0000
0000
0000
,
0000
0000
0000
0000
,
0000
0000
0000
0000
,
0000
0000
0000
0000
,
0000
0000
0000
0000
,
0002
0000
0103
0000
0010
1000
0001
0200
,
0000
0010
0000
0310
1000
0001
0200
0000
,
0301
1000
0000
0010
0200
0000
0301
2000
,
0000
3100
0010
0002
0000
0000
1003
0000
,
0000
0010
1000
0100
1000
0100
1000
0020
,
0000
0130
0001
0000
0001
1000
0000
0020
,
0000
1030
0010
0000
0010
0100
0000
0002
,
0000
0103
0000
2000
0000
3010
0100
0000
,
0000
0010
1000
0001
1000
0001
0010
0200
,
0000
1300
0001
0000
0001
0100
0000
0020
,
0000
1030
0001
0000
1000
0100
0000
0200
,
0000
0310
0001
0010
0002
0000
0003
0000
,
0000
1000
0001
0010
0001
0010
0001
0200
,
0000
0310
1000
0000
1000
0001
0000
0020
,
0000
0031
0100
0000
0010
1000
0000
0200
,
0000
1300
0000
0002
0000
0000
0003
0000
,
0000
0010
0001
0100
0010
0100
0010
2000
,
0000
3100
1000
0000
0001
0100
0000
0020
,
0000
0130
0010
0000
1000
0001
0000
0020
,
0000
0031
0100
0001
0200
0000
0300
0000
,
0000
0000
0010
1000
0010
1000
0000
0001
,
0000
1000
0200
0000
0000
0000
0000
0000
,
0300
0000
0010
0001
0010
0001
0000
1000
,
0000
0001
0200
0000
0000
0000
0300
0020
,
0000
0230
0000
0320
0000
2030
0000
3200
,
0000
0320
0000
0032
0000
0203
0000
0302
,
0000
0023
0000
0032
0000
2003
0000
3020
,
0000
0000
0000
0000
,
0130
0000
0001
1000
0001
1000
0000
0100
,
0000
1000
0020
0000
0000
0000
0000
0000
,
0130
0000
0001
0010
0001
0010
0000
0100
,
0000
1000
0002
0000
0000
0000
0003
0020
,
0000
0230
0000
0320
0000
0032
0000
0203
,
0000
0320
0000
2030
0000
3002
0000
2003
,
0000
3200
0000
0320
0000
0032
0000
2003
,
0000
0000
0000
3000
,
1001
0000
0010
0100
0000
0101
0000
1010
,
0000
0000
0001
2000
0000
0000
3010
0200
,
0000
0000
0001
0000
0000
1000
0000
0000
,
0010
0000
0000
1000
0000
0000
0301
0000
,
0110
0000
0001
1000
0000
1100
0000
0011
,
0000
0000
0100
0020
0000
0000
1030
0002
,
0000
0000
0010
0000
0000
1000
0000
0000
,
0100
0000
0000
1000
0000
0000
0013
0000
,
1001
0000
0010
1000
0001
1000
0000
0002
,
0000
0203
0000
0302
0000
2003
0000
3020
,
0000
1030
0002
0000
0003
0010
0001
2000
,
0000
0000
0000
3000
0000
1100
0000
0101
,
0000
0000
0010
0100
0010
1000
0000
0002
,
0000
0023
0000
0032
0000
0203
0000
0320
,
0000
1030
0200
0000
0300
1000
0001
0200
,
0000
0000
0000
0000
0000
0000
0310
1000
,
0001
0100
2000
0000
0000
0000
3000
0020
,
0000
0200
0000
0330
0000
0110
0000
1000
,
0002
0000
0023
0000
0032
0000
0103
0010
,
1000
0000
0100
1000
0001
0000
0010
0200
,
0000
0000
1300
0100
1000
0000
0001
0100
,
0001
0000
0010
0100
1000
0001
0100
0000
,
0010
1000
0010
0000
1000
0100
0001
0000
,
0010
0001
0100
0001
2000
0000
3001
0100
,
0010
0000
1000
0001
0100
0000
0010
0000
,
0000
1000
0100
0010
0100
0010
0100
2000
,
0000
3001
1000
0000
1000
0010
0000
0200
,
0000
0310
0100
0000
0001
0100
0000
0020
,
0000
1030
0000
0001
0000
0011
0000
1010
,
0000
0100
1000
0010
1000
0100
0010
0002
,
0000
0103
0001
0000
0010
0001
0000
2000
,
0000
3100
1000
0000
0010
0100
0000
0002
,
0000
0000
0000
0000
1003
0001
0000
0100
,
0000
0010
1000
0010
1000
0100
0010
0002
,
0000
1003
0001
0000
0010
0100
0000
0020
,
0000
0031
0100
0000
0010
0100
0000
0020
,
0000
1030
0000
0002
0000
0100
0000
0103
,
0000
0001
0010
0001
0010
0100
1000
0020
,
0000
0130
0010
0000
1000
0001
0000
2000
,
0000
3100
0010
0000
0010
0001
0000
1000
,
0001
0000
0100
0010
0000
0100
0010
0000
,
1000
0002
0000
0000
0013
0001
0100
0020
,
0000
1030
0000
0002
0000
0013
0000
0200
,
0000
1300
0001
1000
0001
0000
0000
0000
,
0010
0000
0001
1000
0000
0001
1000
0000
,
0010
0200
0000
0000
0301
0100
0010
2000
,
0000
3100
0000
0020
0000
0031
0000
2000
,
0010
0000
0000
0001
0000
0000
0100
0000
,
0000
0001
0000
0000
3010
0000
1000
0001
;

//---------------dance-single - ----------------
#NOTES:
     dance-single:
     :
     Challenge:
     13:
     :
0000
0000
0000
0000
,
0000
0000
0000
0000
,
0000
0000
0000
0000
,
0000
0000
0000
0000
,
0000
0000
0000
0000
,
0001
0100
0010
0100
1000
0100
0010
0200
,
0000
0301
0010
1000
0100
0010
0001
0000
,
1000
1010
0000
0001
0100
0010
0100
0002
,
0000
0000
0013
0000
0100
0000
1100
0000
0000
0000
0000
0001
0100
0000
0010
0000
,
0000
1000
0100
0001
0100
1000
0010
0200
,
0000
0301
0010
0100
1000
1000
0000
0020
,
0000
1030
0001
0000
0001
0100
0010
2000
,
0000
0000
3100
0000
1000
0000
0202
0000
0000
0300
0000
0000
0013
0000
0100
0000
,
0000
1000
0010
0100
1000
0100
0001
0020
,
0000
0130
0010
0001
1000
1000
0000
0002
,
0000
0013
0100
0000
0100
1000
0001
0200
,
0000
0000
0310
0000
1000
0000
0010
0000
1000
0000
0001
0100
0001
0000
1000
0000
,
0000
0010
1000
0100
0010
1000
0010
0002
,
0000
1003
0010
0100
0001
0001
0000
0010
,
0001
0000
0100
0000
1000
0000
0000
0010
1000
0000
0001
0000
0100
0000
0020
0000
,
0000
0000
1030
0000
0100
0000
0022
0000
0000
0030
0000
0000
1003
0000
0001
0000
,
0000
0100
1000
0100
0001
1000
0100
0020
,
0000
0130
1000
0001
0010
0010
0000
0001
,
0100
0010
1000
0000
0001
1000
0100
0020
,
0000
0000
0031
0000
1000
0000
0001
0000
1000
0000
0000
0000
0010
0000
0100
0001
,
0100
0000
1010
0100
0001
0001
0010
0100
,
0000
1000
0002
0000
0013
0100
1000
0001
,
0100
0000
0101
0010
1000
1000
0001
0100
,
0000
0000
0010
0000
2000
0000
0000
0000
3100
0010
0100
0000
1000
0000
0002
0000
,
0000
0013
0001
0200
0000
0310
1000
0200
,
0000
0301
0010
2000
0000
3100
1000
0002
,
0000
0203
0000
0320
0000
2030
0000
3002
,
0000
0000
0000
0000
0013
0000
0000
0000
0001
0000
1000
0010
1000
0000
0001
0000
,
0100
0000
1010
0001
1000
1000
0100
0010
,
0000
0001
0200
0000
0310
1000
0001
0010
,
0100
0000
1100
1000
0001
0001
0010
0100
,
0000
0010
0002
0000
0103
0010
1000
0002
,
0000
0013
0001
2000
0000
3001
0100
0020
,
0000
1030
0100
0002
0000
0013
0100
2000
,
0000
3020
0000
2030
0000
3002
0000
0023
,
0000
0000
0100
0000
0130
1000
0001
0000
,
1001
0000
0010
1010
0000
0101
0000
1100
,
0000
0000
0001
0200
0000
0000
0310
2000
,
0000
0100
3200
0000
1000
2300
0000
0001
,
3002
0000
0010
0023
0000
0031
1000
0000
,
0110
0000
0000
0001
1000
0000
1100
0000
0000
0000
0101
0000
0000
0000
0011
0000
,
0000
0000
0000
0001
1000
0000
0020
0000
0000
0000
0130
0001
0100
0000
0020
0000
,
0000
0000
1000
0000
1030
0000
0001
0100
0001
0000
2000
0000
0000
0000
3010
0000
,
0100
0000
0001
1000
0001
0000
0020
0000
0000
0000
0100
0000
0130
0000
0000
1000
,
0001
0000
0100
0010
0100
1000
0100
0001
,
0000
0020
0000
2030
0000
3002
0000
0203
,
0000
0310
2000
0000
3100
1000
0010
0002
,
0000
0000
0103
0010
1000
1100
0000
0101
,
0000
0000
0010
1000
0001
1000
0100
0010
,
0000
0002
0000
2003
0000
3200
0000
0320
,
0000
0031
0200
0000
0310
1000
0001
0200
,
0000
0310
1000
0010
1000
0010
1000
0001
,
0100
0010
2000
0000
3100
1000
0001
0020
,
0000
0000
0032
0100
0000
0000
1000
0000
0000
0000
0023
0000
0000
0000
0130
0000
,
1000
0000
0000
0001
0000
0000
1000
0000
1000
0000
0010
0000
0100
0000
0001
0000
,
0010
1000
0010
0001
0010
1000
0010
0200
,
0000
0000
0000
1300
0001
0000
0100
0000
0010
0000
1000
0000
0100
0000
0010
0001
,
0010
0000
0100
0000
0001
0000
0100
0000
1000
0000
0010
0000
0100
0000
0001
1000
,
0001
0010
0100
0010
0100
1000
0010
0100
,
0001
0100
1000
0100
0002
0000
0013
0100
,
1000
0000
0000
0000
0001
0000
0010
0000
0000
0000
0001
1000
0000
0000
0010
0000
,
0000
1000
0100
0010
0100
1000
0100
0002
,
0000
0013
0100
1000
0001
0001
0000
0200
,
0000
0310
1000
0000
0100
1000
0010
0200
,
0000
0301
1000
2010
0000
0001
0000
3100
,
0000
1000
0100
0010
0001
0100
0010
2000
,
0000
3001
1000
0100
0010
0010
0000
0002
,
0000
1003
0100
0000
1000
0010
0100
0202
,
0000
0300
0000
0000
1003
0000
0100
0000
1000
0000
0001
0000
0000
0000
0001
0000
,
0000
0010
1000
0100
1000
0010
0100
0002
,
0000
0013
0001
0100
1000
1000
0000
0010
,
1000
0100
0001
0010
0001
1000
0010
0200
,
0000
0301
1000
0011
0000
0100
1000
0001
,
0000
1000
0001
0010
0001
0100
0010
2000
,
0000
3100
0010
0001
1000
1000
0000
0001
,
0010
0000
0100
1000
0100
0000
0000
0000
1000
0000
0001
0000
0000
0000
0100
0000
,
0010
1000
0100
0020
0000
0031
2000
0000
,
3010
0200
0000
0301
0100
1000
0100
0002
,
0000
0013
0001
2000
0000
3010
0100
0210
,
0000
0301
0100
0020
0000
1000
1030
0000
,
0001
1000
0001
0200
0000
0310
0200
0000
,
0301
2000
0000
3100
1000
0010
0100
0002
,
0000
0013
0001
2000
0000
3010
0100
0002
,
0010
0000
0000
1000
0000
0000
0100
0000
,
0000
1000
0000
0000
0013
0000
1001
1001
;
