#TITLE:Tough Enough;
#SUBTITLE:;
#ARTIST:Vanilla Ninja;
#TITLETRANSLIT:;
#SUBTITLETRANSLIT:;
#ARTISTTRANSLIT:;
#GENRE:;
#CREDIT:;
#BANNER:Tough Enough-bn.png;
#BACKGROUND:Tough Enough-bg.png;
#LYRICSPATH:;
#CDTITLE:;
#MUSIC:Tough Enough.ogg;
#OFFSET:0.000000;
#SAMPLESTART:54.855000;
#SAMPLELENGTH:20.000000;
#SELECTABLE:YES;
#DISPLAYBPM:196.000000;
#BPMS:0.000000=196.020004
;
#STOPS:
;
#BGCHANGES:0.000=Tough Enough.avi=1.000=0=0=0=StretchNoLoop====,
99999=-nosongbg-=1.000=0=0=0 // don't automatically add -songbackground-
;
#KEYSOUNDS:;
#ATTACKS:;

//---------------dance-single - ----------------
#NOTES:
     dance-single:
     :
     Beginner:
     2:
     0.096314,0.152176,0.019263,0.000000,0.000000,70.000000,68.000000,2.000000,0.000000,0.000000,0.000000,0.096314,0.152176,0.019263,0.000000,0.000000,70.000000,68.000000,2.000000,0.000000,0.000000,0.000000:
0000
0000
0000
0000
,
0000
0000
0000
0000
,
0000
0000
0000
0000
,
0000
0000
0000
0000
,
0000
0000
0000
0000
,
0000
0000
0000
0000
,
0000
0000
0000
0000
,
0000
0000
0000
0000
,
0000
0000
0000
0000
,
1000
0000
0000
0000
,
0001
0000
0000
0000
,
0010
0000
0000
0000
,
0010
0000
0000
0000
,
0001
0000
0000
0000
,
1000
0000
0000
0000
,
0100
0000
0000
0000
,
0010
0000
0000
0000
,
1000
0000
0000
0000
,
1000
0000
0000
0000
,
0010
0000
0000
0000
,
0100
0000
0000
0000
,
1000
0000
0000
0000
,
0000
0000
0000
0000
,
0001
0000
0000
0000
,
0000
0000
0000
0000
,
0100
0000
0000
0000
,
0000
0000
0000
0000
,
1001
0000
0000
0000
,
0001
0000
0000
0000
,
0010
0000
0000
0000
,
0001
0000
0000
0001
,
0000
0000
0100
0000
,
0000
0000
0010
0000
,
0000
0000
0100
0000
,
0000
1000
0000
0000
,
0010
0000
0000
0000
,
0100
0000
0000
0000
,
1000
0000
0000
0000
,
1000
0000
0000
0000
,
1000
0000
0000
0000
,
0100
0000
0000
0000
,
1000
0000
0000
0000
,
0001
0000
0000
0100
,
0000
0000
0000
0000
,
0000
0000
0000
0000
,
1000
0000
0000
0000
,
1000
0000
0000
0000
,
0100
0000
0000
0000
,
0100
0000
0000
0000
,
0010
0000
0000
0000
,
0000
0000
0000
0000
,
0100
0000
0000
0000
,
0001
0000
0000
0000
,
1001
0000
0000
0000
,
1000
0000
0000
0000
,
0100
0000
0000
0000
,
1000
0000
0000
1000
,
0000
0000
0010
0000
,
0000
0000
0100
0000
,
0000
0000
0010
0000
,
0000
0001
0000
0000
,
0100
0000
0000
0000
,
0010
0000
0000
0000
,
0010
0000
0000
0000
,
0100
0000
0000
0000
,
0001
0000
0000
0000
,
0010
0000
0000
0000
,
0001
0000
0000
0000
,
1000
0000
0000
0010
,
0000
0000
0000
0000
,
0100
0000
0000
0000
,
0001
0000
0000
0000
,
0001
0000
0000
0000
,
0001
0000
0000
0000
,
0001
0000
0000
0000
,
0100
0000
0000
0000
,
1000
0000
0000
0000
,
0100
0000
0000
0000
,
0100
0000
0000
0000
,
0100
0000
0000
0000
;

//---------------dance-single - ----------------
#NOTES:
     dance-single:
     :
     Easy:
     5:
     0.184373,0.278950,0.019263,0.067420,0.000000,134.000000,132.000000,2.000000,7.000000,0.000000,0.000000,0.184373,0.278950,0.019263,0.067420,0.000000,134.000000,132.000000,2.000000,7.000000,0.000000,0.000000:
0000
0000
0000
0000
,
0000
0000
0000
0000
,
0000
0000
0000
0000
,
0000
0000
0000
0000
,
0000
0000
0000
0000
,
0000
0000
0000
0000
,
0000
0000
0000
0000
,
0000
0000
0000
0000
,
0000
0000
0000
0000
,
1000
0000
0000
0000
,
0001
0000
0000
0000
,
0010
0000
0100
0000
,
0010
0000
0010
0000
,
0001
0000
0000
0000
,
1000
0000
0000
0000
,
0100
0000
0100
0000
,
0010
0000
0100
0000
,
1000
0000
0000
0000
,
1000
0000
0000
0000
,
0010
0000
0100
0000
,
0100
0000
0001
0000
,
2000
0000
0000
0000
,
0000
0000
0000
3000
,
0002
0000
0000
0000
,
0000
0000
0000
0003
,
0200
0000
0000
0000
,
0000
0000
0000
0300
,
1001
0000
0100
0000
,
0001
0000
0100
0000
,
0010
0000
0100
0000
,
0001
0000
1000
0001
,
1000
0000
0100
0000
,
0000
0000
0010
0000
,
0000
0000
0100
0000
,
0001
1000
0001
1000
,
0010
0000
0100
0000
,
0100
0000
0010
0000
,
1000
0000
0100
0000
,
1000
0000
0100
0000
,
1000
1000
0001
0000
,
0100
0000
0100
0000
,
1000
0000
0100
0000
,
0001
0100
0001
0100
,
0002
0000
0000
0000
,
0000
0000
0000
0003
,
1000
0000
0000
0000
,
1000
0000
0000
0000
,
0100
0000
0000
0000
,
0100
0000
0000
0000
,
0020
0000
0000
0000
,
0000
0000
0000
0030
,
0100
0000
1000
0000
,
0001
0001
0001
0000
,
1001
0000
0010
0000
,
1000
0000
0010
0000
,
0100
0000
0010
0000
,
1000
0000
0001
1000
,
0001
0000
0010
0000
,
0000
0000
0100
0000
,
0000
0000
0010
0000
,
1000
0001
1000
0001
,
0100
0000
0010
0000
,
0010
0000
0100
0000
,
0010
0000
0010
0000
,
0100
0000
0010
0000
,
0001
0001
1000
0000
,
0010
0000
0010
0000
,
0001
0000
0010
0000
,
1000
0010
1000
0010
,
0200
0000
0000
0300
,
0100
0000
0100
0000
,
0001
0001
1000
0000
,
0001
0001
1000
0000
,
0001
0001
0010
0000
,
0001
0001
0010
0000
,
0100
0100
1000
0000
,
1000
1000
0010
0000
,
0100
0100
0010
0000
,
0100
0100
0010
0000
,
0200
0000
0000
0000
,
0000
0000
0000
0000
,
0000
0000
0000
0000
,
0000
0000
0000
0300
;

//---------------dance-single - ----------------
#NOTES:
     dance-single:
     :
     Medium:
     7:
     0.250417,0.398499,0.067420,0.202260,0.000000,182.000000,175.000000,7.000000,21.000000,0.000000,0.000000,0.250417,0.398499,0.067420,0.202260,0.000000,182.000000,175.000000,7.000000,21.000000,0.000000,0.000000:
0000
0000
0000
0000
,
0000
0000
0000
0000
,
0000
0000
0000
0000
,
0000
0000
0000
0000
,
0000
0000
0000
0000
,
0000
0000
0000
0000
,
0000
0000
0000
0000
,
0000
0000
0000
0000
,
0000
0000
0000
0000
,
2000
0000
0000
3000
,
0020
0000
0000
0030
,
0001
0000
0001
0000
,
0001
0000
0001
0000
,
2000
0000
0000
3000
,
0200
0000
0000
0300
,
0100
0000
1000
0000
,
0010
0000
0100
0000
,
0001
0000
1000
0000
,
0010
0000
0100
0000
,
0001
0000
0100
0000
,
0010
0000
0010
0000
,
0010
0000
0010
0000
,
1000
0000
0100
0000
,
1000
0000
0010
0200
,
0000
0000
0000
0300
,
0010
0100
0001
0100
,
0010
1000
0010
1000
,
0010
0010
0010
0000
,
1000
1000
1000
0000
,
0001
0001
0001
0000
,
0100
0100
0100
0001
,
1000
0100
0010
0000
,
0001
0001
1000
2002
,
0000
0000
0000
3003
,
0200
0000
0000
0300
,
0001
1000
0001
0000
,
0010
0001
0010
0000
,
0001
0100
0010
0000
,
1000
0100
0010
0000
,
0001
1000
0100
0000
,
0010
0001
0100
0220
,
0000
0000
0000
0330
,
0001
0100
1000
0100
,
0002
0000
0000
0000
,
0000
0000
0000
0003
,
0010
0000
0001
0000
,
0200
0000
0000
0300
,
0010
0000
1000
0000
,
0200
0000
0000
0300
,
0220
0000
0000
0000
,
0000
0330
0010
0100
,
0010
0010
1000
1000
,
0001
0001
1000
1000
,
0001
1000
0100
0010
,
0001
0010
0100
1000
,
0010
0100
0001
0010
,
0100
0010
0001
1000
,
0001
0100
0101
0000
,
0010
0100
0001
1000
,
0020
0000
0000
0030
,
1000
1000
1000
1000
,
0010
0100
0001
0000
,
1000
0010
0100
0000
,
0010
1000
0100
0000
,
1000
0001
0100
0000
,
0001
0001
1000
0000
,
0001
0001
0010
0000
,
0100
0100
1000
0000
,
0010
0010
1000
0010
,
2000
0000
0000
3000
,
0002
0000
0000
0003
,
1000
0100
1100
0000
,
0001
0100
0101
0000
,
0001
1000
1001
0000
,
1000
0010
0100
0010
,
0100
0002
0000
0003
,
1000
0010
0100
0002
,
0000
0000
0000
0003
,
0001
0010
0100
2000
,
0000
0000
0000
0000
,
0000
0000
0000
0000
,
0000
0000
0000
0000
,
0000
0000
0000
3000
;

//---------------dance-single - ----------------
#NOTES:
     dance-single:
     :
     Hard:
     9:
     0.381128,0.597749,0.375625,0.182997,0.000000,277.000000,238.000000,39.000000,19.000000,0.000000,0.000000,0.381128,0.597749,0.375625,0.182997,0.000000,277.000000,238.000000,39.000000,19.000000,0.000000,0.000000:
0000
0000
0000
0000
,
0000
0000
0000
0000
,
0000
0000
0000
0000
,
0000
0000
0000
0000
,
0000
0000
0000
0000
,
0000
0000
0000
0000
,
0000
0000
0000
0000
,
0000
0000
0000
0000
,
0000
0000
0000
0000
,
1000
0001
0000
0100
,
0000
0010
0010
0000
,
0100
0000
0001
0000
,
0100
0000
0001
1000
,
0001
1000
0000
0100
,
0000
0010
0010
0000
,
0100
0000
0001
0000
,
1100
0000
1100
0000
,
1000
0100
0000
1100
,
0000
0001
0100
0001
,
0101
0000
1100
0000
,
0110
0000
0110
0000
,
0010
0000
0000
1000
0000
0000
0001
0000
,
0000
0101
0101
0000
,
1000
0000
0000
0010
0000
0000
0220
0000
,
0000
0000
0000
0330
,
0010
1000
0000
1000
0001
0000
0001
0010
,
0000
0010
0100
0000
1000
0000
0001
0000
,
1200
0000
0010
0310
,
0012
0000
1000
1003
,
0100
0010
0100
0000
,
0010
0000
1000
0000
0001
0100
0001
0100
,
0000
1001
0100
0000
,
0010
1000
0010
0000
0100
0000
0202
0000
,
0000
0000
0000
0303
,
0220
0000
0330
0100
,
0201
0000
0010
0310
,
0210
0000
0001
0301
,
1001
0100
0010
0000
,
1001
0000
0100
0000
0010
1000
0001
0100
,
0000
0001
0100
0000
,
0001
0100
1000
0000
0101
0000
1100
0000
,
2002
0000
0000
3003
,
0001
0010
0100
1000
0001
0010
0100
1000
,
0200
0000
0000
0000
,
0000
0000
0000
0300
,
0010
0000
0000
0100
0000
0000
0001
0000
,
0000
0101
0101
0000
,
1000
0000
0000
0001
0000
0000
0100
0000
,
0000
1100
1100
0000
,
2002
0000
0000
0000
,
0000
3003
1000
0001
,
1000
0100
0000
0100
0010
0000
0010
0100
,
0000
0100
0001
0000
1000
0000
0010
0000
,
0001
0000
1000
0000
0001
1000
0001
1000
,
0000
0001
0100
1000
,
0100
0001
0010
0100
,
0010
0000
0100
0000
0010
1000
0010
1000
,
0000
0101
0000
0000
,
1000
0100
1000
0000
0001
0000
0001
0200
,
0000
0000
0000
0300
,
0010
1000
0001
0100
0010
1000
0001
0000
,
1001
0000
1100
0000
0001
0100
0001
0100
,
0000
0000
1000
0000
0010
0100
0001
0101
,
0000
0000
0010
0000
1000
0000
0100
1100
,
0000
0000
0100
0000
1001
0100
0010
0100
,
0000
0101
0000
0000
,
0001
0100
0100
0000
1000
0000
0001
0200
,
0000
0000
0000
0300
,
0001
1000
0001
1000
0001
1000
0001
0000
,
0200
0000
0000
0300
,
0010
0100
0000
0100
0001
0000
0001
0100
,
1000
0000
0100
0000
0101
0000
1000
0100
,
0001
0000
0100
0000
0101
0000
0100
0010
,
0100
0100
0110
0001
,
1000
0000
0010
0100
0001
0100
0010
0000
,
0100
0001
0101
0000
,
1000
1000
0010
0000
0100
0000
0001
1000
,
0100
0100
1100
0000
,
0001
0100
1000
0000
0010
0000
0100
0020
,
0000
0000
0000
0000
,
0000
0000
0000
0000
,
0000
0000
0000
0000
,
0000
0000
0000
0030
;

//---------------dance-double - ----------------
#NOTES:
     dance-double:
     :
     Easy:
     4:
     0.156854,0.318800,0.154102,0.019263,0.000000,114.000000,98.000000,16.000000,2.000000,0.000000,0.000000,0.156854,0.318800,0.154102,0.019263,0.000000,114.000000,98.000000,16.000000,2.000000,0.000000,0.000000:
00000000
00000000
00000000
00000000
,
00000000
00000000
00000000
00000000
,
00000000
00000000
00000000
00000000
,
00000000
00000000
00000000
00000000
,
00000000
00000000
00000000
00000000
,
00000000
00000000
00000000
00000000
,
00000000
00000000
00000000
00000000
,
00000000
00000000
00000000
00000000
,
00000000
00000000
00000000
00000000
,
00100000
00000000
00000000
00000000
,
00000000
00000000
00000000
00000000
,
00010000
00000000
00000000
00000000
,
00000000
00000000
00000000
00000000
,
00000010
00000000
00000000
00000000
,
00000000
00000000
00000000
00000000
,
00001000
00000000
00000000
00000000
,
00000000
00000000
00000000
00000000
,
01000000
00000000
00000000
00000000
,
00000000
00000000
00000000
00000000
,
00001000
00000000
00000000
00000000
,
00000000
00000000
00000000
00000000
,
00000100
00000000
00000000
00000000
,
00000000
00000000
00000000
00000000
,
00010000
00000000
00000000
00000000
,
00000000
00000000
00000000
00000000
,
00001000
00000000
00001000
00000000
,
00001000
00000000
00001000
00000000
,
00011000
00000000
00000010
00000000
,
00011000
00000000
00100000
00000000
,
00010000
00000000
00100000
00000000
,
01000000
00000000
10000000
00000000
,
00010000
00000000
00000000
00000000
,
00100000
00000000
00100000
00000000
,
10000000
00000000
01000000
00000000
,
00001000
00000000
00010000
00000000
,
00011000
00000000
01000000
00000000
,
00011000
00000000
00000100
00000000
,
00001000
00000000
00000100
00000000
,
00000010
00000000
00000001
00000000
,
00001000
00000000
00000000
00000000
,
00000010
00000000
00000010
00000000
,
00000001
00000000
00000100
00000000
,
00000000
00000000
00000000
00000000
,
00011000
00000000
00000000
00000000
,
00000000
00000000
00000000
00000000
,
00100000
00000000
00000000
00000000
,
00001000
00000000
00010000
00000000
,
00000100
00000000
00000000
00000000
,
00010000
00000000
00001000
00000000
,
00000010
00000000
00000000
00000000
,
00010000
00000000
00001000
00000000
,
01000000
00000000
00000000
00000000
,
00000000
00000000
00000000
00000000
,
00011000
00000000
00000010
00000000
,
00011000
00000000
00100000
00000000
,
00010000
00000000
00100000
00000000
,
01000000
00000000
10000000
00000000
,
00010000
00000000
00000000
00000000
,
00100000
00000000
00100000
00000000
,
10000000
00000000
01000000
00000000
,
00001000
00000000
00010000
00000000
,
00011000
00000000
01000000
00000000
,
00011000
00000000
00000100
00000000
,
00001000
00000000
00000100
00000000
,
00000010
00000000
00000001
00000000
,
00001000
00000000
00000000
00000000
,
00000010
00000000
00000010
00000000
,
00000001
00000000
00000100
00000000
,
00010000
00000000
00001000
00000000
,
00011000
00000000
00000000
00000000
,
00000000
00000000
00000000
00000000
,
00011000
00000000
00000010
00000000
,
00011000
00000000
00100000
00000000
,
00011000
00000000
00000100
00000000
,
00011000
00000000
01000000
00000000
,
00011000
00000000
00000000
00000000
,
00000010
00000000
00010000
00000000
,
00001000
00000000
00100000
00000000
,
00001000
00000000
00010000
00000000
,
00022000
00000000
00000000
00000000
,
00000000
00000000
00000000
00000000
,
00000000
00000000
00000000
00000000
,
00000000
00000000
00000000
00033000
;

//---------------dance-double - ----------------
#NOTES:
     dance-double:
     :
     Medium:
     8:
     0.310957,0.478199,0.125208,0.269679,0.000000,226.000000,213.000000,13.000000,28.000000,0.000000,0.000000,0.310957,0.478199,0.125208,0.269679,0.000000,226.000000,213.000000,13.000000,28.000000,0.000000,0.000000:
00000000
00000000
00000000
00000000
,
00000000
00000000
00000000
00000000
,
00000000
00000000
00000000
00000000
,
00000000
00000000
00000000
00000000
,
00000000
00000000
00000000
00000000
,
00000000
00000000
00000000
00000000
,
00000000
00000000
00000000
00000000
,
00000000
00000000
00000000
00000000
,
00000000
00000000
00000000
00000000
00000000
00000000
01000000
00100000
,
01000000
10000000
00010000
01000000
,
00000000
00100000
01000000
00002000
,
00000000
00000000
00000000
00000000
,
00000000
00000000
00000000
00000000
00003000
00000000
00000100
00000001
,
00000100
00000000
00000000
00000020
00000000
00000000
00000200
00000000
,
00000000
00000030
00000001
00000002
,
00000000
00000000
00000000
00000303
,
00000000
00000000
00000000
00000000
00000000
00000000
00000010
00001000
,
00000010
00001000
00000001
00000100
,
00000000
00001000
00010000
00002000
,
00000000
00000000
00000000
00000000
,
00000000
00000000
00000000
00000000
00003000
00000000
00010000
01000000
,
10000000
00000000
00000000
00010000
00000000
00000000
01000000
00000000
,
00000000
00000000
00000000
00000000
00000000
00000000
00100000
10000000
,
00100000
00000000
00000000
10000000
00000000
00000000
02000000
00000000
,
00000000
00000000
00000000
03000000
,
01000000
00010000
00000000
00010000
01000000
00000000
01000000
10000000
,
00000000
10000000
01000000
00000000
00100000
00000000
10010000
00000000
,
01000000
00000000
00100000
00000000
10000000
00010000
10000000
00010000
,
00000000
00000000
01000000
00000000
00001000
00010000
00001000
00000000
,
00010000
00000000
00000100
00000000
00000001
00000000
00000100
00001000
,
00000000
00000000
00000010
00000000
00001000
00000100
00000010
00000001
,
00000000
00001001
00000000
00000000
,
00001000
00000100
00001000
00000000
00000010
00000000
00000100
00000001
,
00000000
00000000
00000000
00000000
,
00002000
00003002
00002003
00003002
,
00000103
00000000
00000010
00000000
00001000
00000001
00001000
00000001
,
00000000
00000000
00000000
00000100
00000000
00000000
00000000
00001001
,
00000000
00000000
00000000
00000100
00000000
00000000
00000000
00001001
,
00000000
00000000
00000000
00000000
00000010
00000001
00001000
00000100
,
00000000
00001000
00000000
00000000
,
00001000
00000100
00001000
00000000
00000010
00000000
00000100
00000001
,
00000000
00000000
00000000
00000000
,
00002000
00003002
00002003
00003002
,
00000203
00000000
00000000
00000000
,
00000000
00000000
00000000
00000300
,
00000001
00000000
00000000
00000010
00000000
00000000
00001000
00000000
,
00000000
00000000
00000000
00000000
00000000
00000000
00010000
00001000
,
00010000
00000000
00000000
00100000
00000000
00000000
10000000
00000000
,
00000000
00000000
00000000
00000000
,
20020000
00000000
00000000
00000000
,
00000000
30030000
10000000
00010000
,
10000000
00010000
00000000
00010000
10000000
00000000
10000000
00010000
,
00000000
00010000
10000000
00000000
01000000
00000000
10010000
00000000
,
01000000
00000000
00100000
00000000
10000000
00010000
10000000
00010000
,
00000000
00000000
01000000
00000000
00001000
00010000
00001000
00000000
,
00010000
00000000
00000100
00000000
00000001
00000000
00000100
00001000
,
00000000
00000000
00000010
00000000
00001000
00000100
00000010
00000001
,
00000000
00001001
00000000
00000000
,
00001000
00000100
00001000
00000000
00000010
00000000
00000100
00000001
,
00000000
00000000
00000000
00000000
,
00002000
00003002
00002003
00003002
,
00000103
00000000
00000010
00000000
00001000
00000001
00001000
00000001
,
00000000
00000000
00000000
00001000
00000000
00000000
00000000
00000110
,
00000000
00000000
00000000
00000001
00000000
00000000
00000000
00000110
,
00000000
00000000
00000000
00000000
00000010
00000001
00001000
00000100
,
00000000
00001000
00000000
00000000
,
00001000
00000100
00001000
00000000
00000010
00000000
00000100
00000001
,
00000000
00000000
00000000
00000000
,
00002000
00003002
00002003
00003001
,
00002002
00000000
00000000
00003003
,
00000100
00000100
00000000
00000010
00000010
00000000
00001000
00000001
,
00000100
00000000
00000001
00000000
00001000
00000100
00010000
00001000
,
00000000
00000000
00000000
00010000
00000000
00000000
00000000
00011000
,
00000000
00000000
00000000
00001000
00000000
00000000
00000000
00011000
,
00000000
00000000
00000000
00000000
00010000
01000000
10000000
00010000
,
00000000
10010000
00000000
00000000
,
00010000
01000000
00010000
00000000
00100000
00000000
01000000
10000000
,
00000000
00000000
00000000
00000000
,
00010000
01000000
00010000
00000000
00100000
00000000
02000000
20000000
,
00000000
00000000
00000000
00000000
,
00000000
00000000
00000000
00000000
,
00000000
00000000
00000000
00000000
,
00000000
00000000
00000000
33000000
;

//---------------dance-double - ----------------
#NOTES:
     dance-double:
     :
     Hard:
     10:
     0.396264,0.557899,0.260048,0.173365,0.000000,288.000000,261.000000,27.000000,18.000000,0.000000,0.000000,0.396264,0.557899,0.260048,0.173365,0.000000,288.000000,261.000000,27.000000,18.000000,0.000000,0.000000:
00000000
00000000
00000000
00000000
,
00000000
00000000
00000000
00000000
,
00000000
00000000
00000000
00000000
,
00000000
00000000
00000000
00000000
,
00000000
00000000
00000000
00000000
,
00000000
00000000
00000000
00000000
,
00000000
00000000
00000000
00000000
,
00000000
00000000
00000000
00000000
,
00000000
00000000
00000000
00000000
00000000
00000000
10000000
01000000
,
00100000
00001000
00010000
00001000
,
00000000
00010000
01000000
20000000
,
00000000
00000000
00010000
00000000
,
00010000
00000000
00000000
00000000
30010000
00000000
00100000
00010000
,
01000000
00000000
00000000
00200000
00000000
00000000
02000000
00000000
,
00000000
00300000
00010000
00020000
,
00000000
00000000
00000000
03030000
,
10100000
00000000
00000000
00000000
01010000
00000000
00100000
00010000
,
00001000
00010000
00001000
00010000
,
00000000
00001000
00000100
00000002
,
00000000
00000000
00001000
00000000
,
00001000
00000000
00000000
00000000
00001003
00000000
00000010
00001000
,
00000100
00000000
00000000
00010000
00000000
00000000
00001000
00000000
,
00000000
00000000
00000000
00000000
00000000
00000000
00010000
00001000
,
00010000
00000000
00000000
01000000
00000000
00000000
22000000
00000000
,
00000000
00000000
00000000
33000000
,
01000000
00010000
00000000
00010000
00001000
00000000
00001000
00000100
,
00000000
00000100
00000001
00000000
00000010
00000000
00001001
00000000
,
00000001
00000000
00000100
00000000
00000010
00010000
00001000
00010000
,
00000000
00000000
00000100
00000000
00000010
00000001
00001000
00000000
,
00000100
00000000
00010000
00000000
01000000
00000000
10000000
00010000
,
00000000
00000000
00010000
00000000
00010000
01000000
00100000
10000000
,
00000000
10010000
00000000
00000000
,
01000000
00100000
01000000
00000000
10010000
00000000
10000000
00010000
,
00000000
00000000
00000000
00000000
,
10000000
10000000
00010000
00010000
01000000
01000000
00100000
00100000
,
10000000
00000000
00010000
00000000
10000000
01000000
10000000
00010000
,
00000000
00000000
00100000
00000000
00001000
00010000
00000100
00000010
,
00000000
00000000
00000001
00000010
00000000
00000100
00001000
00000001
,
00000000
00001000
00000001
00000000
00000010
00000001
00001000
00000100
,
00000000
00001000
00000000
00000000
,
00001000
00000001
00001000
00000000
00000110
00000000
00000010
00000100
,
00000000
00000000
00000000
00000000
,
00000001
00000001
00000100
00000100
00000010
00000010
00001000
00001000
,
00000200
00000000
00000000
00000000
,
00000000
00000000
00000000
00000300
,
00010000
00000000
00000000
00100000
00000000
00000000
10000000
00000000
,
00000000
00000000
11000000
00000000
00110000
00000000
10000000
01000000
,
00010000
00000000
00000000
01000000
00000000
00000000
10000000
00000000
,
00000000
10100000
01010000
00000000
,
20020000
00000000
00000000
00000000
,
00000000
30030000
10010000
10010000
,
10000000
00100000
00000000
00100000
00010000
00000000
00010000
00001000
,
00000000
00001000
00000100
00000000
00000100
00000000
00000001
00000000
,
00000010
00000000
00000001
00000000
00001000
00000100
00001000
00000001
,
00000000
00001000
00001200
00010000
,
00001000
00010300
00201000
00010000
,
00001000
00000000
00310000
00000000
00010000
01000000
00100000
10000000
,
00000000
10010000
00000000
00000000
,
10000000
00010000
01000000
00000000
10100000
00000000
10000000
01000000
,
00000000
00000000
00000000
00000000
,
01000000
01000000
10000000
10000000
00010000
00010000
00100000
00100000
,
01000000
00000000
10000000
00000000
00010000
00100000
00010000
10000000
,
00000000
00010000
00210000
00001000
,
00010000
00301000
00010200
00001000
,
00010000
00000000
00001300
00000000
00001000
00000010
00000100
00000001
,
00000000
00001001
00000000
00000000
,
00000001
00001000
00000100
00000000
00000011
00000000
00000001
00000100
,
00000000
00000000
00000000
00000000
,
00000100
00000100
00000010
00000010
00001000
00001000
00000001
00000001
,
00002002
00000000
00000000
00003003
,
00000001
00001000
00000000
00001000
00000001
00000000
00000001
00000100
,
00000100
00000000
00001001
00000000
00000100
00010000
00001000
00010000
,
00000000
00000000
00010000
00000000
01000000
10000000
00010000
00100000
,
00000000
00000000
00100000
00010000
00000000
10000000
01000000
00010000
,
00000000
01000000
10000000
00000000
00100000
01000000
00010000
10000000
,
00000000
10010000
00000000
00000000
,
00100000
01000000
00100000
00000000
10010000
00000000
10000000
00010000
,
00000000
00000000
00000000
00000000
,
00100000
01000000
00100000
00000000
10010000
00000000
20000000
00020000
,
00000000
00000000
00000000
00000000
,
00000000
00000000
00000000
00000000
,
00000000
00000000
00000000
00000000
,
00000000
00000000
00000000
30030000
;

//---------------dance-single - ----------------
#NOTES:
     dance-single:
     :
     Challenge:
     12:
     0.571005,0.679496,0.308205,0.231154,0.000000,415.000000,383.000000,32.000000,24.000000,0.000000,0.000000,0.571005,0.679496,0.308205,0.231154,0.000000,415.000000,383.000000,32.000000,24.000000,0.000000,0.000000:
// measure 0
0000
0000
0000
0000
,  // measure 1
0000
0000
0000
0000
,  // measure 2
0000
0000
0000
0000
,  // measure 3
0000
0000
0000
0000
,  // measure 4
0000
0000
0000
0000
,  // measure 5
0000
0000
0000
0000
,  // measure 6
0000
0000
0000
0000
,  // measure 7
0000
0000
0000
0000
,  // measure 8
0000
0000
0000
0000
0000
0000
1000
0100
,  // measure 9
0010
0001
0100
0010
,  // measure 10
1000
0100
1000
0001
,  // measure 11
0100
0000
0010
1000
0010
0000
0100
0000
,  // measure 12
0001
0000
0000
0000
0000
0000
0010
0100
,  // measure 13
1000
0000
0000
0001
0000
0000
1000
0000
,  // measure 14
0010
0100
0010
1000
,  // measure 15
0100
0010
0001
0100
,  // measure 16
0001
0010
0001
0000
1000
0000
0010
0100
,  // measure 17
0001
1000
0001
0010
,  // measure 18
0100
1000
0010
0100
,  // measure 19
0001
0000
0010
0001
0100
0000
0010
1000
,  // measure 20
0000
1000
0001
0000
0010
0000
0001
0100
,  // measure 21
0020
0000
0030
1000
0100
0000
0001
0010
,  // measure 22
0000
0001
0010
0000
0100
0000
1000
0001
,  // measure 23
2000
0000
3000
0010
0100
0000
0001
0010
,  // measure 24
0001
0100
1000
0000
0010
0000
0010
0000
,  // measure 25
1000
1000
0000
0001
0001
0000
0010
0010
,  // measure 26
0000
0100
0100
0010
1001
0000
1001
0000
,  // measure 27
1100
0000
0101
0000
1000
0100
0010
0001
,  // measure 28
0100
0010
1000
0000
0001
0100
1000
0000
,  // measure 29
0110
0000
1001
0000
0010
1000
0100
0010
,  // measure 30
0001
0100
1000
0000
0010
0100
0001
2000
,  // measure 31
0000
3100
0010
0000
0011
0000
0000
0000
,  // measure 32
1000
0100
0001
0000
0011
0000
0100
1000
,  // measure 33
0001
0100
1010
0100
,  // measure 34
0001
0010
1000
0010
0001
0010
1000
0010
,  // measure 35
1001
0000
1010
0000
0100
0001
0010
0100
,  // measure 36
1000
0010
0001
0000
0100
0010
1000
0002
,  // measure 37
0000
0013
0001
0200
0000
0310
1000
0002
,  // measure 38
0000
1003
0100
0010
0001
0100
0010
2000
,  // measure 39
0000
3001
0100
0000
1010
0000
0000
0000
,  // measure 40
0100
0010
1000
0000
0110
0000
0001
0010
,  // measure 41
0100
1000
1001
0010
,  // measure 42
1000
0100
0001
0100
1000
0100
0001
0100
,  // measure 43
2000
0000
0000
0000
,  // measure 44
0000
0000
0000
0000
0000
0000
3001
0100
,  // measure 45
0020
0000
0000
2030
0000
0000
3002
0000
,  // measure 46
0000
0000
0000
0000
0000
0000
0013
0001
,  // measure 47
0200
0000
0000
0320
0000
0000
2030
0000
,  // measure 48
0000
3002
0203
0000
,  // measure 49
0310
1000
0010
1000
0010
1000
0010
1000
,  // measure 50
0010
1000
0010
1000
0010
1000
0010
1000
,  // measure 51
0001
0001
0000
1000
1000
0000
0100
0100
,  // measure 52
0000
0010
0010
0000
1001
0000
1001
0000
,  // measure 53
0011
0000
1100
0000
0001
0010
0001
0100
,  // measure 54
0010
1000
0100
0010
0001
0100
1000
0000
,  // measure 55
1010
0000
0101
0000
0010
1000
0001
1000
,  // measure 56
0100
0010
0001
0000
1000
0010
0100
0002
,  // measure 57
0000
0013
0100
0000
0110
0000
1000
0000
,  // measure 58
0001
0100
1000
0000
1010
0000
0100
0001
,  // measure 59
0010
0100
1100
0001
,  // measure 60
1000
0010
0001
0010
1000
0010
0001
0010
,  // measure 61
1001
0000
0110
0000
1000
0010
0100
0010
,  // measure 62
1000
0100
0010
0000
0001
1000
0001
0200
,  // measure 63
0000
0310
1000
0002
0000
0013
0100
2000
,  // measure 64
0000
3010
1000
0100
1000
0010
0100
0002
,  // measure 65
0000
1003
0100
0000
0011
0000
0100
0000
,  // measure 66
1000
0010
0100
0000
0101
0000
0001
0010
,  // measure 67
1000
0000
0100
0010
1001
0000
0100
0000
,  // measure 68
0001
0010
1000
0010
0001
0010
1000
0010
,  // measure 69
0002
0000
0000
0000
0000
0000
0103
0010
,  // measure 70
1000
1000
0000
0001
0001
0000
0010
0001
,  // measure 71
0101
0000
1010
0000
0100
0001
0010
0001
,  // measure 72
1000
0100
0010
0001
0100
1000
0100
0001
,  // measure 73
0010
0100
1000
0001
1000
0010
0100
0001
,  // measure 74
0010
1000
0010
0001
0100
0010
1000
0001
,  // measure 75
0010
0100
1000
0001
0100
0010
1000
0001
,  // measure 76
1000
0100
0010
0100
0001
0100
1000
0010
,  // measure 77
0100
0000
0101
0000
1100
0000
0010
0100
,  // measure 78
0001
0010
1000
0010
0001
0100
0010
2000
,  // measure 79
0002
0000
0000
0000
,  // measure 80
0000
0000
0000
0000
,  // measure 81
0000
0000
0000
0000
,  // measure 82
0000
0000
0000
0000
,  // measure 83
3003
0000
0000
0000
;
