#TITLE:Tittle Tattle;
#ARTIST:ZONK;
#BANNER:Tittle Tattle-bn.png;
#BACKGROUND:Tittle Tattle-bg.png;
#JACKET:Tittle Tattle-jacket.png;
#MUSIC:Tittle Tattle.ogg;
#SAMPLESTART:48.258;
#SAMPLELENGTH:20;
#DISPLAYBPM:184;
#BPMS:0=184;
#BGCHANGES:;

//---------------dance-single - ----------------
#NOTES:
     dance-single:
     :
     Beginner:
     2:
     :
0000
0000
0000
0000
,
0000
0000
0000
0000
,
0000
0000
0000
0000
,
0000
0000
0000
0000
,
0000
0000
0000
0000
,
0000
0000
0000
0000
,
0000
0000
0000
0000
,
0000
0000
0000
0000
,
0000
0000
0000
0000
,
1000
0000
0000
0000
,
0100
0000
0000
0000
,
0001
0000
0000
0000
,
0010
0000
0000
0000
,
1000
0000
0000
0000
,
0100
0000
0000
0000
,
0010
0000
0000
0000
,
0010
0000
0000
0000
,
0001
0000
0000
0000
,
0100
0000
0000
0000
,
0001
0000
0000
0000
,
0001
0000
0000
0000
,
0100
0000
0000
0000
,
1000
0000
0000
0000
,
0100
0000
0000
0000
,
1000
0000
0000
0000
,
0100
0000
0100
0000
,
0100
0000
0000
0000
,
0010
0000
0000
0000
,
1000
0000
0000
0000
,
1000
0000
0000
0000
,
1000
0000
0000
0000
,
1000
0000
0000
0000
,
1000
0000
0000
0000
,
0100
0000
0000
0000
,
0100
0000
0000
0000
,
1000
0000
0000
0000
,
1000
0000
0000
0000
,
0100
0000
0000
0010
,
0000
0000
0001
0000
,
0000
0000
0010
0000
,
0000
0000
0100
0000
,
0000
0000
0001
0000
,
0000
0000
0001
0000
,
0000
0000
1000
0000
,
0000
0000
0010
0000
,
0000
0001
0000
0000
,
0001
0000
0000
0000
,
0001
0000
0000
0000
,
0100
0000
0000
0000
,
1000
0000
0000
0000
,
1000
0000
0000
0000
,
1000
0000
0000
0000
,
0100
0000
0000
0000
,
0010
0000
0000
0000
,
1000
0000
0000
0000
,
0010
0000
0000
0000
,
1000
0000
0000
0000
,
1000
0000
0000
0000
,
0001
0000
0000
0000
,
0010
0000
0000
0000
,
1000
0000
0000
0000
,
1000
0000
0000
0000
,
0001
0000
0000
0000
,
0100
0000
0000
0000
,
0000
0000
0000
0000
,
0010
0000
0000
0000
,
0001
0000
0000
0000
,
0010
0000
0000
0000
,
0001
0000
0000
0000
,
0001
0000
0000
0000
,
0010
0000
0000
0000
,
0001
0000
0000
0000
,
0001
0000
0000
0000
,
0010
0000
0000
0000
,
0010
0000
0000
0000
,
0001
0000
0000
0000
,
0001
0000
0000
0000
;

//---------------dance-single - ----------------
#NOTES:
     dance-single:
     :
     Easy:
     4:
     :
0000
0000
0000
0000
,
0000
0000
0000
0000
,
0000
0000
0000
0000
,
0000
0000
0000
0000
,
0000
0000
0000
0000
,
0000
0000
0000
0000
,
0000
0000
0000
0000
,
0000
0000
0000
0000
,
0000
0000
0000
0000
,
1000
0000
0001
0000
,
0100
0000
0100
0000
,
0001
0000
1000
0000
,
0010
0000
0010
0000
,
1000
0000
0001
0000
,
0100
0000
0100
0000
,
0010
0000
1000
0000
,
0010
0000
1000
0000
,
0001
0000
1000
0000
,
0100
0000
0100
0000
,
0001
0000
1000
0000
,
0001
0000
0001
0000
,
0100
0000
0010
0000
,
1000
0000
0001
0000
,
0100
0000
0010
0000
,
1000
0000
1000
0000
,
0100
0100
0100
0000
,
0100
0000
0100
0000
,
0010
0010
0010
0000
,
1000
0000
0001
0000
,
1000
1000
0001
0000
,
1000
1000
0010
0000
,
1000
0000
0001
0000
,
1000
0001
1000
0000
,
0100
0000
0001
0000
,
0100
0000
0001
0000
,
1000
0000
0010
0000
,
1000
0000
0001
0000
,
0100
0000
0010
0010
,
1000
0000
0001
0000
,
1000
0000
0010
0000
,
1000
0000
0100
0000
,
1000
0000
0001
0000
,
0010
0000
0001
0000
,
0001
0000
1000
0000
,
0100
0000
0010
0000
,
0001
0001
1001
0000
,
0001
0001
0011
0000
,
0001
0001
0101
0000
,
0100
0100
0110
0000
,
1000
0000
0001
0000
,
1000
0000
0010
0000
,
1000
0000
0001
0000
,
0100
0000
0010
0000
,
0010
0000
0010
0000
,
1000
0000
0100
0000
,
0010
0000
0010
0000
,
1000
0000
0100
0000
,
1000
1000
1000
0000
,
0001
0000
0100
0000
,
0010
0010
0010
0000
,
1000
0000
0010
0000
,
1000
0000
0000
0000
,
0001
0000
0000
0000
,
0100
0000
0000
0000
,
0000
0000
0000
0000
,
0010
0000
1000
0000
,
0001
0000
1000
0000
,
0010
0000
1000
0000
,
0001
0000
0100
0000
,
0001
0000
1000
0000
,
0010
0000
1000
0000
,
0001
0000
0100
0000
,
0001
0000
1000
0000
,
0010
0010
1000
0000
,
0010
0010
0100
0000
,
0001
0000
1000
0000
,
0001
0000
1000
0000
;

//---------------dance-single - ----------------
#NOTES:
     dance-single:
     :
     Medium:
     7:
     :
0000
0000
0000
0000
,
0000
0000
0000
0000
,
0000
0000
0000
0000
,
0000
0000
0000
0000
,
0000
0000
0000
0000
,
0000
0000
0000
0000
,
0000
0000
0000
0000
,
0000
0000
0000
0000
,
0000
0000
0000
0000
,
0002
0000
1000
0003
,
0100
0000
0220
0330
,
0100
0010
1000
1000
,
2002
0000
0000
0000
,
3003
0100
0001
0001
,
1000
0020
0000
0030
,
0010
1000
0001
1000
,
0010
2000
0000
3000
,
0020
0000
0000
0030
,
1001
0000
0210
0000
,
0300
0010
0100
0001
,
1000
0100
0000
0100
,
1000
0001
1000
0100
,
1000
0001
0000
0001
,
0000
1000
0001
0010
,
0100
0200
0000
0300
,
0000
0000
0010
0010
,
0000
0001
1000
0010
,
0000
0001
1000
0002
,
0000
0000
0003
0010
,
0010
0000
1000
0000
,
0010
0000
0100
0000
,
0000
0010
0100
0100
,
0001
1000
0000
0000
,
0101
0100
1000
0100
,
1000
0100
0000
0000
,
0001
0100
0010
0100
,
0010
0100
0000
0000
,
0100
0100
0100
0110
,
2000
3000
0002
0000
,
0003
0010
1000
0010
,
0000
1000
0000
0100
,
0000
1000
0001
0000
,
0010
0100
0000
0000
,
0000
0010
0001
1000
,
0001
0010
0000
0000
,
0010
0100
0001
0001
,
1000
0010
0010
1000
,
0001
0100
0010
1000
,
0100
0100
0010
1000
,
0002
1003
0020
0130
,
0002
0013
0200
1300
,
2000
3001
0200
0310
,
0110
0110
1001
0110
,
0000
0010
0010
0000
,
0100
0000
0010
0000
0000
1000
0000
0100
,
0000
0010
0001
0000
,
0010
0000
0100
0000
0000
1000
0000
1000
,
0000
0000
0010
0100
,
0002
0000
0000
0003
,
0000
0010
0010
0002
,
1000
1000
0100
1003
,
0010
0000
0001
0000
,
0010
0000
1000
0000
,
0220
0000
0000
0000
,
0000
0000
0000
0330
,
0000
0010
0010
0000
,
1000
0100
0000
0000
,
0000
1000
1000
0000
,
0001
1000
0000
0000
,
0000
0100
0001
0000
,
0010
0100
0000
0000
,
0000
0001
0100
0000
,
0010
1000
0000
0000
,
0000
1000
0001
0000
,
0001
0100
0000
0000
,
0000
0001
0010
0100
1000
0010
0000
0000
,
1001
1001
0000
0000
;

//---------------dance-single - ----------------
#NOTES:
     dance-single:
     :
     Hard:
     12:
     :
0000
0000
0000
0000
,
0000
0000
0000
0000
,
0000
0000
0000
0000
,
0000
0000
0000
0000
,
0000
0000
0000
0000
,
0000
0000
0000
0000
,
0000
0000
0000
0000
,
0000
0000
0000
0000
,
0000
0000
0000
0000
,
0020
0000
0000
0130
,
0002
0000
0200
0000
,
0303
0010
0100
0001
,
2000
0000
0000
3000
,
0010
0100
0001
1000
,
0002
0000
0000
0003
,
1000
0010
1000
0001
,
0200
0000
0010
0310
,
0220
0300
1000
1030
,
2002
0003
0200
0000
,
3300
0000
0000
0010
0000
1000
0100
0000
0000
1000
0000
0000
,
0001
0000
0000
0100
0000
0020
0000
0000
0000
0130
0000
0000
,
0001
1000
0001
0100
,
0001
0000
0000
1000
0000
0200
0000
0000
0000
1300
0000
0000
,
0000
1001
1001
0101
,
0100
0210
0000
0300
,
2002
0000
0000
3003
0000
0000
0010
0000
0100
0010
0000
1000
,
0000
0000
0100
0000
1000
0000
0002
0000
0000
0000
0000
0000
,
0003
0000
0000
1000
0000
0000
0001
0000
0000
1000
0000
0200
,
0000
0000
0000
0300
,
0010
0000
2000
0000
0000
0000
3001
0000
0000
0000
0000
0000
,
0010
0000
0002
0000
0000
0000
0103
0000
0000
0000
0000
0000
,
0000
0000
0000
0010
0000
1000
0100
0000
1000
0100
0000
0000
,
1000
0000
0000
0001
0000
0200
0000
0000
0000
0300
0000
0000
,
1100
0000
0001
0100
0000
0100
0001
0000
0001
0100
0000
0100
,
0001
0000
0001
0100
0000
0010
0000
0000
1000
0000
0000
0000
,
1000
0000
0010
0100
0000
0100
0010
0000
0010
0100
0000
0100
,
0010
0000
0010
0100
0000
0001
0000
0000
1000
0000
0000
0000
,
0100
0100
0100
0110
,
0202
0303
2200
0000
,
3300
0000
0000
0010
0000
0000
0001
0000
0000
0010
0000
0100
,
0000
0000
1000
0000
0000
2000
0000
0000
0000
3100
0000
0000
,
0000
0011
1010
0000
,
0010
0000
0000
0100
0000
0002
0000
0000
0000
0000
0000
0000
,
0003
0000
0100
0010
0000
0000
1000
0000
0000
0001
0000
0000
,
1000
0000
0000
0010
0000
0200
0000
0000
0000
0300
0000
0000
,
1001
0000
0000
0100
0000
0010
1000
0000
0000
1000
0000
0000
,
1001
0000
0100
0010
0000
0100
0010
0000
0000
0001
0000
0000
,
1001
0000
0010
0100
0000
0100
0010
0000
1000
0001
0000
0001
,
0100
0100
0010
0100
,
1000
0101
0010
0101
,
1000
0110
0001
0110
,
1100
0000
0001
0100
0000
0100
0001
0000
0001
0100
0000
0000
,
0110
0110
1001
0110
,
0000
0000
1000
0010
0000
0100
0010
0000
1000
0000
0000
0001
,
0100
0000
0000
0000
0010
0000
0000
0000
0100
0000
0000
0000
0010
0000
0000
0000
0000
0000
0000
0000
0200
0000
0000
0000
0000
0000
0000
0000
0000
0000
0000
0000
0000
0000
0000
0000
0000
0000
0000
0300
0000
0000
0000
0000
0000
0000
0000
0000
,
0000
0000
0001
0010
0000
0100
1000
0000
0010
0000
0000
0100
,
0010
1000
0010
0100
0000
0002
0000
0000
0000
0000
0000
0000
,
0000
0000
0000
0003
0000
0000
0010
0000
1000
0100
0000
1000
,
0000
0000
0001
0000
0100
0000
0002
0000
0000
0000
0000
0000
,
0003
0000
0000
0010
0000
0000
0010
0000
0000
1000
0000
0200
,
0000
0000
0000
0300
,
0010
0000
0001
0000
0000
0000
1000
0000
0000
0000
0000
0000
,
0010
0000
0100
0000
0000
0000
0001
0000
0000
0000
0000
0000
,
0000
2002
0000
0000
,
0000
0000
0000
3003
,
0000
0000
1000
0010
0000
1000
0010
0000
1000
0000
0000
0100
,
0001
0100
0001
0100
0000
1100
0000
0000
0000
0000
0000
0000
,
0000
0000
1000
0001
0000
1000
0001
0000
1000
0000
0000
0001
,
1000
0100
1000
0001
0000
0200
0000
0000
0000
0300
0000
0000
,
0000
0000
0001
0100
0000
0001
0100
0000
0001
0000
0000
0010
,
1000
0010
1000
0010
0000
1010
0000
0000
0000
0000
0000
1000
,
0001
0000
0001
1000
0000
0001
1000
0000
0001
0000
0000
1000
,
0001
0010
0001
1000
0000
0020
0000
0000
0000
0030
0000
0010
,
0000
0000
0001
0100
0000
0001
1000
0000
0100
0000
0000
1000
,
0010
0100
0010
0100
0000
0101
0000
0000
0000
0010
0000
0000
,
0000
0000
1000
0010
0000
1000
0010
0000
0100
0000
0000
0001
,
1000
0100
1000
0001
0000
0220
0000
0000
0000
0330
0000
0000
;

//---------------dance-single - ----------------
#NOTES:
     dance-single:
     :
     Challenge:
     15:
     :
0000
0000
0000
0000
,
0000
0000
0000
0000
,
0000
0000
0000
0000
,
0000
0000
0000
0000
,
0000
0000
0000
0000
,
0000
0000
0000
0000
,
0000
0000
0000
0000
,
0000
0000
0000
0000
,
0000
0000
0000
0000
,
0011
0000
0000
0100
0000
0001
1000
0000
0000
0010
0000
1000
,
0100
0000
0100
0010
0000
0000
0110
0000
0001
0000
0000
0001
,
1000
0000
0000
0010
0000
1000
0100
0000
0100
0010
0000
0010
,
0001
0000
0000
0100
0000
0010
1000
0000
0001
0000
0000
1000
,
0100
0000
0000
1000
0000
1000
0001
0000
0001
0100
0000
0010
,
1000
0000
1000
0100
0000
0000
0110
0000
0001
0000
0000
0001
,
1000
0000
0000
0010
0000
1000
0010
0000
0100
0001
0000
0000
,
0101
0000
0000
1000
0000
0100
1000
0000
0001
0000
0000
0100
,
0010
0000
0010
0100
0000
0100
0001
0000
0001
0010
0000
0010
,
0100
0000
0010
0001
0000
2000
0000
0000
3010
0000
0000
0100
,
0001
0000
0010
0001
0000
0010
0100
0000
0010
0001
0000
1000
,
0010
0000
0100
0001
0000
2000
0000
0000
3100
0000
0000
0010
,
0001
0000
0100
0001
0000
0010
0100
0000
0010
0100
0000
0010
,
0001
0000
0100
0010
0000
2000
0000
0000
3001
0000
0000
1000
,
0100
0000
0010
0100
0000
1000
0001
0000
0010
0001
0000
1000
,
0010
0000
0100
0001
0000
2000
0000
0000
3100
0000
0000
0000
,
0202
0000
0000
0003
0000
0000
0310
0000
0100
0001
0000
1000
,
0000
0000
0001
0000
1000
0000
0101
0000
0010
0000
0000
2200
,
0000
3000
0000
0001
0000
0000
1000
0000
0000
0310
0000
0100
,
0000
0000
0001
1000
0000
0000
1010
0000
0100
0000
0000
0001
,
0010
0000
0100
1000
0000
0000
0101
0000
0000
1000
0000
0010
,
1000
0000
0001
0100
0000
0000
1010
0000
0001
0000
0000
0022
,
0000
0030
0000
0103
0000
1000
0010
0000
0100
0001
0000
0000
,
1001
0000
0010
0100
0000
0001
1000
0000
0010
0000
0000
0100
,
0001
1000
0001
0100
0000
0010
1000
0100
1000
0001
0000
0000
,
0001
0100
0010
1000
0100
0010
0001
0000
0001
1000
0000
0010
,
0100
0000
0000
0001
0000
1000
0000
0000
0000
0010
0000
0100
,
0001
0000
0010
0001
0000
1000
0010
0100
0001
1000
0000
0100
,
0010
0000
0001
0100
0000
0010
1000
0000
1000
0100
0000
0010
,
0001
0000
0100
0001
0000
1000
0010
0000
0100
0000
0000
0001
,
0010
0000
0001
0100
0000
0001
0010
0000
0100
1000
0000
0010
,
0100
0000
0001
0100
0000
0010
1000
0000
0100
0000
0000
0010
,
0001
0000
0100
0010
0000
0010
1000
0000
0100
0010
0000
0100
,
0010
0000
0001
0100
0000
0010
1000
0000
0100
0000
0000
1000
,
0001
0000
0010
0001
0000
1000
0010
0000
1000
0100
0000
0010
,
0001
0000
0100
0010
0000
1000
0100
0000
0010
0001
0000
1000
,
0010
0000
1000
0100
0000
0010
0002
0000
0000
0103
0000
0010
,
1000
0000
1000
0100
0000
0010
0002
0000
0000
1003
0010
0100
,
0001
0000
0010
0001
0000
0100
0010
0000
0010
1000
0000
1000
,
0100
0000
0010
0001
0000
0100
0010
0000
1000
0100
0000
0010
,
0001
0000
0100
0001
0000
0100
0010
0000
1000
0010
0000
1000
,
0100
0000
0010
0100
0000
0010
0001
0000
1000
0001
0100
0010
,
1000
0000
0100
1000
0000
0010
0100
0000
0001
0010
0100
0010
,
0001
0000
0100
0010
0000
1000
0100
0000
0010
0000
0000
0001
,
1000
0000
0010
0100
0000
0010
1000
0000
0001
0010
0100
1000
,
0001
0100
0010
1000
0000
0001
0100
0000
0000
0100
0000
0010
,
0000
0000
1000
0100
0000
0010
0001
0000
0100
0010
0000
1000
,
0100
0010
0001
1000
0000
0010
0100
0000
0001
0000
0000
1000
,
2020
0000
0000
3000
0000
0000
0130
0000
0010
1000
0000
0001
,
0000
0000
0001
0000
1000
0000
0101
0000
0010
0000
0000
2200
,
0000
0300
3001
0100
0000
0100
0010
0000
0010
1000
0000
0001
,
1000
0000
0100
0010
0000
0001
0011
0000
0100
0000
0000
1000
,
0010
0000
0100
0000
0000
0000
0101
0000
0000
0000
0000
0010
,
1000
0000
0001
0000
0000
0000
1100
0000
0010
0000
0000
0202
,
0000
0300
0000
1003
0000
0010
0100
0000
0000
0001
1000
0000
,
0000
0000
0000
1100
0000
0000
0000
0000
0000
0010
0000
0000
0000
0000
0100
0000
0000
0000
0000
0000
0000
0000
0001
0000
,
0010
0000
0001
0100
0000
0010
1000
0000
0100
0000
0000
1000
,
0010
0100
0001
1000
0000
0001
0100
0000
0000
0010
0000
0010
,
1000
0001
1000
0001
1000
0001
1000
0001
1000
0001
1000
0001
,
1000
0001
1000
0001
1000
0001
1000
0001
1000
0001
1000
0001
,
0010
0000
0100
0010
0000
0001
1000
0000
0010
0000
0000
0100
,
0001
0010
0001
1000
0000
0010
0100
0000
0000
0001
0000
1000
,
0010
0000
1000
0100
0000
0010
0001
0000
1000
0000
0001
0100
,
0010
1000
0100
0010
0000
0001
1000
0010
0100
0000
0001
1000
,
0000
0000
0100
0010
0000
0001
0100
0000
0010
1000
0100
1000
,
0001
0010
0001
0100
0000
0010
0000
1000
0100
1000
0010
0100
,
0001
0000
0010
0001
0000
0100
0010
0000
1000
0100
0000
0010
,
0001
0100
0010
1000
0000
0001
0200
0000
0020
0330
0000
0000
;

//---------------dance-double - ----------------
#NOTES:
     dance-double:
     :
     Easy:
     4:
     :
00000000
00000000
00000000
00000000
,
00000000
00000000
00000000
00000000
,
00000000
00000000
00000000
00000000
,
00000000
00000000
00000000
00000000
,
00000000
00000000
00000000
00000000
,
00000000
00000000
00000000
00000000
,
00000000
00000000
00000000
00000000
,
00000000
00000000
00000000
00000000
,
00000000
00000000
00000000
00000000
,
10000000
00000000
00010000
00000000
,
01000000
00000000
10000000
00000000
,
00010000
00000000
00001000
00000000
,
00000001
00000000
00001000
00000000
,
00000010
00000000
00000010
00000000
,
00000001
00000000
00001000
00000000
,
00000100
00000000
00000001
00000000
,
00000100
00000000
00001000
00000000
,
00000010
00000000
00010000
00000000
,
00001000
00000000
00010000
00000000
,
00001000
00000000
00100000
00000000
,
00010000
00000000
10000000
00000000
,
00100000
00000000
00010000
00000000
,
00100000
00000000
10000000
00000000
,
00010000
00000000
00001000
00000000
,
00000001
00000000
00001000
00000000
,
00000010
00000000
00000100
00000000
,
00001000
00000000
00000001
00000000
,
00000010
00000000
00000001
00000000
,
00000010
00000000
00001000
00000000
,
00000001
00000000
00000010
00000000
,
00001000
00000000
00000100
00000000
,
00001000
00000000
00000010
00000000
,
00000001
00000000
00000100
00000000
,
00000010
00000000
00000010
00000000
,
00000100
00000000
00000100
00000000
,
00000010
00000000
00000100
00000000
,
00000010
00000000
00000100
00000000
,
00000001
00000000
00001000
00000000
,
00010000
00000000
10000000
00000000
,
00100000
00000000
00010000
00000000
,
01000000
00000000
10000000
00000000
,
00010000
00000000
00010000
00000000
,
10000000
00000000
10000000
00000000
,
00010000
00000000
01000000
00000000
,
10000000
00000000
01000000
00000000
,
00010000
00000000
00001000
00000000
,
00000100
00000000
00001000
00000000
,
00010000
00000000
01000000
00000000
,
10000000
00000000
00100000
00000000
,
10000000
00000000
01000000
00000000
,
00010000
00000000
00001000
00000000
,
00000100
00000000
00000001
00000000
,
00000010
00000000
00001000
00000000
,
00010000
00000000
00000100
00000000
,
00001000
00000000
01000000
00000000
,
00010000
00000000
00000010
00000000
,
00001000
00000000
00100000
00000000
,
00011000
00000000
00010000
00000000
,
00011000
00000000
00001000
00000000
,
00010000
00000000
00100000
00000000
,
10000000
00000000
00010000
00000000
,
10000000
00000000
00100000
00000000
,
00010000
00000000
01000000
00000000
,
00010000
00000000
00100000
00000000
,
10000000
00000000
00000000
01000000
,
00000000
00100000
00000000
00100000
,
00000000
01000000
00000000
01000000
,
00000000
00100000
00000000
00000000
,
00000000
00100000
00000000
00000000
,
00000000
10000000
00000000
00010000
,
00000000
00001000
00000000
00000001
,
00000000
00001000
00000000
00010000
,
00000000
10000000
00000000
00000000
,
01000000
00000000
00000000
00000000
,
00000100
00000000
00000000
00000000
,
00010000
00000000
00000000
00000000
,
00001000
00000000
00011000
00000000
;

//---------------dance-double - ----------------
#NOTES:
     dance-double:
     :
     Medium:
     9:
     :
00000000
00000000
00000000
00000000
,
00000000
00000000
00000000
00000000
,
00000000
00000000
00000000
00000000
,
00000000
00000000
00000000
00000000
,
00000000
00000000
00000000
00000000
,
00000000
00000000
00000000
00000000
,
00000000
00000000
00000000
00000000
,
00000000
00000000
00000000
00000000
,
00000000
00000000
00000000
00000000
,
00220000
00300000
01000000
10030000
,
00020000
00000000
00000000
00000000
00000000
00000000
01030000
00000000
00000000
00000000
00000000
00001000
,
00010000
00001000
00010000
00000010
,
00000202
00000000
00000000
00000300
00000000
00000000
00001003
00000000
00001000
00000000
00000000
00000001
,
00000100
00000000
00000000
00000010
00000000
00000000
00001000
00000000
00000000
00000100
00000000
00010000
,
00000000
00000000
00020000
00000000
00000000
00031000
00010000
00000000
00001000
00000000
00000000
01000000
,
00100000
20000000
32000000
23000000
,
30020000
00000000
00000000
00130000
00000000
01000000
20000000
00000000
00000000
30000000
00000000
00000000
,
01020000
00130000
10010000
01000000
,
00001000
00000000
00010000
00001000
00000000
00010000
00000000
00000000
00000010
00000000
00000000
00000100
,
00000001
00000000
00000000
00000010
00000000
00000000
00001000
00000000
00000000
00000100
00000000
00001000
,
00000001
00000000
00000000
00000100
00000000
00000020
00000000
00000000
00010030
00000000
00000000
00001000
,
00100000
00020000
02030000
03200000
,
20300000
00000000
00000000
31000000
00000000
20000000
00000000
00000000
30010000
00000000
00000000
00000100
,
00000010
00001000
00000001
00001000
,
00000010
00000000
00000000
00000100
00000000
00000001
00001000
00000000
00000100
00000000
00000000
00000000
,
00020020
00000000
00000000
00000030
00000000
00000000
00031000
00000000
00000000
00010000
00000000
00001000
,
00000000
00000000
01000000
00000000
00000000
00000000
10100000
00000000
00000000
00000000
00000000
02002000
,
00000000
00003000
00000000
03100000
00000000
00000000
10000000
00000000
00000000
00010000
00000000
02000000
,
00000000
00000000
03100000
00000000
00000000
00000000
01000000
00000000
00010000
00000000
00000000
00000000
,
10000000
00000000
00100000
00000000
00000000
00000000
01100000
00000000
00000000
00000000
00000000
00000000
,
00001000
00000000
00010000
00000000
00000000
00000000
00000010
00000000
00000100
00000000
00000000
00000000
,
00000002
00000000
00000000
00000103
00000000
00000000
00000010
00000000
00000010
00001000
00000000
00000000
,
00000100
00000000
00000000
00020000
00000000
00002000
00000000
00000000
00000000
00033000
00000000
00000000
,
00002000
01000000
00010000
01000000
,
00103000
00000000
01000000
00100000
00000000
20000000
00000000
00000000
30010000
00000000
00000000
00000000
,
02000000
00100000
00001000
00100000
,
03010000
00000000
10000000
00010000
00000000
20000000
00000000
00000000
31000000
00000000
00000000
00000000
,
11000000
01010000
00110000
01010000
,
00202000
00000000
00000000
00300000
00000000
00000000
00000200
00000000
00000000
00003300
00000000
00000100
,
00000001
00000000
00000000
00000010
00000000
00000000
00000001
00000000
00000000
00000100
00000000
00000010
,
00000000
00000000
00001000
00000000
00000000
00000202
00000000
00000000
00000003
00000000
00000000
00000301
,
00001000
00000020
00020000
00030030
,
00001000
00000000
00000000
00010000
00000000
02000000
00000000
00000000
00000000
00000000
00000000
00000000
,
03100000
00000000
00010000
10000000
00000000
00000000
10000000
00000000
00000000
10000000
00000000
00000000
,
00100000
00000000
00000000
20000000
00000000
02000000
00000000
00000000
00000000
33000000
00000000
00000000
,
01010000
00010000
00001000
00000100
,
00000110
00000001
00000010
00001000
,
00010100
00001000
00010000
00000100
,
00000010
00000000
00000000
00000001
00000000
00000100
00000000
00000000
00000010
00001000
00000000
00000000
,
00012000
01003000
20100000
30010000
,
00120000
10030000
02001000
03100000
,
01100000
00000000
00000000
00010000
00000000
00000000
10000000
00000000
10000000
01000000
00000000
00000000
,
00100000
00000000
00000000
00002000
00000000
00020000
00000000
00000000
00000000
00033000
00000000
00000000
,
00000010
00000000
00000000
00001000
00000000
00000000
00000100
00000000
00000010
00000000
00000000
00000000
,
00000001
00000000
00000000
00001000
00000000
00000100
00000000
00000000
00000000
00000000
00000000
00000000
,
00010000
00000000
00000000
00001000
00000000
00000000
01000000
00000000
00100000
00000000
00000000
00000000
,
10000000
00000000
00000000
00010000
00000000
01000000
00000000
00000000
00000000
00000000
00000000
00000000
,
20200000
00000000
00000000
00300000
00000000
00000000
01000000
00000000
00000000
30100000
00000000
01000000
,
00000000
00000000
00001000
00000000
00000000
00000000
00101000
00000000
00000000
00000000
00000000
00020020
,
00000000
00000030
00000000
00001000
00000000
00000000
00000100
00000000
00000000
00031000
00000000
00020000
,
00000000
00000000
00030100
00000000
00000000
00000000
00001100
00000000
00000000
00000000
00000000
00000000
,
00000002
00000000
00002000
00000003
,
00000020
00003000
00020000
00030030
,
00022000
00000000
00000000
00000000
,
00000000
00000000
00000000
00003000
,
00001000
00000000
00000000
00001000
00000000
00000000
00031000
00000000
00010000
00000000
00000000
00000000
,
01000000
00000000
00000000
10000000
00000000
00010000
00000000
00000000
00000000
00000000
00000000
00000000
,
01000000
00000000
00000000
00100000
00000000
00000000
01000000
00000000
00001000
00000000
00000000
00000000
,
00010000
00000000
00000000
00001000
00000000
01000000
00000000
00000000
00000000
00000000
00000000
00000000
,
00100000
00000000
00000000
10000000
00000000
00000000
00100000
00000000
01000000
00000000
00000000
00000000
,
00010000
00000000
00000000
10000000
00000000
01000000
00000000
00000000
00000000
00000000
00000000
00000000
,
00100000
00000000
00000000
00001000
00000000
00000000
00010000
00000000
00000010
00000000
00000000
00000000
,
00000100
00000000
00000000
00000001
00000000
00001000
00000000
00000000
00000000
00000000
00000000
00000000
,
00000010
00000000
00000000
00000100
00000000
00000000
00000001
00000000
00001000
00000000
00000000
00000000
,
00000100
00000000
00000000
00010000
00000000
00000010
00000000
00000000
00000000
00000000
00000000
00000000
,
00010000
00000000
00000000
00001000
00000000
00000000
00100000
00000000
01000000
00000000
00000000
00000000
,
22000000
00000000
00000000
33000000
;

//---------------dance-double - ----------------
#NOTES:
     dance-double:
     :
     Hard:
     11:
     :
00000000
00000000
00000000
00000000
,
00000000
00000000
00000000
00000000
,
00000000
00000000
00000000
00000000
,
00000000
00000000
00000000
00000000
,
00000000
00000000
00000000
00000000
,
00000000
00000000
00000000
00000000
,
00000000
00000000
00000000
00000000
,
00000000
00000000
00000000
00000000
,
00000000
00000000
00000000
00000000
,
00001000
00000000
00000000
00000000
00000000
00010000
00001000
00000000
00000000
00000000
00000000
00010000
,
00001000
01000000
01010000
00000000
,
00100000
00000000
00000000
00000000
00000000
01000000
00100000
00000000
00000000
00000000
00000000
01000000
,
00100000
10000000
11000000
00000000
,
10000000
00000000
00000000
00000000
00000000
01000000
00010000
00000000
00000000
00000000
00000000
01000000
,
00010000
00001000
00011000
00000000
,
00010000
00000000
00000000
00000000
00000000
00001000
00000100
00000000
00000000
00000000
00000000
00001000
,
00000100
00000001
00001001
00000000
,
00002002
00003000
00000100
00000103
,
00002020
00000030
00000200
00003300
,
00000000
00010000
00001000
00010000
,
00000100
00000000
00000000
00001000
00000000
00000020
00000000
00000000
00000000
00000030
00000000
00000000
,
00000000
00010000
01000000
10000000
,
00100000
00000000
00000000
01000000
00000000
00020000
00000000
00000000
00000000
00030000
00000000
00000000
,
00000000
10100000
10010000
01010000
,
00110000
00000000
00000000
02000000
00000000
20000000
00000000
00000000
00000000
33000000
00000000
00000000
,
10010000
00000000
00000000
00000000
00000000
00000000
00100000
00000000
01000000
00010000
00000000
10000000
,
00000000
00000000
01000000
00000000
00010000
00000000
00002000
00000000
00000000
00000000
00000000
00000000
,
00003000
00000000
00000000
00000100
00000000
00000000
00000001
00000000
00000000
00001000
00000000
00000200
,
00000000
00000000
00000000
00000300
,
00000010
00000000
00002000
00000000
00000000
00000000
00000002
00000000
00000000
00003003
00000000
00000000
,
00000010
00000000
00000002
00000000
00000000
00000000
00002000
00000000
00000000
00003003
00000000
00000000
,
00000000
00000000
00000000
00000010
00000000
00000001
00001000
00000000
00000001
00001000
00000000
00000000
,
00000100
00000000
00000000
00010000
00000000
00002000
00000000
00000000
00000000
00003000
00000000
00000000
,
00100000
00000000
00010000
10000000
00000000
01000000
10000000
00000000
00010000
00100000
00000000
00010000
,
00100000
00000000
01000000
10000000
00000000
01000000
00100000
00000000
00110000
00000000
00000000
00000000
,
00100000
00000000
10000000
00010000
00000000
01000000
00010000
00000000
10000000
00100000
00000000
10000000
,
00100000
00000000
01000000
00010000
00000000
01000000
00100000
00000000
10100000
00000000
00000000
00000000
,
10000000
10000000
00010000
00010000
,
22000000
33000000
02020000
00000000
,
03030000
00000000
00000000
00100000
00000000
00000000
00001000
00000000
00000000
00010000
00000000
00001000
,
00000000
00000000
00000100
00000000
00000000
00000002
00000000
00000000
00000000
00000003
00000000
00000000
,
00000000
00000011
00001100
00000000
,
00000010
00000000
00000000
00000100
00000000
00020000
00000000
00000000
00000000
00000000
00000000
00000000
,
00030000
00000000
00001000
00000100
00000000
00000000
00000001
00000000
00000000
00001000
00000000
00000000
,
00000100
00000000
00000000
00000010
00000000
00000200
00000000
00000000
00000000
00000300
00000000
00000000
,
00001001
00000000
00000001
00000100
00000000
00000010
00001000
00000000
00000000
00001000
00000000
00000000
,
00000101
00000000
00001000
00000100
00000000
00000001
00000100
00000000
00000000
00001000
00000000
00000000
,
00011000
00000000
00010000
00001000
00000000
00001000
00010000
00000000
00010000
00001000
00000000
00001000
,
00010000
01000000
10000000
01000000
,
00100000
11000000
00100000
01010000
,
10000000
01100000
00010000
01100000
,
10010000
00000000
10000000
01000000
00000000
01000000
00100000
00000000
00100000
00010000
00000000
00000000
,
11000000
00110000
10100000
01010000
,
00000000
00000000
01000000
00010000
00000000
00001000
00000100
00000000
00000001
00000000
00000000
00001000
,
00001000
00000000
00000001
00000001
00000000
00000200
00000000
00000000
00000000
00000300
00000000
00000000
,
00000000
00000000
00000100
00001000
00000000
00010000
01000000
00000000
10000000
00000000
00000000
00010000
,
00010000
00000000
10000000
10000000
00000000
02000000
00000000
00000000
00000000
00000000
00000000
00000000
,
00000000
00000000
00000000
03000000
00000000
00000000
10000000
00000000
00010000
01000000
00000000
10000000
,
00000000
00000000
01000000
00000000
00001000
00000000
00020000
00000000
00000000
00000000
00000000
00000000
,
00030000
00000000
00000000
00001000
00000000
00000000
00001000
00000000
00000000
00010000
00000000
00002000
,
00000000
00000000
00000000
00003000
,
00000100
00000000
00000020
00000000
00000000
00000000
00000200
00000000
00000000
00000330
00000000
00000000
,
00000001
00000000
00002000
00000000
00000000
00000000
00000002
00000000
00000000
00003003
00000000
00000000
,
00000000
00002002
00000000
00000000
,
00000000
00000000
00000000
00003003
,
00000000
00000000
00000001
00000100
00000000
00000001
00001000
00000000
00000100
00000000
00000000
00020000
,
00000000
00001000
00000000
00001000
00000000
00031000
00000000
00000000
00000000
00000000
00000000
00000000
,
00000000
00000000
01000000
10000000
00000000
00010000
01000000
00000000
00100000
00000000
00000000
20000000
,
00000000
01000000
00000000
01000000
00000000
31000000
00000000
00000000
00000000
00000000
00000000
00000000
,
00000000
00000000
10000000
01000000
00000000
00010000
00001000
00000000
00001000
00000000
00000000
00020000
,
00000000
00001000
00000000
00001000
00000000
00031000
00000000
00000000
00000000
00000000
00000000
00000000
,
00000000
00000000
00000100
00001000
00000000
00000001
00000100
00000000
00000010
00000000
00000000
00002000
,
00000000
00000100
00000000
00000100
00000000
00003100
00000000
00000000
00000000
00000000
00000000
00000000
,
00000000
00000000
00100000
00001000
00000000
00010000
00001000
00000000
01000000
00000000
00000000
00200000
,
00000000
10000000
00000000
10000000
00000000
10300000
00000000
00000000
00000000
00000000
00000000
00000000
,
00000000
00000000
01000000
00010000
00000000
00001000
00010000
00000000
01000000
00000000
00000000
00010000
,
00001000
00010000
00001000
00010000
00000000
00022000
00000000
00000000
00000000
00033000
00000000
00000000
;

//---------------dance-double - ----------------
#NOTES:
     dance-double:
     :
     Challenge:
     15:
     :
00000000
00000000
00000000
00000000
,
00000000
00000000
00000000
00000000
,
00000000
00000000
00000000
00000000
,
00000000
00000000
00000000
00000000
,
00000000
00000000
00000000
00000000
,
00000000
00000000
00000000
00000000
,
00000000
00000000
00000000
00000000
,
00000000
00000000
00000000
00000000
,
00000000
00000000
00000000
00000000
,
01001000
00000000
00000000
00100000
00000000
00100000
10000000
00000000
10000000
01000000
00000000
01000000
,
00100000
00000000
00010000
10000000
00000000
00000000
01100000
00000000
00001000
00000000
00000000
00010000
,
00000100
00000000
00000000
00000010
00000000
00000001
00000100
00000000
00000010
00000100
00000000
00000001
,
00001000
00000000
00000100
00010000
00000000
00000000
01100000
00000000
00001000
00000000
00000000
00010000
,
01000000
00000000
00000000
10000000
00000000
00100000
10000000
00000000
01000000
00100000
00000000
00010000
,
01000000
00000000
01000000
00100000
00000000
00000000
10010000
00000000
01000000
00000000
00000000
00001000
,
00010000
00000000
00000000
00000010
00000000
00000010
00001000
00000000
00001000
00000100
00000000
00000100
,
00000010
00000000
00000000
00000001
00000000
00000100
00000010
00000000
00001000
00000000
00000000
00000100
,
00010000
00000000
00001000
00010000
00000000
00001000
01000000
00000000
01000000
00100000
00000000
00100000
,
10000000
00000000
01000000
10000000
00000000
00020000
00000000
00000000
01030000
00000000
00000000
00100000
,
10000000
00000000
01000000
10000000
00000000
00010000
01000000
00000000
01000000
00001000
00000000
00001000
,
00010000
00000000
00000010
00000100
00000000
00000002
00000000
00000000
00001003
00000000
00000000
00000010
,
00001000
00000000
00000100
00001000
00000000
00000010
00000100
00000000
00000100
00000001
00000000
00000001
,
00000010
00000000
00000100
00010000
00000000
00002000
00000000
00000000
01003000
00000000
00000000
00100000
,
01000000
00000000
01000000
00001000
00000000
00001000
00010000
00000000
00010000
00000100
00000000
00000100
,
00001000
00000000
00000010
00000100
00000000
00000002
00000000
00000000
00001003
00000000
00000000
00000000
,
00020020
00000000
00000000
00000030
00000000
00000000
00030100
00000000
00001000
00000010
00000000
00000100
,
00000000
00000000
00000001
00000000
00001000
00000000
00010100
00000000
01000000
00000000
00000000
20200000
,
00000000
00300000
00000000
30010000
00000000
01000000
00010000
00000000
00100000
01000000
00000000
10000000
,
00100000
00000000
01000000
00010000
00000000
00000000
00110000
00000000
00001000
00000000
00000000
00010000
,
00000010
00000000
00000100
00000010
00000000
00000000
00001001
00000000
00000000
00000000
00000000
00000010
,
00010000
00000000
00001000
00000100
00000000
00000000
00000101
00000000
00000010
00000000
00000000
00010000
,
00001000
00000000
00000000
01000000
00000000
01000000
00100000
00000000
00100000
10000000
00000000
01000000
,
10000000
00000000
00100000
01000000
00000000
00010000
00100000
00000000
01000000
00000000
00000000
10000000
,
00100000
10000000
00010000
01000000
00000000
00001000
00010000
00000100
00001000
00000001
00000000
00000010
,
00000001
00000100
00000010
00001000
00000100
00000010
00000001
00000000
00001000
00000010
00000000
00001000
,
00000001
00000000
00000100
00000010
00000000
00001000
00000100
00000000
00001000
00000001
00000000
00000100
,
00000010
00000000
00001000
00000010
00000100
00000001
00001000
00000000
00000100
00010000
00001000
01000000
,
00100000
00000000
10000000
00100000
00000000
01000000
00010000
00000000
00010000
10000000
00000000
10000000
,
01000000
00000000
01000000
00100000
00000000
00000000
00011000
00000000
00000010
00001000
00000000
00000010
,
00000100
00000000
00000001
00000010
00000000
00000001
00001000
00000000
00000010
00010000
00000000
00001000
,
00010000
00000000
00010000
01000000
00000000
01000000
10000000
00000000
10000000
00010000
00000000
01000000
,
00100000
00000000
00000000
01100000
00000000
01000000
00010000
00000000
00010000
10000000
00000000
01000000
,
10000000
00000000
00100000
01000000
00000000
00001000
00010000
00000000
00000010
00000000
00000000
00000100
,
00000001
00000000
00000010
00000001
00000000
00001000
00000010
00000000
00000100
00000010
00000000
00010000
,
00001000
00000000
01000000
00010000
00000000
10000000
00100000
00000000
01000000
00000000
00000000
00010000
,
10000000
00000000
01000000
00100000
00000000
01000000
00100000
00000000
00001000
00010000
00000000
00000010
,
00000100
00000000
00000010
00000100
00000000
00000001
00001000
00000000
00001000
00000100
00000010
00000001
,
00001000
00000000
00000010
00010000
00000000
00001000
00010000
00000000
00001000
01000000
00000000
01000000
,
00100000
00000000
10000000
00100000
00000000
01000000
00010000
00000000
00100000
01000000
00000000
10000000
,
00010000
00000000
01000000
00100000
00000000
01000000
00001000
00000000
00010000
00001000
00000000
00010000
,
00000010
00000000
00000100
00000001
00000000
00000010
00000001
00000000
00001000
00000010
00000100
00000001
,
00001000
00000000
00000100
00000010
00000000
00000010
00000001
00000000
00000100
00000010
00010000
00001000
,
01000000
00000000
00100000
10000000
00000000
00010000
00100000
00000000
00001000
00000000
00000000
01000000
,
00100000
00000000
10000000
01000000
00000000
00100000
00010000
00000000
01000000
00100000
10000000
00010000
,
00100000
01000000
10000000
00010000
00000000
01000000
00001000
00000000
00000000
00010000
00000000
00000010
,
00000100
00000000
00000001
00000010
00000000
00000001
00001000
00000000
00000010
00001000
00000000
00000100
,
00000010
00000001
00001000
00000010
00000100
00000001
00001000
00000000
00000000
00000100
00000000
00010000
,
00020020
00000000
00000000
00000030
00000000
00000000
00031000
00000000
01000000
00100000
00000000
10000000
,
00000000
00000000
01000000
00000000
00100000
00000000
00101000
00000000
00000100
00000000
00000000
00002020
,
00000000
00000030
00000000
00003001
00000000
00001000
00000010
00000000
00000100
00000001
00000000
00001000
,
00000100
00000000
00000100
00000010
00000000
00000000
00000011
00000000
00001000
00000000
00000000
00010000
,
01000000
00000000
00100000
00000000
00000000
00000000
01100000
00000000
00000000
00000000
00000000
00010000
,
10000000
00000000
00100000
00000000
00000000
00000000
01010000
00000000
00100000
00000000
00000000
22000000
,
00000000
03000000
00000000
30010000
00000000
01000000
00001000
00000000
01000000
00000000
00100000
00000000
,
00000000
00000000
00000000
00010100
00000000
00000000
00000000
00000000
00000000
00001000
00000000
00000000
00000000
00000000
00000001
00000000
00000000
00000000
00000000
00000000
00000000
00000000
00000100
00000000
,
00000010
00000000
00001000
00000001
00000000
00001000
00000001
00000000
00000100
00000000
00000000
00000010
,
00001000
00000100
00001000
00000100
00010000
00001000
01000000
00000000
00000000
00100000
00000000
00100000
,
10000000
00010000
10000000
00010000
10000000
00010000
10000000
00010000
10000000
00010000
10000000
00010000
,
10000000
00010000
10000000
00010000
10000000
00010000
10000000
00010000
10000000
00010000
10000000
00010000
,
01000000
00000000
00100000
01000000
00000000
00100000
01000000
00000000
00001000
00000000
00000000
00010000
,
00000010
00000100
00000001
00001000
00000000
00000010
00000100
00000000
00000000
00000010
00000000
00000010
,
00010000
00000000
00001000
00010000
00000000
01000000
10000000
00000000
00010000
00000000
01000000
00100000
,
10000000
00010000
10000000
01000000
00000000
00100000
00000000
00010000
10000000
00000000
00100000
01000000
,
00000000
00000000
00010000
00100000
00000000
00001000
00100000
00000000
01000000
10000000
00100000
01000000
,
00001000
00010000
00000010
00000100
00000000
00000001
00000000
00000010
00000001
00000010
00000100
00001000
,
00000001
00000000
00000100
00000010
00000000
00001000
00000010
00000000
00010000
00001000
00000000
00010000
,
00000010
00000100
00000001
00001000
00000000
00000100
00020000
00000000
00002000
00033000
00000000
00000000
;
