#TITLE:This Is How a Heart Breaks;
#ARTIST:Rob Thomas;
#BANNER:This Is How a Heart Breaks-bn.png;
#BACKGROUND:This Is How a Heart Breaks-bg.png;
#JACKET:This Is How a Heart Breaks-jacket.png;
#MUSIC:This Is How a Heart Breaks.ogg;
#SAMPLESTART:44.572;
#SAMPLELENGTH:20;
#DISPLAYBPM:140;
#BPMS:0=140;
#BGCHANGES:;

//---------------dance-single - ----------------
#NOTES:
     dance-single:
     :
     Beginner:
     3:
     :
0000
0000
0000
0000
,
0000
0000
0000
0000
,
0000
0000
0000
0000
,
0000
0000
0000
0000
,
1000
0000
0000
0000
,
0010
0000
0000
0000
,
0001
0000
0000
0000
,
0100
0000
0000
0000
,
0010
0000
0000
0000
,
1000
0000
0000
0000
,
0100
0000
0000
0000
,
0001
0000
0000
0000
,
1000
0000
0000
0000
,
0001
0000
0000
0000
,
1000
0000
0000
0000
,
0010
0000
0000
0000
,
0100
0000
0000
0000
,
0001
0000
0000
0000
,
0010
0000
0000
0000
,
0001
0000
0000
0000
,
1000
0000
0000
0000
,
0010
0000
0000
0000
,
1000
0000
1000
0000
,
1000
0000
0000
0000
,
0001
0000
0001
0000
,
0001
0000
0000
0000
,
0000
0000
0010
0000
,
0001
0000
0100
0000
,
1000
0000
1000
0000
,
0010
0010
0010
0010
,
0000
0000
0100
0000
,
0000
0000
0001
0000
,
1000
0000
0001
0000
,
0100
0100
0100
0100
,
0100
0000
0000
0000
,
0010
0000
0000
0000
,
1000
0000
0000
0000
,
0001
0000
0000
0000
,
1000
0000
0000
0000
,
0010
0000
0000
0000
,
0100
0000
0000
0000
,
0001
0001
0000
0000
,
0010
0000
0000
0000
,
0100
0000
0000
0000
,
1000
0000
0000
0000
,
0010
0000
0000
0000
,
1000
0000
0000
0000
,
0100
0100
0000
0000
,
1000
0000
0000
0000
,
0010
0010
0000
0000
,
0100
0000
0100
0000
,
0100
0000
0000
0000
,
0010
0000
0010
0000
,
0010
0000
0000
0000
,
0000
0000
1000
0000
,
0001
0000
0100
0000
,
0010
0000
0010
0000
,
1000
1000
1000
1000
,
0000
0000
0100
0000
,
0000
0000
0010
0000
,
0001
0000
0001
0000
,
0100
0100
0100
0100
,
0100
0000
0000
0000
,
0010
0000
0000
0000
,
1000
0000
0000
0000
,
0001
0001
0001
0000
,
1000
0000
0000
0000
;

//---------------dance-single - ----------------
#NOTES:
     dance-single:
     :
     Easy:
     6:
     :
0000
0000
0000
0000
,
0000
0000
0000
0000
,
0000
0000
0000
0000
,
0000
0000
0000
0000
,
1000
0000
0010
0000
,
1000
0000
0010
0000
,
0100
0000
0001
0000
,
0100
0000
0001
0000
,
0010
0000
0100
0000
,
1000
0000
0010
0000
,
1000
0000
0001
0000
,
1000
0000
0100
0010
,
0001
0000
1000
0000
,
0001
0000
0100
0000
,
0001
0000
0010
0000
,
0100
0000
1000
0000
,
0010
0000
1000
0000
,
0001
0000
1000
0010
,
0100
0000
0001
0000
,
0010
0000
0001
0000
,
0100
0100
0010
1000
,
0001
0000
0000
0000
,
1000
0010
1000
0010
,
0100
0000
0001
0000
,
0010
0100
0010
0100
,
1000
0001
0001
1000
,
0001
0100
0010
1000
,
0001
0001
1000
0100
,
0000
1100
0000
0101
,
1000
0010
0001
0100
,
0000
0001
1000
0001
,
0000
0010
0001
0100
,
0000
0101
0000
1100
,
0001
0010
1000
0100
,
0010
0000
0010
0000
,
0010
0000
0000
0000
,
0001
0000
1000
0100
,
1000
0000
0010
1000
,
0001
0000
0010
0001
,
0100
0000
0001
0010
,
1000
0000
0000
0001
,
1000
1000
0000
0010
,
0100
0000
0010
1000
,
0001
0000
1000
0100
,
0001
0000
0010
0001
,
0100
0010
1000
0001
,
1000
0100
0000
0010
,
0001
0001
0000
0100
,
0010
0010
0000
1000
,
0100
0100
0000
0000
,
1000
0001
1000
0001
,
0010
0000
0100
0000
,
1000
0010
1000
0100
,
0010
0001
0001
1000
,
0001
0010
0001
0100
,
0010
0010
1000
0100
,
0000
1100
0000
0101
,
0010
1000
0100
0001
,
0000
0010
0001
1000
,
0000
0010
1000
0100
,
0000
0101
0000
1100
,
0010
0001
0100
1000
,
1001
0000
0000
0010
,
1000
0100
0001
0100
,
0000
0110
0000
0000
,
1000
0010
0001
0100
,
1000
0000
0000
0000
;

//---------------dance-single - ----------------
#NOTES:
     dance-single:
     :
     Medium:
     9:
     :
0000
0000
0000
0000
,
0000
0000
0000
0000
,
0000
0000
0000
0000
,
0000
0000
0000
0000
,
1000
0000
0000
0010
0000
1000
0100
0000
,
0010
0000
0000
0001
0000
1000
0010
0000
,
0100
0000
0000
0001
0000
0010
0100
0000
,
1000
0000
0000
0001
0000
1000
0100
0000
,
0010
0001
0100
0000
0010
0000
1000
0001
,
0000
1000
0100
0000
0010
0000
0001
0100
,
0000
0001
0010
0000
0001
0000
0100
1000
,
0000
0010
1000
0000
0001
0000
1000
0010
,
0000
0100
0000
0001
0000
0000
1000
0010
,
0100
0000
0000
0001
0000
1000
0100
0000
,
1000
0001
0010
0000
0001
0000
0100
1000
,
0000
0010
1000
0000
0100
0000
0010
0001
,
0000
1000
0001
0000
0010
0000
0001
0100
,
0000
0010
0100
0000
0001
0000
0010
1000
,
0000
0100
0000
0010
0000
0000
0001
1000
,
0001
0000
0000
0100
0000
0000
0010
1000
,
0100
0000
0000
1000
0000
0001
0000
0100
,
0010
0000
0000
1000
0000
0000
0001
0010
,
0100
0000
0010
0000
0001
1000
0001
0000
,
0100
0010
1000
0010
0000
0000
0100
0001
,
0010
0000
0001
0000
0100
0010
1000
0001
,
0000
0000
1000
0100
0010
0001
0010
0100
,
1000
0000
0001
1000
0100
0000
1001
0000
,
0010
0001
1000
0001
1000
0000
0100
0000
,
1000
0001
0100
0000
0001
0010
1000
0000
,
0100
0010
0001
0000
0101
0000
1100
0000
,
0000
0001
0010
1000
0100
0000
1001
0000
,
0000
1000
0010
1000
0001
0000
0100
0000
,
0001
0010
1000
0000
0100
0010
0001
0000
,
1000
0001
0100
0000
1010
0000
0011
0000
,
1000
0000
0000
0001
0000
1000
0010
0100
,
0010
1000
0001
1000
0000
0000
0100
0010
,
0001
0000
1000
0000
0001
0100
0010
1000
,
0000
0100
1000
0000
0010
0000
1000
0001
,
0000
0100
0000
0000
0010
1000
0001
1000
,
0000
0100
0010
0000
0001
0000
1000
0001
,
0000
0100
0000
0010
0000
1000
0001
1000
,
0010
0000
0010
0000
0000
1000
0001
0000
,
0100
0001
0010
0000
0001
0000
1000
0100
,
0000
1000
0000
0010
0000
1000
0001
0100
,
0000
0110
0000
1000
0010
0001
0000
0100
,
0001
0000
0010
0000
0001
1000
0001
0100
,
0000
0010
0000
1000
0000
0100
1000
0001
,
0100
0000
0100
0000
0000
0001
0010
1000
,
0000
0100
0000
1000
0000
0001
0100
0001
,
1000
0000
1000
0000
0000
0000
0010
0100
,
0001
0000
0010
0000
0001
1000
0100
0000
,
0010
0001
0010
0100
0000
0000
1000
0001
,
1000
0000
0010
0000
1000
0001
0100
0010
,
0000
0000
1000
0100
0010
0001
0010
0100
,
1000
0000
0001
1000
0010
0000
1001
0000
,
1000
0010
1000
0010
1000
0000
0100
0000
,
0010
0001
0100
0000
0001
0010
1000
0000
,
0100
0010
0001
0000
1001
0000
0110
0000
,
0000
1000
0001
0000
0100
0000
1001
0000
,
0000
1000
0010
1000
0001
0000
0100
0000
,
0001
0010
0100
0000
1000
0010
0001
0000
,
0100
0010
1000
0000
1100
0000
0101
0000
,
1000
0001
1000
0010
0000
0101
0000
1010
,
0000
1100
0000
0011
0000
1000
0001
1000
,
0000
1000
0010
1000
0000
1001
0000
0001
,
0010
0001
0100
0000
1010
0000
0101
0000
,
1000
0000
0000
0000
;

//---------------dance-single - ----------------
#NOTES:
     dance-single:
     :
     Hard:
     12:
     :
0000
0000
0000
0000
,
0000
0000
0000
0000
,
0000
0000
0000
0000
,
0000
0000
0000
0000
,
1000
0010
0010
1000
0000
0100
0010
0001
,
0100
0010
0010
1000
0000
0001
1000
0100
,
0010
0001
0001
0100
0000
0001
0010
1000
,
0100
0010
0010
0001
0000
1000
0100
1000
,
0001
0010
0001
0100
0010
1000
0100
0001
,
0000
0010
0001
0100
0001
0010
1000
0100
,
0000
1000
0001
0010
0001
1000
0100
0010
,
0000
0010
0001
0100
1000
0010
0100
0101
,
0000
1100
0001
1000
0000
0010
0100
0001
,
1000
0001
0001
0010
0000
0001
1000
0100
,
0010
0100
1000
0010
1000
0001
0010
0100
,
0000
1000
0010
1000
0001
0010
0100
1000
,
0000
0001
0010
1000
0100
0010
0100
1000
,
0000
0000
0001
1000
0001
0000
0100
0000
0010
0000
1000
0000
0100
0000
1100
0000
,
0000
0101
0010
1000
0000
0100
1000
0001
,
0010
0100
0100
1000
0000
0001
0010
0100
,
0010
0001
0001
1000
0000
0001
0010
0100
,
0010
0001
0001
0100
0000
0010
1000
0001
,
1000
0100
0001
0100
0010
0100
1000
0001
,
0100
0010
1000
0001
0000
0010
0001
0100
,
0001
0010
0100
1000
0010
0100
0010
1000
,
0001
0000
0000
0000
1000
0100
1000
0100
1000
0000
0010
0000
0100
0001
0100
0001
,
0100
0010
0010
1000
0100
1000
0001
0000
,
0010
0001
0010
1000
0010
0001
0100
0000
,
0001
0010
1100
0000
0010
0100
0101
0000
,
0001
0010
0100
1000
0010
0100
0001
0000
,
1000
0010
0010
0100
0001
0010
1000
0000
,
0100
1000
0010
1000
0001
0010
0100
0000
,
1000
0001
1010
0000
0100
0001
0011
0000
,
0010
0000
0001
0000
0100
0000
0010
0000
1000
0000
0100
0000
0001
0000
0010
0100
,
0010
0001
0010
0001
0010
0001
0010
0001
,
1000
0010
1000
0010
1000
0010
1000
0010
,
0100
0001
0010
0001
1000
0100
0010
0001
,
0000
0100
0010
0100
0001
0010
1000
0001
,
0000
0000
1000
0000
0000
0001
0000
0000
1000
0000
0010
0000
0100
0000
0001
0000
,
0000
0010
0001
0100
1000
0010
0001
1001
,
0000
0110
1000
0001
0000
0010
0010
0100
,
1000
0000
0010
0000
0100
0000
0001
0000
0000
0000
0010
0000
0000
0100
0000
0000
,
1000
0001
1000
0010
0001
0010
1000
0100
,
0000
0000
0010
0000
0001
1000
0001
0000
0000
0000
0100
0000
0010
0000
1000
0000
,
0000
0101
0000
0010
1000
0100
0000
0001
,
0001
0010
0001
0100
1000
0010
0001
0011
,
0000
1000
0100
0010
0000
0001
0001
1000
,
0001
0100
0010
1000
0000
0100
0100
1000
,
0010
1000
0001
0010
0000
0100
0100
1000
,
0010
1000
0001
0100
0000
0001
0010
1000
,
0100
0001
0100
0010
0100
1000
0001
0100
,
0010
1000
0001
0100
0000
0001
0010
0100
,
0010
0001
0100
0010
1000
0100
1000
0001
,
0010
0000
0000
0000
0001
0100
0001
0100
0001
0000
0010
0000
0100
1000
0100
1000
,
0100
0010
0010
0001
0100
0010
1000
0000
,
0001
0010
1000
0010
0001
1000
0100
0000
,
0010
0001
0101
0000
1000
0010
1010
0000
,
1000
0100
0010
1000
0010
0001
0100
0000
,
0001
0010
1000
0001
1000
0010
0100
0000
,
0001
0010
1000
0010
0001
1000
0100
0000
,
0010
0001
1100
0000
0010
0100
0101
0000
,
0010
0000
0001
0000
0010
0000
0100
0000
1000
0000
0010
0000
0001
0000
0100
0010
,
0100
0001
0010
0001
0000
1000
0100
0001
,
0000
0011
0000
1100
0000
0010
1000
0001
,
0100
0001
0010
1000
0000
0100
1000
0001
,
0010
0001
0010
0100
1000
0001
0100
0010
,
1000
0000
0000
0000
;

//---------------dance-single - ----------------
#NOTES:
     dance-single:
     :
     Challenge:
     15:
     :
0000
0000
0000
0000
,
0000
0000
0000
0000
,
0000
0000
0000
0000
,
0000
0000
0000
0000
,
1000
0010
0100
0001
0100
1000
0010
0001
,
0001
1000
0001
1000
0100
0100
0010
0010
,
0010
0100
0001
1000
0001
1000
0010
0100
,
0100
1000
1000
0001
0100
0001
0010
0010
,
0001
1000
0001
0010
0100
0010
0100
1000
,
1000
1000
0100
0001
0001
0010
0100
0010
,
0100
0010
1000
0010
0001
0001
0100
1000
,
1000
0100
1000
0001
0010
0001
0100
0010
,
0100
0100
1000
0001
1000
0010
0010
0001
,
1000
0100
1000
0001
0001
0100
0010
0010
,
0001
0010
0100
0001
0010
1000
1000
0100
,
0100
0100
1000
0010
0001
0010
0001
1000
,
1000
0010
0100
0100
0001
1000
0010
0001
,
1000
0000
1000
0001
0100
0000
0100
0000
0001
0000
0010
0000
0010
0000
0001
0000
,
0001
0100
1000
1000
0010
0010
0001
0100
,
0100
0100
1000
0001
0010
0010
0001
1000
,
0010
1000
1000
0010
0001
0100
0100
0001
,
1000
0100
0001
0100
0010
0010
0001
1000
,
0010
0100
0001
1000
1000
0001
0010
0100
,
0100
1000
0010
1000
0001
0010
0100
0001
,
1000
0010
0001
1000
0100
0001
0010
0100
,
1000
0000
0000
0000
0001
1000
0010
0100
0001
0010
0100
1000
0010
1000
0001
0100
,
0010
0000
1000
0000
0100
0000
1000
0000
0010
0000
0001
0000
0100
0000
0001
1000
,
0010
0000
1000
0000
0100
0000
0001
0000
1000
0000
0010
0000
0100
0000
0001
1000
,
0001
0010
1001
0100
0010
1000
0110
0000
,
0001
0000
0001
0000
1000
0000
1000
0000
0001
0000
0100
0000
1000
0000
0010
0100
,
0001
0000
0010
0000
1000
0000
0001
0000
1000
0000
0100
0010
0001
0000
1000
0000
,
0010
0000
1000
0000
0100
0000
0001
0000
0010
0000
0001
0000
0100
0000
1000
0001
,
0010
0100
1100
0010
1000
0001
0101
0000
,
1000
0000
1000
0000
0001
0000
0001
0000
1000
0000
0100
0000
0001
0000
0010
0100
,
1000
1000
0010
0001
0001
0100
1000
1000
,
1000
0000
0010
0000
1000
0000
0100
0000
0010
0000
0001
0000
0100
0010
1000
0001
,
0010
0100
1000
0010
1000
0001
0010
0100
,
0010
0000
0001
0000
0100
0000
1000
0000
0010
0100
0010
0000
1000
0000
0001
0000
,
0010
0000
1000
0000
0100
1000
0001
1000
0010
0000
0100
0000
0001
0000
0010
0000
,
0100
0000
1000
0000
0010
0000
0001
0000
1000
0001
0010
0000
0001
0000
0100
0000
,
1000
0010
0001
0100
0000
0110
0110
0001
,
1000
0000
0010
0000
1000
0000
0001
0000
0010
0100
1000
0000
0001
1000
0100
0000
,
0010
1000
0100
0001
1000
0001
0010
1000
,
0100
0000
0010
0000
0001
1000
0100
0000
0010
1000
0010
0000
0100
0000
0001
0000
,
0010
1001
0100
0001
0010
1000
0100
0010
,
0001
0000
0001
0000
0001
0000
0001
0000
1000
0010
1000
0000
0001
0000
0100
0000
,
0010
1000
0100
0010
0001
0101
0101
1000
,
0010
0000
0100
0000
0100
0000
0001
0000
1000
0010
1000
0000
0100
0000
0001
0000
,
0010
0100
1000
0001
0000
1010
1010
0001
,
1000
0000
0010
1000
0001
0000
0100
0000
0001
0010
0100
0000
1000
0000
0001
0000
,
0010
0000
0001
0100
0001
0000
0010
0000
1000
0000
0001
0000
1000
0000
0100
0000
,
0010
0100
1000
0010
1000
0001
1000
0010
,
0100
1000
0100
0001
0010
1000
0001
0010
,
0100
0000
0000
0000
1000
0001
0010
0100
0010
0001
1000
0100
1000
0010
0100
0001
,
0010
0100
1000
0010
0001
0100
1000
0001
,
0010
0000
0001
0000
1000
0000
0010
0000
0001
0000
1000
0000
0100
0000
0010
0100
,
1000
0010
0101
0010
1000
0001
0011
0000
,
0100
0000
0100
0000
0010
0000
0010
0000
0100
0000
1000
0001
0010
0000
0100
0000
,
1000
0010
0001
0100
1000
0001
0100
0010
,
1000
0000
0001
0000
1000
0000
0100
0000
0010
0000
0001
0000
0100
0000
0001
1000
,
0100
0010
0011
0100
0010
1000
1100
0001
,
0010
0000
0010
0000
0100
0000
0100
0000
0010
0000
0001
1000
0100
0000
1000
0001
,
1000
0000
0010
0000
0100
0000
0001
0000
0010
0000
0110
0000
0100
0000
1000
0001
,
1000
0000
1010
0000
0001
0000
0011
0000
0100
0000
0110
0000
1001
0000
0010
0100
,
0001
0000
0011
0000
0110
0000
1100
0000
0010
0000
1001
0000
0100
0000
0001
1000
,
0010
0000
0010
0000
1000
0000
1000
0000
0100
0000
0010
0001
0100
0000
0010
0001
,
1000
0000
0000
0000
;
