#VERSION:0.83;
#TITLE:The Safety Dance;
#SUBTITLE:;
#ARTIST:Men Without Hats;
#TITLETRANSLIT:;
#SUBTITLETRANSLIT:;
#ARTISTTRANSLIT:;
#GENRE:;
#ORIGIN:;
#CREDIT:;
#BANNER:The Safety Dance-bn.png;
#BACKGROUND:The Safety Dance-bg.png;
#PREVIEWVID:;
#JACKET:The Safety Dance-jacket.png;
#CDIMAGE:;
#DISCIMAGE:;
#LYRICSPATH:;
#CDTITLE:;
#MUSIC:The Safety Dance.ogg;
#OFFSET:0.000000;
#SAMPLESTART:11.803000;
#SAMPLELENGTH:20.000000;
#SELECTABLE:YES;
#DISPLAYBPM:102.000000;
#BPMS:0.000=101.670;
#STOPS:;
#DELAYS:;
#WARPS:;
#TIMESIGNATURES:0.000=4=4;
#TICKCOUNTS:0.000=4;
#COMBOS:0.000=1;
#SPEEDS:0.000=1.000=0.000=0;
#SCROLLS:0.000=1.000;
#FAKES:;
#LABELS:0.000=Song Start;
#BGCHANGES:3.000=The Safety Dance.avi=1.000=1=0=0=StretchNoLoop==CrossFade==,
165.000=The Safety Dance-bg.png=1.000=0=0=0=StretchNoLoop====,
99999=-nosongbg-=1.000=0=0=0 // don't automatically add -songbackground-
;
#KEYSOUNDS:;
#ATTACKS:
;

//---------------dance-single - ----------------
#NOTEDATA:;
#CHARTNAME:;
#STEPSTYPE:dance-single;
#DESCRIPTION:;
#CHARTSTYLE:;
#DIFFICULTY:Hard;
#METER:13;
#RADARVALUES:0.575049,0.603423,0.262303,0.000000,0.696112,399.000000,373.000000,26.000000,0.000000,0.000000,0.000000,0.000000,0.000000,0.000000,0.575049,0.603423,0.262303,0.000000,0.696112,399.000000,373.000000,26.000000,0.000000,0.000000,0.000000,0.000000,0.000000,0.000000;
#CREDIT:;
#DISPLAYBPM:102.000000;
#NOTES:
0000
0000
0000
0000
,
0000
0000
0000
0000
,
0000
0000
0000
0000
,
0000
0000
0001
0000
0101
0000
0001
0010
0100
1000
0000
0000
1010
0000
1000
0001
,
0000
0000
0100
0000
0110
0000
0100
0010
1000
0001
0000
0000
0101
0000
1000
0001
,
0000
0000
0001
0010
0100
0000
1000
0001
1000
0100
0000
0000
0000
0000
0010
0001
,
0100
0000
0100
0000
0100
0000
0010
1000
0000
0000
0000
0000
0000
0000
0001
0010
,
0100
0000
1100
0000
1010
0000
0100
0001
0000
1000
0001
0000
0011
0000
0100
1000
,
0000
0000
0001
0000
0001
0000
1000
0100
0000
0000
0000
0000
0010
0000
1001
0000
,
0000
0000
1000
0100
0010
0000
0001
1000
0001
0100
0000
0000
0000
0000
0010
1000
,
0001
0000
0001
0000
0001
0000
0010
0100
0000
0000
0000
0000
0000
1000
0100
1000
,
0001
0000
0010
0001
0100
0000
0010
1000
0000
0010
1000
0000
0001
0000
0010
0100
,
1000
0000
0001
0000
1000
0000
0010
0100
0000
0000
0000
0000
0000
0001
0010
0100
,
1000
0001
0000
0101
0000
0100
0010
0000
1000
0100
0000
0110
0000
0010
0001
0000
,
0100
0010
0000
1010
0000
1000
0001
0000
1000
0010
0100
0001
1000
0010
0100
0001
,
1000
0001
0000
0011
0000
0010
0100
0000
1000
0001
1000
0001
0000
0000
0010
0100
,
1000
0001
0000
1010
0000
0100
0010
0000
1000
0100
0010
0001
1000
0100
0010
0001
,
0000
0000
0100
0010
1000
0000
0001
0010
0001
0100
0000
0000
0000
0000
0010
1000
,
0001
0000
0001
0000
0001
0000
1000
0100
0000
0000
0000
0000
0000
0010
0001
1000
,
0001
0000
0110
0000
1001
0000
0010
1000
0100
0000
0010
0001
0100
0000
0001
1000
,
0001
0010
0001
0010
0100
0000
1000
0001
0000
0000
0000
0000
0100
0000
1001
0000
,
0000
0000
0010
1000
0100
0000
1000
0001
1000
0100
0000
0000
0000
0000
0010
0001
,
0100
0000
0100
0000
0100
0000
0010
1000
0000
0000
0000
0000
0000
0001
1000
0010
,
1000
0000
1100
0000
0011
0000
0100
0010
0000
0100
0001
1000
0001
0100
0001
1000
,
0010
0000
1000
0100
0010
0000
0001
1000
0000
0000
0000
0000
0010
0100
0001
0000
,
0010
0000
0100
1000
0001
0000
0000
0000
0100
0000
0010
1000
0001
0000
0000
0000
,
1000
0100
0010
0000
0001
1000
0001
0100
0000
0000
0000
0000
0110
0000
0000
0000
,
0001
0000
1000
0010
0100
0000
0000
0000
0001
0000
1000
0100
0010
0000
0000
0000
,
0001
0100
0010
0000
1000
0000
0100
0010
0001
0000
0000
0000
0101
0000
0000
0000
,
0010
0000
1000
0001
0100
0000
0000
0000
0001
0000
1000
0010
0100
0000
0000
0000
,
0001
0010
0001
0100
0001
0010
0001
1000
0000
0000
0010
0100
0000
0010
1000
0100
,
0000
0000
0010
0001
0100
0000
0000
0000
0001
0000
1000
0010
0100
0000
0000
0000
,
0001
0010
0100
0010
0001
0100
0010
0100
0001
0000
0000
0000
1001
0000
0100
0000
,
1010
0000
0001
0000
0001
0000
1000
0001
0100
0000
0010
1000
0100
0000
0010
0001
,
0000
0000
0100
0000
0100
0000
0010
1000
0001
0000
1000
0100
0010
0000
0001
1000
,
0000
0000
0010
0000
0010
0000
0100
0001
0010
0000
0001
1000
0010
0000
1000
0100
,
0000
0000
1000
0000
1000
0000
0001
0010
0001
0000
0100
0010
1000
0000
0001
0100
,
0010
0000
1000
0000
1100
0000
0001
0100
0001
0010
0100
1000
0001
0000
0100
0010
,
1000
0000
0001
0000
0011
0000
1000
0001
0010
0001
0010
0100
1000
0000
0010
0100
,
0001
0000
0100
0000
0101
0000
1000
0010
1000
0100
0010
0001
0100
0000
0001
1000
,
0001
0000
0010
0000
0110
0000
1000
0010
1000
0100
0010
0001
0100
0000
0010
1000
,
0001
0001
0001
0001
0001
0000
0000
0000
0000
0000
0000
0000
0000
0000
0000
0000
;

//---------------dance-single - ----------------
#NOTEDATA:;
#CHARTNAME:;
#STEPSTYPE:dance-single;
#DESCRIPTION:;
#CHARTSTYLE:;
#DIFFICULTY:Medium;
#METER:10;
#RADARVALUES:0.390572,0.395346,0.141240,0.000000,0.100886,271.000000,257.000000,14.000000,0.000000,0.000000,0.000000,0.000000,0.000000,0.000000,0.390572,0.395346,0.141240,0.000000,0.100886,271.000000,257.000000,14.000000,0.000000,0.000000,0.000000,0.000000,0.000000,0.000000;
#CREDIT:;
#DISPLAYBPM:102.000000;
#NOTES:
0000
0000
0000
0000
,
0000
0000
0000
0000
,
0000
0000
0000
0000
,
0000
0001
0010
0001
1000
0000
1001
0100
,
0000
0010
1000
0010
0100
0000
0110
0001
,
0000
0010
0001
1000
0001
0000
0101
0000
,
0010
1000
0001
1000
0100
0000
0000
0010
,
0001
0001
0001
0100
0010
0010
0010
1000
,
0000
0100
1000
0001
0100
0000
0000
1001
,
0000
0010
1000
0100
1000
0000
1010
0000
,
0001
0010
0001
0100
1000
0000
0000
0010
,
1000
1000
1000
0100
0010
0010
0010
0001
,
0100
0001
1000
0001
0100
0000
0000
0010
,
1001
0000
0000
0100
0000
0000
0001
0000
1000
0000
0000
0100
0000
0000
0010
0000
,
0001
0000
0000
1000
0000
0000
0001
0000
0100
0000
0010
0000
0100
0000
0010
0000
,
1000
0000
0000
0001
0000
0000
0010
0000
0001
0000
0000
0100
0000
0000
0010
0000
,
1000
0000
0000
0001
0000
0000
1000
0000
0010
0000
0100
0000
0010
0000
0100
0000
,
0000
0001
0010
0100
1000
0000
1100
0000
,
0010
1000
0001
1000
0100
0000
0000
0010
,
0001
0001
0001
1000
0100
0100
0100
0010
,
0100
1000
0010
1000
0001
0000
0000
0110
,
0000
0010
1000
0100
1000
0000
0011
0000
,
0100
0001
1000
0001
0010
0000
0000
0100
,
1000
1000
1000
0001
0100
0100
0100
0010
,
0100
0001
0010
0001
1000
0000
0000
0110
,
0000
0000
1000
0001
1000
0000
0000
0000
0000
0000
0010
0100
0010
0000
0000
0000
,
1000
0100
0010
0001
0100
0010
1000
0001
,
0000
0000
0010
0001
0010
0000
0000
0000
0000
0000
0100
1000
0100
0000
0000
0000
,
1000
0010
1000
0001
0010
0100
0010
0001
,
0000
0000
0100
0001
0100
0000
0000
0000
0000
0000
0010
1000
0010
0000
0000
0000
,
1000
0001
0010
0001
1000
0010
0100
0001
,
0000
0000
0100
0010
0100
0000
0000
0000
0000
0000
0001
1000
0001
0000
0000
0000
,
0010
0001
0010
0100
1000
0000
0010
1000
,
0001
0000
0001
0000
0001
0000
0100
0000
0010
0000
0000
0000
1000
0000
0100
0010
,
0000
0000
0001
0000
0001
0000
1000
0000
0010
0000
0100
0000
0100
0000
0001
1000
,
0000
0000
0100
0000
1000
0000
0010
0000
1000
0000
0001
0000
0010
0000
0100
1000
,
0000
0000
0010
0000
0010
0000
0010
0000
1000
0000
0100
0000
0010
0000
0001
1000
,
0001
0100
0010
1000
0001
0000
0011
0100
,
1000
0010
1000
0001
0100
0000
1010
0001
,
1000
0010
1000
0100
0010
0000
0110
0001
,
1000
0010
1000
0100
0010
0000
1001
0100
,
0001
1000
0001
1000
0001
0000
0000
0000
0000
0000
0000
0000
0000
0000
0000
0000
;

//---------------dance-single - ----------------
#NOTEDATA:;
#CHARTNAME:;
#STEPSTYPE:dance-single;
#DESCRIPTION:;
#CHARTSTYLE:;
#DIFFICULTY:Easy;
#METER:6;
#RADARVALUES:0.240685,0.270500,0.363189,0.000000,0.000000,167.000000,131.000000,36.000000,0.000000,0.000000,0.000000,0.000000,0.000000,0.000000,0.240685,0.270500,0.363189,0.000000,0.000000,167.000000,131.000000,36.000000,0.000000,0.000000,0.000000,0.000000,0.000000,0.000000;
#CREDIT:;
#DISPLAYBPM:102.000000;
#NOTES:
0000
0000
0000
0000
,
0000
0000
0000
0000
,
0000
0000
0000
0000
,
0001
0101
0001
0101
,
1000
1100
1000
1100
,
0010
1000
0100
0000
,
0010
0001
0100
0000
,
0001
0011
1000
1010
,
0100
0010
1001
0000
,
0010
1000
0001
0000
,
0100
0010
1000
0000
,
0001
0101
1000
1100
,
0010
0100
1001
0000
,
1010
0100
0011
0100
,
1010
0100
0001
0001
,
0101
0010
1100
0010
,
0101
0010
1000
1000
,
0100
0010
0001
0000
,
0100
0001
1000
0000
,
0010
1010
0100
0101
,
1000
0001
0110
0000
,
0100
0001
0010
0000
,
0001
0100
1000
0000
,
0100
1100
0010
0011
,
1000
0001
0110
0000
,
0000
1010
0000
0101
,
1000
0100
0001
0000
,
0000
0011
0000
1100
,
0010
1000
0100
0000
,
0000
1010
0000
0011
,
0010
0001
0100
0000
,
0000
0101
0000
1100
,
0010
1000
0100
0010
,
0001
0001
0001
0100
,
0010
1000
1000
0100
,
0010
0001
0001
1000
,
0001
0100
0100
0010
,
1000
0001
0100
1010
,
0100
0001
0010
0101
,
1000
0001
0100
0011
,
0100
0001
1000
1100
,
1001
0110
0000
0000
;

//---------------dance-single - ----------------
#NOTEDATA:;
#CHARTNAME:;
#STEPSTYPE:dance-single;
#DESCRIPTION:;
#CHARTSTYLE:;
#DIFFICULTY:Beginner;
#METER:2;
#RADARVALUES:0.125387,0.166462,0.100886,0.000000,0.000000,87.000000,77.000000,10.000000,0.000000,0.000000,0.000000,0.000000,0.000000,0.000000,0.125387,0.166462,0.100886,0.000000,0.000000,87.000000,77.000000,10.000000,0.000000,0.000000,0.000000,0.000000,0.000000,0.000000;
#CREDIT:;
#DISPLAYBPM:102.000000;
#NOTES:
// measure 0
0000
0000
0000
0000
,  // measure 1
0000
0000
0000
0000
,  // measure 2
0000
0000
0000
0000
,  // measure 3
0000
0001
0000
1000
,  // measure 4
0000
0001
0000
1000
,  // measure 5
0000
0010
0010
0000
,  // measure 6
1000
0000
0100
0000
,  // measure 7
0010
0000
0010
0000
,  // measure 8
0010
0000
0001
0000
,  // measure 9
0000
0100
0100
0000
,  // measure 10
0010
0000
1000
0000
,  // measure 11
0001
0000
0001
0000
,  // measure 12
0001
0000
0010
0000
,  // measure 13
1001
0000
0100
0000
,  // measure 14
0010
0000
1000
0000
,  // measure 15
1000
0000
0100
0000
,  // measure 16
0010
0000
0001
0000
,  // measure 17
0000
1000
1000
0000
,  // measure 18
0001
0000
0010
0000
,  // measure 19
0001
0000
0100
0000
,  // measure 20
0010
0000
1000
0000
,  // measure 21
0000
0001
0001
0000
,  // measure 22
0010
0000
0100
0000
,  // measure 23
1000
0000
0010
0000
,  // measure 24
1000
0000
0001
0000
,  // measure 25
0000
1001
0000
1001
,  // measure 26
0000
0100
0100
0000
,  // measure 27
0000
0110
0000
0110
,  // measure 28
0000
1000
1000
0000
,  // measure 29
0000
1001
0000
1001
,  // measure 30
0000
0001
0001
0000
,  // measure 31
0000
0110
0000
0110
,  // measure 32
0000
0010
0010
0000
,  // measure 33
1000
0000
0001
0000
,  // measure 34
1000
0000
0100
0000
,  // measure 35
0010
0000
0001
0000
,  // measure 36
0100
0000
0010
0000
,  // measure 37
1000
0000
0001
0000
,  // measure 38
1000
0000
0100
0000
,  // measure 39
0010
0000
0001
0000
,  // measure 40
0100
0000
0010
0000
,  // measure 41
0000
0110
0000
0000
;
