#TITLE:The Rockafeller Skank;
#ARTIST:Fatboy Slim;
#BANNER:The Rockafeller Skank.png;
#BACKGROUND:The Rockafeller Skank-bg.png;
#JACKET:The Rockafeller Skank-jacket.png;
#MUSIC:The Rockafeller Skank.ogg;
#SAMPLESTART:7.444;
#SAMPLELENGTH:20;
#DISPLAYBPM:151:153;
#BPMS:0=153.2,4=152.64,132=151,136=153,143=151,144=152.7,164=152,172=152.8,176=151.6,180=153,184=152.66;
#BGCHANGES:0=The Rockafeller Skank.avi=1=0=0=0,
;

//---------------dance-single - ----------------
#NOTES:
     dance-single:
     :
     Beginner:
     2:
     :
0000
0000
0000
0000
,
0000
0000
0000
0000
,
0000
0000
0000
0000
,
1000
0000
0000
0000
,
0001
0000
0000
0000
,
0100
0100
0000
0000
,
0100
0000
0100
0000
,
1000
1000
0000
0000
,
1000
0000
1000
0000
,
0001
0001
0000
0000
,
0001
0000
0001
0000
,
0010
0010
0000
0000
,
0010
0000
0010
0000
,
0100
0000
0000
0000
,
1000
0000
0100
0000
,
0001
0000
0000
0000
,
0001
0000
0100
0000
,
1000
0000
0000
0000
,
1000
0000
0010
0000
,
0001
0000
0000
0000
,
0001
0000
0010
0000
,
1000
0000
0000
0000
,
0100
0000
0010
0000
,
0001
0000
0000
0000
,
0100
0000
0010
0000
,
1000
0000
0000
0000
,
0001
0000
1000
0000
,
0100
0000
0000
0000
,
0010
0000
0001
0000
,
1000
0000
0000
0000
,
0001
0000
0001
0000
,
1000
0000
0000
0000
,
1000
0000
1000
0000
,
0010
0000
0010
0000
,
0100
0000
0100
0000
,
0001
0000
0001
0000
,
1000
0000
1000
0000
,
0100
0000
0100
0000
,
0001
0000
0001
0000
,
0010
0000
0010
0000
,
1000
0000
1000
0000
,
0200
0000
0000
0300
,
0000
0000
0000
0000
,
0010
0010
0000
0000
,
0010
0000
0010
0000
,
0100
0100
0000
0000
,
0100
0000
0100
0000
,
1000
1000
0000
0000
,
1000
0000
1000
0000
,
0001
0001
0000
0000
,
0001
0000
0001
0000
,
0010
0010
0000
0000
,
0100
0000
0010
0000
,
0100
0100
0000
0000
,
0010
0000
0100
0000
,
1000
1000
0000
0000
,
0001
0000
1000
0000
,
0001
0001
0000
0000
,
1000
0000
0001
0000
,
1001
0000
0000
0000
;

//---------------dance-single - ----------------
#NOTES:
     dance-single:
     :
     Easy:
     5:
     :
0000
0000
0000
0000
,
0000
0000
0000
0000
,
0000
0000
0000
0000
,
1000
0000
0001
0000
,
1000
0001
1000
0001
,
0100
0100
0000
0010
,
0000
1000
0000
0100
,
1000
1000
0000
0010
,
0000
0001
0000
0100
,
0001
0001
0000
1000
,
0000
0100
0000
0010
,
0001
0001
0000
0100
,
0000
0010
0000
1000
,
0001
0001
0001
0000
,
0010
0000
0100
0000
,
1000
0001
1000
0000
,
0010
0000
0100
0000
,
0001
0001
0001
0000
,
1000
0000
0100
0000
,
0010
0001
0010
0000
,
0100
0000
1000
0000
,
0010
0020
0000
0030
,
1000
0010
1000
0010
,
1000
2000
0000
3000
,
0100
1000
0100
1000
,
0100
0200
0000
0300
,
0010
0100
0010
0100
,
0010
0020
0000
0030
,
0001
1000
0001
1001
,
0002
0000
1003
0000
,
1000
1000
0001
0001
,
0200
0000
0310
0000
,
0100
0100
0010
0010
,
1000
0000
0001
0000
,
0010
0100
0010
0100
,
1000
0000
0001
0000
,
0100
0010
0100
0010
,
1000
0000
0100
0000
,
0001
0100
1000
0100
,
0010
0000
0001
0000
,
0100
1000
0100
0001
,
1000
0000
0000
0000
,
0000
0000
1000
0001
,
0010
0010
0000
0100
,
0000
1000
0000
0010
,
1000
1000
0000
0100
,
0000
0001
0000
0010
,
0001
0001
0000
1000
,
0000
0010
0000
0100
,
0001
0001
0000
0010
,
0000
0100
0000
1000
,
0001
0001
0001
0000
,
0100
0000
0010
0000
,
1000
0100
1000
0000
,
0001
0000
0100
0000
,
0010
0010
0010
0000
,
1000
0000
0001
0000
,
0010
0100
0010
0000
,
0100
0000
1000
0000
,
1001
0000
0000
0000
;

//---------------dance-single - ----------------
#NOTES:
     dance-single:
     :
     Medium:
     8:
     :
0000
0000
0000
0000
,
0000
0000
0000
0000
,
0000
0000
0000
0000
,
0001
0100
1000
0010
,
0001
1000
0001
1000
,
0001
2000
3100
0001
,
0100
0000
1000
0000
0010
0000
0001
0010
,
1000
0002
0103
1000
,
0100
0000
0001
0000
0010
0000
1000
0010
,
0100
0020
0031
0100
,
0010
0000
0100
0000
0001
0000
1000
0100
,
0010
0200
1300
0010
,
0100
0010
1001
0110
,
0001
0000
0100
0001
0000
0001
0010
0000
,
0100
0100
0010
0010
,
0001
0000
1000
0100
0000
0100
1000
0000
,
0001
0001
0010
0010
,
0100
0000
1000
0010
0000
0010
1000
0000
,
0001
0001
0100
0100
,
0010
0000
1000
0001
0000
0001
1000
0000
,
0100
0010
0100
0010
,
0002
2003
3010
0001
,
0010
0000
1000
0000
0100
0000
0001
0100
,
2000
3002
0013
1000
,
0010
0000
0001
0000
0100
0000
1000
0100
,
0020
0230
0301
0010
,
0100
0000
0010
0000
0001
0000
1000
0010
,
0200
0320
1030
0100
,
0010
0001
1000
0001
,
1000
0010
1000
0000
0010
1000
0010
0000
,
0100
0001
0100
0001
,
0010
0001
0010
0000
0001
0010
0001
0000
,
1000
0100
1000
0100
,
0010
0100
0010
0001
,
0100
0020
1000
1030
,
0001
0100
0010
1000
,
0100
0020
0001
0031
,
1000
0001
0100
0010
,
0001
1000
0101
1100
,
0010
0001
1000
0100
,
0010
0001
1100
0101
,
0020
0000
0000
0000
,
2030
0000
3002
0000
,
1003
1000
0100
0001
,
0100
0000
1000
0000
0010
0000
0001
0010
,
2000
3002
0103
1000
,
0100
0000
0001
0000
0010
0000
1000
0010
,
0200
0320
0031
0100
,
0010
0000
0100
0000
0001
0000
1000
0100
,
0020
0230
1300
0010
,
0100
0010
1001
0110
,
1000
0000
0100
1000
0000
1000
0010
0000
,
0100
0100
0010
0010
,
1000
0000
0001
0100
0000
0100
0001
0000
,
1000
1000
0010
0010
,
0100
0000
0001
0010
0000
0010
0001
0000
,
1000
1000
0100
0100
,
0010
0000
0001
1000
0000
1000
0001
0000
,
0100
0010
1000
0001
,
0200
0000
0000
0000
,
0300
0000
0000
0000
;

//---------------dance-single - ----------------
#NOTES:
     dance-single:
     :
     Hard:
     11:
     :
0000
0000
0000
0000
,
0000
0000
0000
0000
,
0000
0000
0000
0000
,
1000
1000
0001
0001
0100
0100
0010
0010
,
0002
0023
2030
3001
,
1001
0000
1010
0000
0100
0001
0010
0000
,
1000
0001
0100
0000
1000
0010
0100
0000
,
1001
0000
1100
0000
0010
0001
0100
0000
,
1000
0001
0010
0000
1000
0100
0010
0000
,
1001
0000
0011
0000
0100
1000
0010
0000
,
0001
1000
0100
0000
0001
0010
0100
0000
,
1001
0000
0101
0000
0010
1000
0100
0000
,
0001
0100
1000
0100
0001
0100
1000
0010
,
0100
0001
1000
0001
0000
1000
0010
0100
,
0001
0010
0001
0010
0100
0010
0100
1000
,
0001
0100
0001
1000
0000
0010
1000
0100
,
0010
0001
0010
0001
1000
0100
1000
0100
,
1000
0001
1000
0010
0000
0100
0001
0010
,
0100
1000
0100
1000
0001
1000
0001
0010
,
0001
0100
0001
1000
0000
0001
1000
0001
,
0010
0100
0010
0001
1000
0010
0100
0000
,
1001
0000
0101
0000
0010
1000
0001
0000
,
0100
1000
0010
0100
0001
0010
0100
0010
,
1001
0000
0011
0000
0100
1000
0001
0000
,
0010
1000
0100
0010
0001
0100
0010
1000
,
1001
0000
1100
0000
0010
0001
0100
0000
,
1000
0001
0010
0100
1000
0010
0100
0010
,
1001
0000
1010
0000
0100
0001
0010
0000
,
1000
0001
0100
0010
1000
0010
0100
0001
,
0010
0010
0100
0100
0010
0010
0100
0100
,
1000
0001
0100
0000
1000
0001
0100
0000
,
0010
0010
0100
0100
0010
0010
0100
0100
,
0010
1000
0001
0000
0010
1000
0001
0000
,
0010
0000
0101
0000
0010
0100
0001
0000
,
0010
0010
0100
1000
0002
0000
0023
0000
,
0130
0000
1100
0000
0010
0100
1000
0000
,
0010
0010
0100
0001
2000
0000
3020
0000
,
0130
0000
1010
0000
0100
0010
1000
0000
,
0100
0100
0010
0001
2000
0000
3200
0000
,
0310
0000
0011
0000
0100
0010
0001
0000
,
0100
0100
0010
1000
0002
0000
0203
0000
,
0310
0100
0001
1000
,
1001
0000
0110
0000
0100
0100
0010
0010
,
0002
0000
2003
0000
3001
0100
1000
0100
,
0002
0000
2003
0000
3100
0001
0100
1000
,
0002
0000
2003
0000
3001
0010
1000
0010
,
0002
0000
2003
0000
3010
0001
0010
1000
,
0002
0000
0203
0000
0310
0100
0001
1000
,
0002
0000
0023
0000
0130
0010
0001
1000
,
0020
0000
0230
0000
0301
0010
0100
1000
,
0002
0000
2003
0000
3010
0100
0001
1000
,
1001
0000
0101
0000
0010
1000
0001
0000
,
0100
1000
0010
0000
0001
0010
0100
0000
,
1001
0000
0011
0000
0100
1000
0001
0000
,
0010
1000
0100
0000
0001
0100
0010
0000
,
1001
0000
1100
0000
0010
0001
0100
0000
,
1000
0001
0010
0000
1000
0010
0100
0000
,
1001
0000
1010
0000
0100
0001
0010
0000
,
1000
0001
0100
0010
1000
0100
0010
0001
,
0200
0000
0000
0000
,
0000
0000
0000
0000
,
0300
0000
0000
0000
;

//---------------dance-single - ----------------
#NOTES:
     dance-single:
     :
     Challenge:
     15:
     :
0000
0000
0000
0000
,
0000
0000
0000
0000
,
0000
0000
0000
0000
,
0011
0010
1100
0100
0101
0001
1010
1000
,
1001
0000
1001
0000
0010
1000
0010
1000
0001
0100
0001
0100
0001
0010
0100
1000
,
0001
0000
0000
0000
1010
0000
0100
0000
0001
0000
0010
0000
1000
0000
0100
0010
,
0001
0000
0100
0000
1000
0000
0100
0000
0001
0000
0100
0000
0010
0000
1000
0001
,
1000
0000
0100
0000
0011
0000
0001
0000
0000
0000
0100
0000
0010
0000
1000
0001
,
1000
0000
0010
0000
0100
0000
0001
0000
0010
0000
0100
0000
0001
0000
0100
1000
,
0010
0000
0100
0000
0101
0000
1000
0000
0000
0000
0001
0000
0010
0000
0001
0100
,
0010
0000
0001
0000
0010
0000
1000
0000
0100
0000
0010
0000
0001
0000
1000
0100
,
1000
0000
0010
0000
1001
0000
0100
0000
0000
0000
0010
0000
1000
0000
0100
0010
,
0001
0100
0010
1000
0100
0010
0001
0001
,
0001
0000
0100
0000
1000
0000
0010
0000
0000
0000
0100
0000
0100
0000
0001
0010
,
1000
0000
1000
0000
0100
0000
0100
0000
1000
0000
0001
0000
0100
0000
0010
1000
,
0001
0000
0010
0000
1000
0000
0100
0000
0000
0000
0010
0000
0010
0000
0001
0100
,
0001
0000
0001
0000
0010
0000
0010
0000
0001
0000
0100
0000
1000
0000
0010
0100
,
0010
0000
1000
0000
0100
0000
0001
0000
0000
0000
1000
0000
1000
0000
0100
0010
,
0001
0000
0001
0000
0100
0000
0100
0000
0010
0000
1000
0000
0100
0000
0010
0001
,
0010
0000
0100
0000
1000
0000
0001
0000
0000
0000
0100
0000
0100
0000
0010
1000
,
0001
0000
0001
0000
1000
0000
1000
0010
0100
0000
0010
0000
0001
0000
0100
0010
,
1000
0000
0001
0000
1100
0000
0010
0000
1000
0000
0100
0000
0010
0000
0001
1000
,
0001
0000
0100
0000
0010
0000
0100
0000
1000
0000
0100
0000
0001
0000
0010
0100
,
1000
0000
0010
0000
0101
0000
1000
0000
0100
0000
0010
0000
0001
0000
1000
0100
,
0010
0000
1000
0000
0010
0000
0100
0010
0001
0000
0100
0000
0001
0000
1000
0010
,
1000
0000
0001
0000
0110
0000
1000
0000
0010
0000
0100
0000
0001
0000
1000
0100
,
1000
0000
0010
0000
0100
0000
1000
0000
0100
0000
0001
0000
0010
0000
0100
1000
,
0001
0000
0100
0000
1010
0000
0001
0000
0010
0000
1000
0000
0100
0000
0010
0001
,
0100
0000
0010
0000
1000
0000
0001
0010
0001
0000
0100
0000
0010
0000
1000
0001
,
0100
0000
0100
0000
0100
0000
0100
0000
0100
0000
0100
0000
0100
0000
0100
0001
,
0100
0000
0010
0000
1000
0001
1000
0001
0100
0000
0010
0000
1000
0001
1000
0001
,
0100
0000
0100
0000
0100
0000
0100
0000
0100
0000
0100
0000
0100
0000
0100
0001
,
0100
0000
0010
0000
1000
0100
1000
0100
0010
0001
0010
0001
0100
0010
1000
0001
,
0100
0000
0010
0000
1000
0000
0001
0010
0100
0000
0010
0000
0001
0000
1000
0010
,
1000
0000
0100
0000
0010
0001
0100
0000
0010
1000
0100
0000
1000
0001
0100
0000
,
0010
0000
1000
0000
0001
0000
1000
0000
0100
0000
0010
0000
0001
0000
0100
0010
,
1000
0000
0001
0000
0010
0100
1000
0000
0010
1000
0001
0000
0100
0010
1000
0000
,
0001
0000
0010
0000
1000
0000
0100
0000
0010
0000
0100
0000
1000
0000
0001
0100
,
0010
0000
1000
0000
0100
0000
0010
0001
1000
0000
0001
0000
0100
0000
0010
1000
,
0001
0000
0100
0000
1000
0000
0100
0000
0010
0000
1000
0000
0100
0000
0010
0001
,
0100
0000
0010
0000
1000
0001
1000
0100
0010
0000
0010
0000
0001
0010
0100
1000
,
0001
0100
1010
1001
,
0110
0000
0000
0000
1001
0000
0000
0000
0001
0010
0100
1000
0001
0010
0100
1000
,
0010
0000
0100
0000
0001
0000
0010
0001
1000
0000
0010
0000
0100
0000
1000
0100
,
0001
0000
0010
0000
0100
0000
1000
0000
0010
1000
0010
0100
0001
1000
0100
0000
,
0010
0000
0001
0000
1000
0000
0010
1000
0100
0000
0010
0000
0001
0000
0100
0010
,
1000
0000
0100
0000
0001
0000
0100
0000
0010
0100
0010
0100
0001
0100
1000
0000
,
0010
0000
1000
0000
0001
0000
0010
0100
1000
0000
0010
0000
1000
0000
0001
0010
,
0001
0000
0100
0000
0010
0000
1000
0000
0100
0010
0001
0000
0100
0000
0010
1000
,
0001
0000
0100
0000
0001
0000
0010
0000
0100
1000
0100
0000
1000
0010
0100
0001
,
0010
0000
0100
0000
1000
0100
1000
0100
0001
0100
0001
0100
1000
0100
0010
0001
,
0100
0000
0010
0000
1000
0000
0001
0100
0001
0000
0010
0000
1000
0000
0100
0010
,
0001
0000
0100
0000
0010
0000
1000
0000
0100
0010
0001
0100
0001
1000
0010
0000
,
0100
1000
0100
0010
1000
0100
0010
0001
,
0100
0000
0001
0000
0010
0000
1000
0100
1000
0000
0010
0000
0001
0000
0100
0010
,
0100
0000
0001
0000
0010
0000
0100
1000
0001
0000
1000
0000
0010
0000
0100
0001
,
0100
0000
0010
0000
1000
0000
0001
0000
0010
0001
0100
0000
0001
0010
0100
1000
,
0010
0000
0100
0000
0001
0000
0100
0010
1000
0000
0001
0000
1000
0000
0100
0010
,
0001
0000
0100
0000
0010
0000
1000
0000
0100
0010
0100
0010
0001
1000
0010
0000
,
0100
0100
0100
0100
0100
0100
0100
0100
,
0100
0100
0100
0100
0100
0100
0100
0100
,
0100
0100
0100
0100
0100
0100
0100
0100
,
0100
0100
0100
0100
0100
0100
0100
0100
;

//---------------dance-double - ----------------
#NOTES:
     dance-double:
     :
     Easy:
     5:
     :
00000000
00000000
00000000
00000000
,
00000000
00000000
00000000
00000000
,
00000000
00000000
00000000
00000000
,
00010000
00001000
00010000
00001000
,
00010000
00010000
00001000
00001000
,
00010000
00000000
01000000
00000000
,
10000000
00000000
00100000
00000000
,
10000000
00000000
01000000
00000000
,
00010000
00000000
00001000
00000000
,
00000100
00000000
00000001
00000000
,
00000010
00000000
00000001
00000000
,
00000100
00000000
00001000
00000000
,
00010000
00010000
00001000
00001000
,
00010000
00000000
00100000
00000000
,
01000000
00010000
01000000
00000000
,
00100000
00000000
10000000
00000000
,
01000000
00010000
01000000
00000000
,
00100000
00000000
00001000
00000000
,
00010000
00001000
00010000
00000000
,
00000100
00000000
00001000
00000000
,
00000001
00000100
00000001
00000000
,
00000010
00000010
00000000
00000000
,
00000100
00001000
00000100
00010000
,
00001000
00001000
00000000
00000000
,
01000000
00010000
01000000
00010000
,
10000000
10000000
00000000
00000000
,
01000000
00100000
01000000
00100000
,
00001000
00001000
00000000
00000000
,
00010000
00010000
00001000
00011000
,
00020000
00030000
00002000
00003000
,
00010000
00000100
00010000
00000100
,
00002000
00003000
00000002
00000003
,
00000100
00000001
00000100
00000001
,
00001000
00000000
00000100
00000000
,
00010000
00001000
00010000
00010000
,
00001000
00000000
01000000
00000000
,
00010000
00100000
00010000
00010000
,
00100000
00000000
01000000
00000000
,
10000000
01000000
00010000
00010000
,
00001000
00000000
00000100
00000000
,
00000001
00000100
00001000
00001000
,
00010000
00000000
00000000
00000000
,
00000000
00000000
00010000
00001000
,
00010000
00000000
00100000
00000000
,
10000000
00000000
01000000
00000000
,
10000000
00000000
00100000
00000000
,
00010000
00000000
00001000
00000000
,
00000010
00000000
00000001
00000000
,
00000100
00000000
00000001
00000000
,
00000010
00000000
00001000
00000000
,
00010000
00010000
00001000
00001000
,
00010000
00000000
01000000
00000000
,
00100000
00010000
00100000
00000000
,
01000000
00000000
10000000
00000000
,
00100000
00010000
00100000
00000000
,
01000000
00000000
00001000
00000000
,
00010000
00001000
00010000
00000000
,
00000010
00000000
00001000
00000000
,
00000001
00000010
00000001
00000000
,
00001001
00000000
00000000
00000000
;

//---------------dance-double - ----------------
#NOTES:
     dance-double:
     :
     Medium:
     7:
     :
00000000
00000000
00000000
00000000
,
00000000
00000000
00000000
00000000
,
00000000
00000000
00000000
00000000
,
00100000
10000000
01000000
00010000
,
00002000
00023000
00032000
00023000
,
00030100
00001000
00000010
00000001
,
00000010
00000000
00001000
00000000
00000100
00000000
00010000
00001000
,
01000000
00010000
00100000
10000000
,
00100000
00000000
00010000
00000000
01000000
00000000
00001000
00010000
,
00000010
00001000
00000100
00000001
,
00000100
00000000
00001000
00000000
00000010
00000000
00010000
00001000
,
00100000
00010000
01000000
10000000
,
01000000
00010000
00110000
10100000
,
10000000
00000000
00100000
01000000
00000000
01000000
00100000
00000000
,
10000000
00100000
00010000
00001000
,
00000010
00000000
00000100
00001000
00000000
00001000
00000100
00000000
,
00000010
00001000
00010000
01000000
,
00100000
00000000
00010000
01000000
00000000
01000000
00010000
00000000
,
00100000
00001000
00010000
00000100
,
00001000
00000000
00000001
00000100
00000000
00000100
00000001
00000000
,
00001000
00000100
00000010
00001000
,
00011000
00011000
00000000
00000000
,
00100000
00010000
01000000
00100000
,
10100000
10100000
00000000
00000000
,
01000000
00010000
00100000
01000000
,
01100000
01100000
00000000
00000000
,
00010000
00001000
00000100
00000010
,
00000110
00000110
00000000
00000000
,
00000001
00000100
00001000
00000200
,
00000001
00000001
00000001
00000301
,
00000010
00001000
00010000
00200000
,
10000000
10000000
10000000
10300000
,
01000000
00010000
00001000
00010000
,
00001000
00000100
00000010
00000100
,
00001000
00000100
00000001
00000001
,
00000100
00001000
00010000
00001000
,
00100000
00010000
10000000
10000000
,
00100000
00010000
00100000
01000000
,
00100000
10000000
01000000
01000000
,
00010000
01000000
00100000
00001000
,
00010000
00001000
00011000
00011000
,
00020000
00000000
00000000
00000000
,
00032000
00000000
00023000
00000000
,
00030010
00001000
00000100
00000001
,
00000100
00000000
00001000
00000000
00000010
00000000
00010000
00001000
,
00100000
00010000
01000000
10000000
,
01000000
00000000
00010000
00000000
00100000
00000000
00001000
00010000
,
00000100
00001000
00000010
00000001
,
00000010
00000000
00001000
00000000
00000100
00000000
00010000
00001000
,
01000000
00010000
00100000
10000000
,
00100000
00010000
01010000
11000000
,
10000000
00000000
01000000
00100000
00000000
00100000
01000000
00000000
,
10000000
01000000
00010000
00001000
,
00000100
00000000
00000010
00001000
00000000
00001000
00000010
00000000
,
00000100
00001000
00010000
00100000
,
01000000
00000000
00010000
00100000
00000000
00100000
00010000
00000000
,
01000000
00001000
00010000
00000010
,
00001000
00000000
00000001
00000010
00000000
00000010
00000001
00000000
,
00001000
00000010
00000100
00001000
,
00011000
00000000
00000000
00000000
;

//---------------dance-double - ----------------
#NOTES:
     dance-double:
     :
     Hard:
     11:
     :
00000000
00000000
00000000
00000000
,
00000000
00000000
00000000
00000000
,
00000000
00000000
00000000
00000000
,
00010000
00001000
00010000
00001000
00010000
00001000
00010000
00001000
,
00010000
00000100
00001000
00000010
00010000
00000100
00001000
00000010
,
00000100
00000001
00000100
00000000
00001000
00000100
00001000
00000000
,
00000020
00000000
00000230
00000000
00000301
00000100
00000010
00010000
,
00001000
00100000
00001000
00000000
00010000
00000100
00010000
00000000
,
00002000
00000000
02003000
00000000
03010000
01000000
00100000
10000000
,
00010000
01000000
00010000
00000000
10000000
01000000
10000000
00000000
,
00200000
00000000
02300000
00000000
13000000
01000000
00100000
01000000
,
00010000
00100000
00001000
00000000
00010000
00000010
00001000
00000000
,
00000200
00000000
00000320
00000000
00000031
00001000
00000001
00000000
,
00000100
00000010
00001000
00000010
00000000
00000100
00000001
00000100
,
00001000
00010000
00001000
00000000
00010000
00001000
00010000
00000000
,
01000000
00100000
00010000
00100000
00000000
01000000
10000000
01000000
,
00010000
00001000
00010000
00000000
00001000
00010000
00001000
00000000
,
00000010
00000100
00001000
00000100
00000000
00000010
00000001
00000100
,
00000010
00001000
00000010
00000000
00010000
00001000
00010000
00000000
,
00100000
01000000
00010000
01000000
00000000
00100000
10000000
01000000
,
00100000
00010000
00100000
00000000
01000000
10000000
01000000
00010000
,
00002000
00023000
00032000
00003000
,
00001010
00000000
00000101
00000000
00001100
00000000
00000010
00000001
,
00000200
00000320
00000230
00000300
,
00001100
00000000
00011000
00000000
01010000
00000000
00100000
00010000
,
02000000
03200000
02300000
03000000
,
11000000
00000000
01010000
00000000
10100000
00000000
00010000
10000000
,
02000000
03020000
02030000
03000000
,
00101000
00010100
00010010
01001000
,
00010000
00001000
00010000
00000100
00010000
00001000
00010000
00000100
,
00010000
00001000
00000100
00000000
00001000
00010000
01000000
00000000
,
00010000
00001000
01000000
00001000
00010000
00001000
01000000
00001000
,
00010000
00000010
00000100
00000000
00000001
00000010
00000100
00000000
,
00001000
00000000
00000001
00000000
00000010
00000001
00001000
00000000
,
00000100
00010000
00001000
02000000
00100000
00000000
03010000
00000000
,
10000000
00000000
00010000
00000000
01000000
00010000
10000000
00000000
,
01000000
00100000
00001000
00020000
00000100
00000000
00031000
00000000
,
00010000
00000000
00000010
00000000
00000100
00000001
00001000
00000000
,
00000010
00001000
00000100
00020000
00001000
00000000
00030100
00000000
,
00010000
00000000
00001000
00000000
00100000
00010000
01000000
00000000
,
00100000
10000000
00010000
02000000
10000000
00000000
03010000
00000000
,
10010000
00000000
01010000
00000000
,
00011000
00000000
00001100
00001010
,
00001000
00000000
00000001
00000000
00000100
00000001
00000010
00000001
,
00000100
00000000
00000001
00000000
00001000
00000010
00010000
00001000
,
00100000
00000000
00010000
00000000
10000000
01000000
00100000
01000000
,
10000000
00000000
00100000
00000000
10000000
00010000
00100000
00001000
,
00010000
00000000
00000010
00000000
00001000
00000001
00000100
00000001
,
00001000
00000000
00000010
00000000
00000100
00000001
00001000
00000100
,
00010000
00000000
00001000
00000000
01000000
00010000
00100000
00010000
,
01000000
00000000
00100000
00000000
00010000
00001000
00000100
00000000
,
00000001
00000100
00000001
00000000
00001000
00000010
00001000
00000000
,
00000200
00000000
00000320
00000000
00000031
00000010
00000100
00010000
,
00001000
01000000
00001000
00000000
00010000
00000010
00010000
00000000
,
00002000
00000000
00203000
00000000
00310000
00100000
01000000
10000000
,
00010000
00100000
00010000
00000000
10000000
00100000
10000000
00000000
,
02000000
00000000
03200000
00000000
10300000
00100000
01000000
00100000
,
00010000
01000000
00001000
00000000
00010000
00000100
00001000
00000000
,
00000020
00000000
00000230
00000000
00000301
00001000
00000001
00001000
,
00000200
00000000
00000000
00000000
,
00000300
00000000
00000000
00000000
;
