#TITLE:The Look;
#ARTIST:Roxette;
#BANNER:The Look-bn.png;
#BACKGROUND:The Look-bg.png;
#JACKET:The Look-jacket.png;
#MUSIC:The Look.ogg;
#OFFSET:1.25;
#SAMPLESTART:87.1;
#SAMPLELENGTH:20;
#LASTBEATHINT:0.383;
#DISPLAYBPM:95;
#BPMS:0=95,123.75=105,124=95,139.75=105,140=95;
#BGCHANGES:;

//---------------dance-single - ----------------
#NOTES:
     dance-single:
     :
     Beginner:
     2:
     :
0000
0000
0000
0000
,
0000
0000
0000
0000
,
1000
0000
0000
0000
,
0000
0000
0000
0000
,
0000
0001
0001
0000
,
0000
0001
0001
0000
,
1000
0000
0010
0000
,
0100
0000
0001
0000
,
0010
0000
0010
0000
,
0001
0000
0001
0000
,
1000
1000
0000
0001
,
0001
0000
0000
0000
,
0100
0000
0100
0000
,
0010
0000
0010
0000
,
1000
1000
0000
0100
,
0100
0000
0000
0010
,
0010
0000
0001
0000
,
1000
0000
0001
0000
,
0100
0000
0010
0000
,
0100
0000
0000
0000
,
0001
0000
1000
0000
,
0001
0000
0000
0000
,
0100
0000
0010
0000
,
0100
0000
0001
0000
,
1000
0000
0100
0000
,
1000
0000
0001
0000
,
0010
0000
0000
0000
,
0010
0000
0001
0000
,
1000
0000
0000
0000
,
0100
0000
0100
0000
,
1000
0000
0001
0000
,
0100
0000
0000
0000
,
0010
0000
0000
0000
,
1000
0000
0000
0000
,
0001
0000
0000
0000
,
0010
0000
0010
0000
,
0001
0000
1000
0000
,
0010
0010
0000
0100
,
0100
0000
0010
0000
,
1000
0000
0001
0000
,
1000
0000
0100
0000
,
0100
0100
0000
0010
,
0010
0000
0001
0000
,
0001
0001
0000
0000
;

//---------------dance-single - ----------------
#NOTES:
     dance-single:
     :
     Easy:
     5:
     :
0000
0000
0000
0000
,
0000
0000
0000
0000
,
1001
0100
0000
0001
,
0000
0010
0000
0100
,
0000
1000
0001
0000
,
0000
0100
0010
0000
,
1000
0001
0010
0100
,
1000
1000
0001
0100
,
0010
1000
0100
0010
,
0001
0001
1000
0001
,
0100
0010
0000
1000
,
0000
0001
0000
0010
,
0001
0100
0010
1000
,
0100
0010
0100
1000
,
0001
0001
0000
0100
,
0010
0010
1000
0001
,
0000
1000
0100
0010
,
0000
0001
0100
0010
,
1000
0001
1000
0100
,
0110
0000
0010
0010
,
0001
1000
0001
0100
,
0110
0000
0010
0010
,
1000
0001
1001
0000
,
1000
0100
1000
0001
,
0010
0100
0010
0001
,
1000
0001
1000
0001
,
0020
0200
0000
0330
,
1000
0010
1000
0001
,
0200
0000
0020
0330
,
0100
0010
1000
0000
,
0100
0010
0001
1000
,
1001
0000
0010
0000
,
1000
0000
0100
0000
,
0001
0001
0000
0100
,
0000
0110
0000
1000
,
0001
0001
0010
0010
,
0001
0100
0001
1000
,
0010
0010
0000
1000
,
0100
1000
0001
0010
,
0001
0100
0010
0100
,
1000
0010
0001
0100
,
0010
0010
0000
1000
,
0001
0010
1000
0001
,
0100
0001
0000
0000
;

//---------------dance-single - ----------------
#NOTES:
     dance-single:
     :
     Medium:
     8:
     :
0000
0000
0000
0000
,
0000
0000
0000
0000
,
1001
0010
1000
0001
,
1000
0100
0010
0001
,
0000
1000
0001
1000
0100
0000
0000
0000
,
0000
0010
0001
1000
0001
0000
0000
0000
,
0010
0000
0000
0001
0000
0000
1000
0000
0000
0000
0001
0000
0100
0000
0010
0000
,
1000
0000
0000
0001
0000
0000
1000
0000
0100
0000
0010
0000
0001
0000
0000
0000
,
0100
1010
0001
1000
,
0100
0010
0001
0000
1000
0001
0100
0000
,
0010
1000
0001
0001
0000
1000
0100
0010
,
0001
1100
0010
0101
,
0010
1000
0100
0000
1000
0000
0001
0000
,
0010
0100
1000
0000
0010
1000
0001
0000
,
1000
0010
0100
0100
0000
0001
1000
0001
,
0100
0000
0000
0010
0000
0000
1000
0000
0001
0000
0010
0000
0001
0000
0000
0100
,
0000
0000
0010
0000
1000
0000
0000
0001
0000
0000
0010
0000
0100
0000
0000
1000
,
0000
0000
0010
0000
1000
0000
0000
0001
0000
0000
1000
0000
0100
0000
0010
0000
,
0001
0100
0001
0100
0010
1000
0010
1000
,
0100
0010
0000
0001
0000
1000
0001
0100
,
0001
0010
0001
0100
0010
1000
0100
0010
,
0001
1000
0000
0010
0000
1000
0001
0000
,
0100
0010
1000
0001
0100
0000
0000
0000
,
0001
0000
0000
0010
0000
0000
1000
0000
0000
0000
0100
0000
1000
0000
0001
0000
,
1000
0000
0000
0010
0000
0000
0100
0000
0010
0000
1000
0000
0001
0000
0000
0000
,
0010
0000
0011
0000
0001
0100
1000
0010
,
2000
0000
0000
0002
0000
0000
0000
0000
0000
0000
0000
0000
3003
0000
0000
0000
,
0100
0000
1010
0000
0001
1000
0100
0010
,
0002
0000
0100
0000
1003
0001
1000
0000
,
0010
0000
0000
1000
0000
0000
0001
0000
2000
0000
0000
0000
0000
0000
0000
0000
,
3100
0000
0000
0010
0000
0000
0100
0000
1000
0000
0001
0000
0010
0000
0000
0000
,
1001
0010
1000
0100
,
1000
0000
0010
0000
0100
0001
1000
0000
,
0001
0010
0100
1000
0000
0010
1000
0001
,
0100
0110
1000
0001
,
1000
0010
0001
0000
0100
0000
0010
0000
,
1000
0100
1000
0000
0001
0010
0001
0000
,
0100
0010
0100
0001
0000
1000
0100
0010
,
0001
0000
1010
0000
1000
0100
0010
0000
,
0001
1000
0001
0000
0010
0100
1000
0000
,
0010
1000
0001
0000
1000
0100
0010
0000
,
0001
1000
0001
0001
0000
0010
0100
1000
,
0010
0000
0110
0000
0001
0100
1000
0000
,
1000
0100
0001
0000
0000
0000
0000
0000
;

//---------------dance-single - ----------------
#NOTES:
     dance-single:
     :
     Hard:
     10:
     :
0000
0000
0000
0000
,
0000
0000
0000
0000
,
1100
0010
0001
0000
0101
0010
1000
0000
,
1010
0100
0001
0000
0011
0100
1000
0000
,
0001
0100
0010
1000
0100
0000
0110
0000
,
1000
0010
0100
0001
1000
0000
1001
0000
,
0010
0000
0000
1000
0000
0000
0001
0000
0000
0000
1000
0000
0100
0000
0010
0000
,
0001
0000
0100
0010
0000
0000
1000
0000
0001
0000
0100
0000
0010
0000
0000
0000
,
1000
0001
0110
0000
0010
1000
0100
0010
,
0001
0100
1010
0000
0001
1000
0100
0000
,
0010
0000
0001
0000
0011
0000
1100
0000
0000
0000
0010
0000
0010
0000
1000
0001
,
0000
1001
0010
1001
,
0100
0010
0101
0000
1000
0001
0010
0001
,
0100
1000
0010
0000
0001
1000
0110
0000
,
0010
0000
1000
0000
1010
0000
0101
0000
0000
0000
1000
0000
1000
0000
0001
0100
,
0001
0000
0000
1000
0000
0000
0010
0000
1000
0000
0100
0000
0100
0000
0010
0001
,
0000
0000
1000
0000
1000
0000
0001
0100
0000
0000
0010
0000
0010
0000
1000
0001
,
0000
0000
0010
0000
0010
0000
0100
1000
0000
0000
0001
0000
1000
0010
0000
0200
,
0000
0000
0001
0000
0001
0000
0301
0000
1000
0010
0000
1000
0000
0000
0100
0000
,
0010
0000
0001
0000
0000
0000
1000
0001
0000
0000
0010
0000
0001
0100
0000
0020
,
0000
0000
1000
0000
1030
0001
0000
0100
0000
0000
0001
0000
0010
0000
0100
1000
,
0200
0000
0000
0000
0300
0000
0010
0001
0000
0000
1000
0000
1000
0001
0000
0000
,
0100
0000
0010
1000
0000
0001
0000
1000
0000
0000
0000
0000
0000
0000
0000
0000
,
0001
0000
0000
0010
0000
0000
1000
0000
0000
0000
0100
0000
1000
0000
0001
0000
,
0010
0000
0001
1000
0000
0000
1000
0000
0001
0000
0100
0000
0010
0000
0000
0000
,
2000
0000
0000
3200
0000
0000
0320
0000
0000
0032
0000
0000
1003
0000
0001
0000
,
0100
0000
0000
2020
0000
0000
0030
0000
0001
0000
0001
0000
3100
0000
0000
0000
,
0002
0000
0000
2003
0000
0000
3020
0000
0000
0230
0000
0000
0310
0000
1000
0000
,
0001
0000
0010
0000
0001
0000
1000
0000
0010
0100
0010
0000
2000
0000
0000
0000
,
3001
0000
1000
0010
0000
1000
0010
0000
0220
0000
0000
0000
0030
0000
0000
0000
,
0301
0000
1000
0100
0000
1000
0100
0000
0010
0000
0001
0000
0010
0000
0000
0000
,
1000
0100
0001
0000
1000
0010
1000
0001
,
0010
0100
1000
0000
0001
1000
0010
0000
,
1000
0000
0100
0000
0110
0000
1001
0000
0000
0000
0010
0000
0010
0000
1000
0001
,
0000
0000
0000
0000
0011
0000
0000
0000
1010
0000
0000
0000
0001
1000
0000
0000
,
0001
1000
0001
1000
0001
0000
0000
0000
0010
0000
0100
0000
1000
0000
0001
0000
,
1000
0010
1000
0000
0001
0000
0000
0000
0010
0000
0100
0000
1000
0000
0001
0000
,
0100
0010
0100
0010
0100
0000
0001
0000
0000
0000
1000
0000
1000
0000
0100
0010
,
0100
0000
1000
0001
0000
0000
0010
0000
0001
0000
0100
0000
0001
1000
0000
0000
,
0010
1000
0010
1000
0010
0000
0000
0000
0100
0000
0001
0000
0010
0000
0100
0000
,
1000
0001
1000
0000
0100
0000
0000
0000
0010
0000
0001
0000
0100
0000
0010
0000
,
1000
0001
1000
0001
1000
0000
0100
0000
0000
0000
0010
0000
0010
0000
0001
1000
,
0001
0000
0000
0100
0000
0000
0010
0000
1000
0000
0100
0000
1000
0001
0000
0000
,
0001
0100
0001
0100
0001
0000
0000
0000
0000
0000
0000
0000
0000
0000
0000
0000
;

//---------------dance-single - ----------------
#NOTES:
     dance-single:
     :
     Challenge:
     13:
     :
0000
0000
0000
0000
,
0000
0000
0000
0000
,
1100
0000
1000
0001
0100
0000
0000
0000
0101
0000
0001
1000
0100
0000
0000
0000
,
0011
0000
0010
0001
1000
0000
0000
0000
1010
0000
0010
1000
0001
0000
0000
0000
,
1000
0100
0001
0100
1000
0000
0010
0100
0000
0000
0000
0000
0110
0000
0000
0000
,
0001
0010
1000
0010
0001
0000
0100
0010
0000
0000
0000
0000
1001
0000
0000
0000
,
1100
0000
0000
0000
0000
0000
0000
0000
0000
0101
0000
0000
0000
0000
0000
0000
0000
0000
1010
0000
0000
0000
0000
0000
0000
0000
0000
0000
0000
0000
0001
0000
0000
0000
0000
0000
0001
0000
0010
0000
0100
0000
1000
0000
0000
0000
0000
0000
,
0010
0000
0000
0000
0000
0000
1000
0000
0000
0001
0000
0000
0000
0000
0000
0001
0000
0000
0100
0000
0000
0000
0000
0000
0001
0000
0010
0000
0100
0000
1000
0000
0000
0000
0000
0000
1001
0000
0000
0000
0000
0000
0000
0000
0000
0000
0000
0000
,
0001
0100
1000
0100
0001
0000
0000
0000
0010
0001
0010
0100
1000
0010
0001
0010
,
1000
0001
0100
0000
0110
0000
0000
0000
0010
1000
0100
1000
0001
1000
0000
0000
,
0001
0100
0010
1000
0100
0000
0011
0000
0000
0000
1000
0000
1000
0000
0001
0100
,
0010
0101
0010
1100
,
1000
0010
0001
0010
1000
0000
0000
0010
0100
0010
1000
0001
0100
0010
1000
0001
,
1000
0010
0001
0100
1000
0000
0000
0000
0001
0010
0001
0100
0001
1000
0000
0010
,
1000
0100
0010
0001
0010
0100
1000
0000
0000
0000
0001
0000
0001
0000
1000
0100
,
0010
0000
0000
0000
0000
0000
0000
0000
0000
0011
0000
0000
0000
0000
0000
0000
0000
0000
1100
0000
0000
0000
0000
0000
1000
0000
0100
0000
0010
0000
0001
0000
0000
0000
0000
0000
0100
0000
0000
0000
0000
0000
0001
0000
0000
1000
0000
0000
,
0000
1000
0100
0000
0100
0000
0100
0010
0000
0010
0001
0000
1000
0000
0001
0100
,
0000
0100
0010
0000
0010
0000
0010
1000
0000
0001
1000
0000
1000
0100
0000
0010
,
0001
0000
0100
0000
0010
0000
1000
0000
0100
0010
0000
0001
0000
1000
0001
0000
,
0101
0000
1010
0000
0000
0000
0010
1000
0000
1000
0100
0000
1000
0001
0000
0010
,
0100
0000
1000
0000
1000
0001
0000
0010
0001
0000
0100
0000
0100
0000
0010
1000
,
0001
0100
0010
0000
1000
0000
0100
0010
0000
0010
0000
0001
1000
0001
0100
0000
,
0010
0000
1000
0001
0000
1001
0000
1001
0000
0000
0010
0000
0010
0000
1000
0001
,
0100
0000
0000
0000
0000
0000
0001
0000
0000
0010
0000
0000
0000
0000
0000
0010
0000
0000
0200
0000
0000
0000
0000
0000
0000
0000
0000
0000
0000
0000
1000
0000
0000
0000
0000
0000
1300
0000
0010
0000
0100
0000
0001
0000
0000
0000
0000
0000
,
0010
0000
0000
0000
0000
0000
0001
0000
0000
1000
0000
0000
0000
0000
0000
1000
0000
0000
0010
0000
0000
0000
0000
0000
1000
0000
0100
0000
0010
0000
0001
0000
0000
0100
0000
0000
0010
0000
0000
0100
0000
0000
0001
0000
0000
1000
0000
0000
,
0020
0000
0000
2030
0000
0000
3002
0000
0000
0103
0000
0000
0101
0000
1100
0000
,
0101
0000
0010
2000
0100
0000
0000
0000
3001
1000
0001
0000
1010
0000
0000
0000
,
0002
0000
0000
2003
0000
0000
3200
0000
0000
0310
0000
0000
0011
0000
0110
0000
,
1100
0000
0001
1000
0000
0010
1000
0000
0100
0010
0001
0000
1000
0001
0000
0000
,
0100
0000
0001
1000
0000
0001
0100
0000
0120
0000
0000
0000
1030
0000
0000
0000
,
0001
0000
0010
0001
0000
1000
0001
0000
1010
0000
0100
0000
0011
0000
1000
0001
,
1000
0100
0001
0100
1000
0000
0000
0000
0001
0010
0100
0010
0001
0100
0010
1000
,
0100
0010
0001
0000
1001
0000
0000
0000
0010
1000
0001
1000
0100
1000
0000
0000
,
0001
0100
0010
1000
0001
0000
1100
0000
0000
0000
0010
0000
0010
0000
1000
0001
,
0200
0000
0000
0000
1000
0000
0000
0000
0301
0000
0000
0100
0010
0100
0000
0000
,
0001
0010
1000
0010
0001
0000
0000
0000
0001
0100
1000
0100
0001
0000
1000
0100
,
0001
0100
1000
0000
0010
0000
0000
0000
1000
0001
0100
0001
1000
0000
0100
0010
,
0001
0100
1000
0100
0001
0000
1000
0000
0000
0000
0010
0000
0010
0000
1000
0001
,
0100
0000
0000
0000
0000
0000
0001
0000
0000
1000
0000
0000
0000
0000
0000
0010
0000
0000
1000
0000
0000
0000
0000
0000
0010
0000
0100
0000
0001
0000
1000
0000
0000
0100
0000
0000
0010
0000
0000
0001
0000
0000
0000
0000
0000
1000
0000
0000
,
0001
0100
1000
0100
0001
0000
0000
0000
1000
0100
0001
0100
1000
0000
0010
1000
,
0001
1000
0100
0000
0010
0000
0000
0000
0001
1000
0010
0100
0001
0000
1000
0100
,
1000
0010
0001
0010
1000
0000
0001
0000
0000
0000
0100
0000
0100
0000
0010
1000
,
0001
0000
0010
0000
0010
0000
0100
1000
0001
1000
0100
0000
0010
0001
0000
0100
,
0001
0010
1000
0010
0001
0000
0000
0000
0000
0000
0000
0000
0000
0000
0000
0000
;
