#TITLE:Take Your Mama;
#ARTIST:Scissor Sisters;
#BANNER:Take Your Mama-bn.png;
#BACKGROUND:Take Your Mama-bg.png;
#JACKET:Take Your Mama-jacket.png;
#MUSIC:Take Your Mama.ogg;
#SAMPLESTART:87.27;
#SAMPLELENGTH:20;
#DISPLAYBPM:154;
#BPMS:0=154;
#BGCHANGES:;

//---------------dance-single - ----------------
#NOTES:
     dance-single:
     :
     Beginner:
     2:
     :
0000
0000
0000
0000
,
0000
0000
0000
0000
,
0000
0000
0000
0000
,
0000
0000
0000
0000
,
0000
0000
0000
0000
,
0000
0000
0000
0000
,
0000
0000
0000
0000
,
0000
0000
0000
0000
,
1000
0000
0000
0000
,
1000
0000
0001
0000
,
0100
0000
0000
0000
,
0010
0000
0100
0000
,
0010
0000
0000
0000
,
1000
0000
0100
0000
,
1000
0000
0000
0000
,
0001
0000
0000
0000
,
0100
0000
0000
0000
,
0010
0000
1000
0000
,
0010
0000
0000
0000
,
0100
0000
0000
0000
,
0001
0000
0000
0000
,
0010
0000
0001
0000
,
0100
0000
0000
0000
,
0010
0000
0000
0000
,
1000
0000
0000
0000
,
0100
0000
0100
0000
,
0100
0000
0000
0000
,
0010
0000
0000
0000
,
0001
0000
0000
0000
,
0100
0000
0001
0000
,
1000
0000
0000
0000
,
0010
0000
0000
0000
,
1000
0000
1000
0000
,
0001
0000
0001
0000
,
0100
0000
0000
0000
,
0000
0000
0000
0000
,
0010
0000
0010
0000
,
1000
0000
1000
0000
,
0100
0000
0000
0000
,
0000
0000
0000
0000
,
1000
0000
0001
0000
,
0100
0000
0100
0000
,
0010
0000
1000
0000
,
0001
0000
0000
0000
,
0010
0000
0001
0000
,
0100
0000
0001
0000
,
1000
0000
1000
0000
,
1000
0000
0000
0000
,
0010
0000
1000
0000
,
0100
0000
0010
0000
,
0100
0000
1000
0000
,
0001
0000
0000
0000
,
0010
0000
0100
0000
,
0010
0000
0100
0000
,
0010
0000
0001
0000
,
1000
0000
0000
0000
,
1001
0000
0000
0000
,
0010
0000
1000
0000
,
0001
0001
0001
0000
,
0000
0000
0000
0000
,
1000
0000
0100
0000
,
1000
0000
0001
0000
,
0100
0000
0000
0000
,
0010
0000
0000
0000
,
1001
0000
0000
0000
,
0100
0000
0001
0000
,
1000
1000
1000
0000
,
0000
0000
0000
0000
,
0001
0000
0010
0000
,
0100
0000
1000
0000
,
0010
0000
0000
0000
,
0100
0000
0000
0000
,
2002
0000
0000
0000
,
3003
0000
0000
0000
;

//---------------dance-single - ----------------
#NOTES:
     dance-single:
     :
     Easy:
     6:
     :
0000
0000
0000
0000
,
0000
0000
0000
0000
,
0000
0000
0000
0000
,
0000
0000
0000
0000
,
0000
0000
0000
0000
,
0000
0000
0000
0000
,
0000
0000
0000
0000
,
0000
0000
0000
0000
,
1000
0000
1001
0000
,
0010
0100
0010
0010
,
0100
0000
0110
0000
,
0001
1000
0001
0001
,
0010
0000
0110
0000
,
0100
0010
0001
0001
,
1000
0000
1001
0000
,
0010
1000
0100
0100
,
1000
0000
1001
0000
,
0010
1000
0100
0010
,
0001
0000
0110
0000
,
1000
0010
1000
0001
,
0100
0000
0110
0000
,
0010
1000
0100
0100
,
0100
0000
0110
0000
,
0001
0010
0001
0100
,
1000
0000
0110
0000
,
0001
0010
0001
1000
,
0010
0000
1001
0000
,
0100
0010
0100
0001
,
0010
0000
1001
0000
,
0100
1000
0001
1000
,
0010
0000
0110
0000
,
0001
0100
0010
1000
,
0100
0100
0100
1000
,
0001
1000
0010
0000
,
0100
0000
0010
0000
,
1000
0100
1000
0001
,
0010
0010
0010
0001
,
1000
0010
0100
0000
,
0001
0000
1000
0000
,
0001
0100
0010
1000
,
1100
1100
1100
0000
,
0001
0100
0001
0000
,
0010
0001
0010
0100
,
1000
0001
0001
0000
,
0010
0010
1001
0000
,
0100
0001
1000
0000
,
0010
1000
0001
1000
,
0100
0010
0010
0000
,
0001
0100
0001
0000
,
0010
0100
1000
0000
,
0010
1000
0100
1000
,
0001
0001
1000
0000
,
0010
1000
0101
0010
,
1000
0100
2000
0000
,
3001
0100
0001
0010
,
0100
0110
1001
0110
,
2002
0000
0000
3003
,
0010
1000
0100
1000
,
0001
0001
0001
0000
,
0010
0000
0100
0000
,
1000
0010
1000
0001
,
0101
0000
0010
1000
,
0001
0000
0010
0000
,
0100
0110
1001
0110
,
2002
0000
0000
3003
,
0100
1000
0010
0100
,
0001
0001
0001
0000
,
1000
0000
0100
0000
,
1000
0010
1000
0001
,
0010
0010
0001
0100
,
1000
0000
0010
0000
,
1000
0110
1001
0110
,
2002
0000
0000
0000
,
3003
0000
0000
0000
;

//---------------dance-single - ----------------
#NOTES:
     dance-single:
     :
     Medium:
     9:
     :
0000
0000
0000
0000
,
0000
0000
0000
0000
,
0000
0000
0000
0000
,
0000
0000
0000
0000
,
0000
0000
0000
0000
,
0000
0000
0000
0000
,
0000
0000
0000
0000
,
0000
0000
0000
0000
,
1000
0100
0000
0000
0011
0000
0000
0001
,
0000
0100
0000
0010
1000
0000
0001
0000
,
0010
0001
0000
0000
1100
0000
0000
1000
,
0000
0001
0000
0010
0100
0000
1000
0000
,
0010
0100
0000
0000
0101
0000
0000
0001
,
0000
0010
0000
0001
1000
0000
0100
0000
,
1000
0010
0000
0000
1010
0000
0000
0001
,
0000
0100
0000
0010
1000
0000
0001
1000
,
0001
0010
0000
0000
1001
0000
0000
0020
,
0000
0000
1030
0100
1000
0000
0001
0000
,
0100
0010
0000
0000
0110
0000
0000
1000
,
0000
0010
0000
0100
0001
0000
0010
0100
,
0010
0001
0000
0000
0101
0000
0000
2000
,
0000
0000
3001
1000
0001
0000
0100
0000
,
0010
1000
0000
0000
0110
0000
0000
1000
,
0000
0001
0000
1000
0100
0000
0010
0001
,
1000
0001
0000
0000
1010
0000
0000
0200
,
0000
0000
0301
0010
0001
0000
1000
0010
,
0000
0100
0000
0000
0101
0000
0000
0010
,
0000
0001
0000
1000
0001
0000
0100
0010
,
0100
0010
0000
0000
0000
1000
0100
0001
,
0000
0010
0001
1000
0000
0001
0000
0100
,
0010
1000
0000
0000
1100
0000
0000
0001
,
0000
0001
0000
0010
0100
0000
1000
0001
,
0100
0000
0010
1000
0100
0000
0010
0001
,
0100
0000
0010
1000
0001
0100
0000
0101
,
0000
1000
0000
0000
0110
0000
0000
0001
,
0000
0010
0000
0001
1000
0000
0010
0100
,
0001
0000
0010
0100
1000
0000
0001
1000
,
0010
0000
1000
0100
0010
0001
0000
0011
,
0000
0100
0000
0000
1100
0000
0000
0010
,
0000
0001
0000
1000
0001
0000
0100
0010
,
1000
0000
1000
0000
0001
1000
0000
1100
,
0000
0110
0000
0011
0000
0200
0000
0310
,
1000
0000
0100
0000
1000
0000
0010
0100
,
0000
0000
0001
0000
1000
0000
0001
0100
,
0010
0000
0010
0000
1001
0000
0100
0001
,
0000
1000
0000
0100
0000
1000
0010
1000
,
0010
1000
0000
1001
0000
0101
0000
0011
,
0000
0000
1000
0001
1000
0000
0010
0100
,
0001
1000
0100
0000
0110
0000
1001
0000
,
0100
0010
0000
2000
0000
3001
1000
0000
,
0010
0000
1000
0000
0001
0200
0000
0310
,
0000
1000
0000
0100
0010
0000
0001
1000
,
0001
0000
0101
0000
1100
0000
0010
0100
,
0001
1000
0000
0200
0000
0000
0310
0001
,
0100
0000
0010
1000
0001
0000
1000
0100
,
0000
0010
0000
0010
0000
0010
0000
0010
,
0002
2000
0000
0000
3003
0000
0000
1000
,
0000
0100
0000
1000
0000
0001
0000
0011
,
0000
0110
0000
1100
0000
0000
0001
0100
,
0000
0010
0000
1000
0000
0100
1000
0001
,
0000
0010
0000
0100
0000
0010
0100
2000
,
0000
0000
3010
1000
0001
0000
0101
0000
,
1000
0001
0000
0000
0100
0010
0000
1000
,
0000
0010
0000
0010
0000
0010
0000
0010
,
2000
0002
0000
0000
3003
0000
0000
0010
,
0000
0001
0000
0100
0000
0010
0000
1010
,
0000
1001
0000
1100
0000
0000
0000
0010
,
0000
1000
0000
0010
0000
0100
0001
1000
,
0000
0010
0000
1000
0000
0001
0000
0011
,
0000
0000
0100
1000
0001
0000
0001
0000
,
0001
0000
0100
0000
0001
1000
0000
0100
,
0000
0010
0000
0010
0000
0010
0000
0010
,
2002
0000
0000
0000
,
3003
0000
0000
0000
;

//---------------dance-single - ----------------
#NOTES:
     dance-single:
     :
     Hard:
     11:
     :
0000
0000
0000
0000
,
0000
0000
0000
0000
,
0000
0000
0000
0000
,
0000
0000
0000
0000
,
0000
0000
0000
0000
,
0000
0000
0000
0000
,
0000
0000
0000
0000
,
0000
0000
0000
0000
,
1000
0100
0000
0001
0001
0000
0010
0110
,
0000
1001
0000
0001
0200
0010
0310
0000
,
1000
0001
0000
0010
0010
0000
0001
0101
,
0000
1100
0000
0010
2000
0001
3001
0100
,
0010
1000
0000
0100
0100
0000
1000
1010
,
0000
0011
0000
0100
0002
0010
0013
0000
,
0001
1000
0000
0100
0100
0000
0010
0011
,
0000
1100
0000
0100
0020
0000
0031
1000
,
0001
0010
0000
0100
1000
0000
0010
0200
,
0000
0301
0100
0010
1000
0000
1100
0000
,
0001
0001
0000
1000
0100
0000
0010
0110
,
0000
1001
0000
0010
1000
0100
1000
0001
,
1000
0100
0000
1000
0001
0000
0100
0020
,
0000
1030
0001
0010
0100
0000
0110
0000
,
0001
1000
0000
0001
0010
0000
0100
1000
,
0000
0010
0000
1000
0001
0000
0010
0100
,
0010
0001
0000
1000
0100
0000
1000
0020
,
0000
0130
0010
1000
0001
0010
0001
0100
,
0000
1010
0000
0001
1000
0000
0100
0110
,
0000
0011
0000
0100
0001
1000
0001
0100
,
0010
0100
0000
0010
0010
1000
0001
0100
,
0000
0001
1000
0020
0000
2030
0000
3100
,
1000
0001
0000
0100
0100
0000
0010
1010
,
0000
0101
0000
0001
0010
0100
1000
0001
,
0010
0100
0010
0100
1000
0010
0100
0001
,
0100
0001
0010
0100
1000
0001
0000
0100
,
0010
1000
0000
0001
0001
0000
0010
0001
,
0000
1000
0000
0100
0100
0000
1000
0001
,
1000
0010
0100
0010
1000
0100
0010
0001
,
0100
0010
1000
0001
1000
0100
0000
0010
,
0001
1000
0000
0010
1000
0100
1000
0001
,
0000
0000
1001
0000
0000
0000
0010
0100
0010
0000
0001
0000
1000
0000
0100
0000
,
1100
0000
0101
0000
0010
1000
0100
0010
,
0000
0001
0000
1000
0000
0020
1030
0001
,
0100
0010
0100
1000
0100
0001
0010
0100
,
0000
0000
1000
0100
1000
0000
0001
0000
0100
0000
0001
0000
1000
0000
0100
0000
,
0010
0000
0010
0000
1001
0100
0010
1000
,
0000
0001
0100
0020
0000
1000
1030
1000
,
0001
0100
0010
1000
0000
1100
0000
0011
,
0000
0100
0010
1000
0000
0001
1000
0100
,
0010
0001
0100
0000
1020
0000
0130
0001
,
1000
1000
0100
0010
0000
0001
1000
0001
,
0100
0010
1000
0010
0100
0001
0010
0100
,
1000
0010
0000
0100
0010
0100
0001
1000
,
0100
0010
0002
0000
2003
0000
3001
0100
,
0010
1000
0000
0002
0000
0103
0010
1000
,
0001
0100
0010
0100
1000
0100
0001
1000
,
0000
1010
0000
0101
0000
1010
0000
0101
,
1000
1000
0000
0001
0100
0000
0010
2000
,
0000
3200
0000
0320
0000
0031
0000
0011
,
0000
0110
0000
1100
0001
0100
0010
1000
,
0000
0100
0000
0010
0001
1000
1000
0200
,
0000
2300
0000
3002
0000
0013
0001
0200
,
0000
0310
1000
0001
0100
0000
0110
0000
,
1000
0001
0010
0000
0001
0010
0100
1000
,
0000
1100
0000
0101
0000
0010
1000
0100
,
1000
1000
0000
0001
0010
0100
1000
0002
,
0000
0203
0000
0320
0000
1030
0000
1001
,
0000
1010
0000
1100
0000
0010
1000
0001
,
0010
0100
0000
1000
0010
0100
0100
0002
,
0000
0023
0000
0130
1000
0001
0000
0201
,
0000
0310
0100
0010
2000
0000
3002
0000
,
0013
0100
1000
0000
0001
0100
0000
0010
,
1000
1100
0000
0011
0000
1100
0000
0011
,
2002
0000
0000
0000
,
3003
0000
0000
0000
;
