#TITLE:Take You There;
#SUBTITLE:;
#ARTIST:Sean Kingston;
#TITLETRANSLIT:;
#SUBTITLETRANSLIT:;
#ARTISTTRANSLIT:;
#GENRE:;
#CREDIT:;
#BANNER:Take You There-bn.png;
#BACKGROUND:Take You There-bg.png;
#LYRICSPATH:;
#CDTITLE:;
#MUSIC:Take You There.ogg;
#OFFSET:0.000000;
#SAMPLESTART:15.652000;
#SAMPLELENGTH:20.000000;
#SELECTABLE:YES;
#DISPLAYBPM:115.000000;
#BPMS:0.000000=115.000000
;
#STOPS:
;
#BGCHANGES:;
#KEYSOUNDS:;
#ATTACKS:;

//---------------dance-single - ----------------
#NOTES:
     dance-single:
     :
     Hard:
     12:
     0.495460,0.546096,0.271352,0.084798,0.190794,409.000000,377.000000,32.000000,10.000000,0.000000,0.000000,0.495460,0.546096,0.271352,0.084798,0.190794,409.000000,377.000000,32.000000,10.000000,0.000000,0.000000:
0000
0000
0000
0000
,
0000
0000
0000
0000
,
0000
0000
0000
0000
,
0000
0000
0000
0000
,
2000
0010
0001
3100
,
0002
0010
1000
0103
,
0020
1000
0100
0031
,
1000
0001
1000
0001
1000
0000
0010
0100
0010
0100
0010
0100
0010
0000
0000
0000
,
0101
0000
1100
0001
0100
0010
1000
0002
,
0000
0013
0001
0100
0010
1000
0100
0020
,
0000
0000
0001
0000
0031
0000
0100
0000
0010
1000
0000
0010
1000
0000
0100
0000
,
0010
0000
0110
0001
1000
0100
0001
0000
,
0011
0000
0100
1000
0010
0100
0000
0001
,
1000
0010
1000
0100
0010
0001
0000
0100
,
0010
0000
1000
0000
1000
0000
0001
0000
0100
0010
0000
0100
0010
0000
1000
0000
,
0001
0000
0101
0010
1000
0100
1000
0001
,
0000
0101
0010
1000
0100
1000
0001
0100
,
0000
1010
0001
1000
0001
0010
0000
0100
,
1000
0000
0001
0000
0001
0000
0100
0000
0010
1000
0000
0010
1000
0000
0100
0000
,
0010
0000
0110
1000
0001
1000
0010
0100
,
0000
1001
0100
0001
1000
0001
0010
0100
,
0000
1100
0001
1000
0010
0100
0000
0001
,
1000
0000
0100
0000
0100
0000
0010
0000
0001
1000
0000
0001
1000
0000
0010
0000
,
0100
0001
0100
0001
0100
0000
0001
1000
0001
1000
0001
1000
0001
0000
0000
0000
,
0100
0000
0010
1000
0000
0010
1000
0000
0001
0000
0010
0000
0001
0000
0100
0000
,
1000
0000
0010
0100
0000
0010
0100
0000
0001
0000
0000
0000
0001
0000
1000
0000
,
0100
0000
1000
0010
0000
1000
0010
0000
1000
0000
0001
0000
0010
0000
0100
0000
,
1100
0000
0000
0101
0000
0000
1100
0000
0001
0000
0000
0000
0100
0000
0010
0000
,
1000
0000
0001
0010
0000
0001
0010
0000
0100
0000
1000
0000
0001
0000
1000
0000
,
0001
0000
0000
0010
0000
0001
0100
0000
0110
0000
0000
0000
1000
0000
0100
0000
,
1000
0000
0001
0100
0000
0001
0100
0000
0010
0000
1000
0000
0001
0000
0010
0000
,
0011
0000
0000
1010
0000
0000
0011
0000
0100
0000
0000
1000
0000
0000
0002
0000
,
0000
0103
0000
0010
1000
1000
0001
0001
,
1000
0100
0001
0100
1000
0010
0100
0001
,
0010
0100
0000
1000
0001
0100
0001
0010
,
1000
0010
0001
0100
0001
1000
0010
0100
,
0001
0000
1001
0100
0010
0010
0100
0100
,
0001
0000
0010
0001
0100
0010
1000
0001
,
1000
0100
0010
0000
0001
1000
0010
0100
,
0001
0010
0001
0010
0001
0000
1000
0010
1000
0010
1000
0010
1000
0000
0000
0000
,
1100
0000
0011
0100
0001
1000
0010
0200
,
0000
0010
0310
0100
0001
1000
0001
0020
,
0000
0000
0100
0000
0130
0000
0010
0000
0001
1000
0000
0001
1000
0000
0010
0000
,
0100
0000
0110
0001
1000
0100
0001
0000
,
0011
0000
1010
0100
0001
1000
0000
0010
,
0010
1000
0100
1000
0001
0100
0000
0010
,
1000
0000
0100
0000
1000
0000
0001
0000
0010
0100
0000
0010
0100
0000
1000
0000
,
0001
0000
0101
0010
1000
0100
1000
0001
,
0000
0011
0001
0100
0010
1000
0100
0001
,
0000
1001
1000
0001
0010
0100
0000
1000
,
0010
0000
0001
0000
0010
0000
1000
0000
0010
0100
0000
0010
0100
0000
0001
0000
,
1000
0000
1100
0010
0001
0100
0001
1000
,
0000
1010
0001
1000
0001
0010
0100
1000
,
0000
1100
1000
0001
1000
0010
0000
0100
,
0001
0000
0010
0000
0001
0000
0100
0000
0110
0000
0000
1001
0000
0000
0110
0000
,
0002
0000
2000
0000
,
3003
0000
0000
0000
;

//---------------dance-single - ----------------
#NOTES:
     dance-single:
     :
     Medium:
     9:
     0.339190,0.356149,0.135676,0.220474,0.067838,280.000000,264.000000,16.000000,26.000000,0.000000,0.000000,0.339190,0.356149,0.135676,0.220474,0.067838,280.000000,264.000000,16.000000,26.000000,0.000000,0.000000:
0000
0000
0000
0000
,
0000
0000
0000
0000
,
0000
0000
0000
0000
,
0000
0000
0000
0000
,
2000
0010
0000
3010
,
0002
0100
0000
0103
,
0020
1000
0000
1030
,
0010
0100
0001
0010
0100
1000
0001
0000
,
1001
0000
1000
0000
0010
0100
0000
0002
,
0000
0013
0001
0000
0100
1000
0000
0002
,
0000
0000
1003
0000
0010
0000
0000
0000
0001
0000
0000
0100
0000
0000
0002
0000
,
0000
0000
0003
1000
0002
0000
0203
0000
,
0310
0000
1000
0001
0100
0000
0000
0010
,
1000
0100
1000
0000
0101
0000
0000
0002
,
0000
0000
0013
0000
0100
0000
0000
0000
1000
0000
0000
0001
0000
0000
0200
0000
,
0000
0000
0300
0010
1000
0100
1000
0010
,
0000
1010
0000
0001
0010
0100
1000
0100
,
0000
1100
0000
0010
0001
0100
0000
0020
,
0000
0000
1030
0000
0001
0000
0000
0000
0001
0000
0000
0100
0000
0000
0020
0000
,
0000
0000
0030
1000
0010
1000
0001
0100
,
0000
0110
0000
0100
0010
1000
0001
0010
,
0000
0011
0000
0001
0100
0010
0000
2000
,
0000
0000
3010
0000
1000
0000
0000
0000
0001
0000
0000
0100
0000
0000
0010
0000
,
1000
0010
0100
0001
0010
0100
1000
0000
,
0010
0000
0000
0001
0000
0000
0100
0000
0010
0000
0000
0000
1000
0000
0100
0000
,
1000
0000
0000
0010
0000
0000
0100
0000
0001
0000
0000
0000
0101
0000
0000
0000
,
0001
0000
0000
0010
0000
0000
0001
0000
0100
0000
0000
0000
0010
0000
1000
0000
,
0001
0000
0000
1000
0000
0000
0200
0000
0000
0000
0000
0000
1300
0000
0001
0000
,
0100
0000
0000
0010
0000
0000
0100
0000
0001
0000
0000
0000
1000
0000
0010
0000
,
0100
0000
0000
0010
0000
0000
1000
0000
0001
0000
0000
0000
1100
0000
0000
0000
,
0001
0000
0000
0010
0000
0000
0100
0000
1000
0000
0000
0000
0010
0000
0100
0000
,
0001
0000
0000
1000
0000
0000
0010
0000
1000
0000
0000
0000
0001
0000
0000
0000
,
1001
0000
0000
0100
0001
0100
0010
0100
,
0001
0000
1000
0000
1000
0100
0010
0002
,
0000
1003
0000
0010
1000
0000
0100
0010
,
0001
0100
0001
0000
0001
0010
0100
1000
,
0000
0000
0000
0010
1000
0001
1000
0000
,
0100
0000
0010
0001
0100
0000
0010
2000
,
0000
3001
0000
0000
0100
0001
0010
0000
,
0001
1000
0010
1000
0100
0010
0001
0000
,
1001
0000
0001
0000
0100
1000
0000
0020
,
0000
0130
0010
0000
1000
0001
0000
0200
,
0000
0000
0301
0000
0010
0000
0000
0000
0100
0000
0000
1000
0000
0000
0002
0000
,
0000
0000
0003
0010
0002
0000
1003
0000
,
1010
0000
0100
0001
0010
0000
0000
0100
,
1000
0001
0100
0000
0101
0000
0000
0020
,
0000
0000
0130
0000
0010
0000
0000
0000
1000
0000
0000
0100
0000
0000
0002
0000
,
0000
0000
0003
1000
0001
0010
0100
1000
,
0000
1100
0000
1000
0010
0100
0001
0100
,
0000
0110
0000
0001
1000
0100
0000
0020
,
0000
0000
0130
0000
1000
0000
0000
0000
1000
0000
0000
0001
0000
0000
0200
0000
,
0000
0000
0300
0010
0100
0010
1000
0001
,
0000
0011
0000
0001
1000
0100
1000
0010
,
0000
0110
0000
0010
1000
0100
0000
1000
,
0000
0000
0010
0000
1000
0000
0000
0000
1000
0000
0000
0001
0000
0000
0100
0000
,
0002
0000
2000
0000
,
3003
0000
0000
0000
;

//---------------dance-single - ----------------
#NOTES:
     dance-single:
     :
     Easy:
     6:
     0.205937,0.213690,0.016960,0.118717,0.000000,170.000000,168.000000,2.000000,14.000000,0.000000,0.000000,0.205937,0.213690,0.016960,0.118717,0.000000,170.000000,168.000000,2.000000,14.000000,0.000000,0.000000:
0000
0000
0000
0000
,
0000
0000
0000
0000
,
0000
0000
0000
0000
,
0000
0000
0000
0000
,
2000
0000
0000
3000
,
0002
0000
0000
0003
,
0020
0000
0000
0030
,
0200
0300
1000
0001
,
0100
0010
1000
0000
,
0001
0010
0001
0000
,
0100
0010
1000
0001
,
0020
0030
0001
0100
,
0001
1000
0100
0000
,
0010
0001
0010
0000
,
0001
1000
0010
1000
,
0200
0300
0010
0001
,
0100
0010
0100
0001
,
1000
0100
0001
0000
,
0010
0001
0010
0100
,
2000
3000
0010
1000
,
0100
0010
0100
1000
,
0001
0010
1000
0000
,
0100
1000
0010
0100
,
0002
0000
2000
3003
,
0010
1000
0010
0100
,
0001
0010
0100
0000
,
1000
0001
1000
0010
,
0100
0100
0100
0000
,
0010
0100
0010
1000
,
0001
0010
0100
0000
,
0010
0001
1000
0001
,
0100
0100
0100
0000
,
1001
0000
0010
1000
,
0010
0100
0010
1000
,
0001
0000
0010
0010
,
0001
0100
0010
1000
,
0110
0000
0100
0001
,
0100
0010
1000
0001
,
0010
0000
0100
0010
,
0001
0001
1000
1000
,
0001
0100
0010
0000
,
1000
0100
0001
0000
,
0010
0001
1000
0010
,
0200
0300
0010
0100
,
0010
1000
0001
0000
,
1000
0100
0010
0000
,
0001
1000
0001
0100
,
0020
0030
0100
0001
,
1000
0010
1000
0100
,
0010
0001
1000
0000
,
0001
1000
0010
1000
,
0200
0300
0010
0001
,
0100
0010
1000
0100
,
1000
0010
0001
0000
,
1000
0010
0100
0010
,
0002
0000
2000
0000
,
3003
0000
0000
0000
;

//---------------dance-single - ----------------
#NOTES:
     dance-single:
     :
     Beginner:
     2:
     0.090854,0.117657,0.000000,0.000000,0.000000,75.000000,75.000000,0.000000,0.000000,0.000000,0.000000,0.090854,0.117657,0.000000,0.000000,0.000000,75.000000,75.000000,0.000000,0.000000,0.000000,0.000000:
// measure 0
0000
0000
0000
0000
,  // measure 1
0000
0000
0000
0000
,  // measure 2
0000
0000
0000
0000
,  // measure 3
0000
0000
0000
0000
,  // measure 4
1000
0000
0000
0000
,  // measure 5
0001
0000
0000
0000
,  // measure 6
0010
0000
0000
0000
,  // measure 7
0001
0000
1000
0000
,  // measure 8
0010
0000
0000
0000
,  // measure 9
0100
0000
0000
0000
,  // measure 10
0010
0000
1000
0000
,  // measure 11
0001
0000
0000
0000
,  // measure 12
1000
0000
0000
0000
,  // measure 13
0100
0000
0000
0000
,  // measure 14
1000
0000
0001
0000
,  // measure 15
0010
0000
0000
0000
,  // measure 16
0001
0000
0000
0000
,  // measure 17
1000
0000
0000
0000
,  // measure 18
0001
0000
0100
0000
,  // measure 19
0010
0000
0000
0000
,  // measure 20
0100
0000
0000
0000
,  // measure 21
0001
0000
0000
0000
,  // measure 22
0010
0000
0100
0000
,  // measure 23
1000
0000
0001
0000
,  // measure 24
0100
0000
0100
0000
,  // measure 25
0010
0000
1000
0000
,  // measure 26
0001
0000
0010
0000
,  // measure 27
0100
0000
0000
0000
,  // measure 28
1000
0000
0001
0000
,  // measure 29
0001
0000
0010
0000
,  // measure 30
0001
0000
0100
0000
,  // measure 31
0010
0000
0000
0000
,  // measure 32
0000
0000
1000
0000
,  // measure 33
0100
0000
0010
0000
,  // measure 34
0001
0000
0100
0000
,  // measure 35
0010
0000
1000
0000
,  // measure 36
0100
0000
1000
0000
,  // measure 37
0001
0000
0100
0000
,  // measure 38
0010
0000
0100
0000
,  // measure 39
0010
0000
1000
0000
,  // measure 40
0001
0000
0000
0000
,  // measure 41
0010
0000
0000
0000
,  // measure 42
0001
0000
1000
0000
,  // measure 43
0010
0000
0000
0000
,  // measure 44
0100
0000
0000
0000
,  // measure 45
0010
0000
0000
0000
,  // measure 46
0100
0000
0001
0000
,  // measure 47
0010
0000
0000
0000
,  // measure 48
0100
0000
0000
0000
,  // measure 49
1000
0000
0000
0000
,  // measure 50
0100
0000
1000
0000
,  // measure 51
0001
0000
0000
0000
,  // measure 52
0100
0000
0000
0000
,  // measure 53
0010
0000
0000
0000
,  // measure 54
0100
0000
0000
0000
,  // measure 55
0001
0000
1000
0000
;
