#TITLE:TWILIGHT ZONE (R-C Extended Club MIX);
#SUBTITLE:;
#ARTIST:2 UNLIMITED;
#TITLETRANSLIT:;
#SUBTITLETRANSLIT:;
#ARTISTTRANSLIT:;
#GENRE:;
#CREDIT:;
#BANNER:TWILIGHT ZONE (R-C Extended Club MIX)-bn.png;
#BACKGROUND:TWILIGHT ZONE (R-C Extended Club MIX)-bg.png;
#LYRICSPATH:;
#CDTITLE:;
#MUSIC:TWILIGHT ZONE (R-C Extended Club MIX).ogg;
#OFFSET:0.000000;
#SAMPLESTART:17.360001;
#SAMPLELENGTH:20.000000;
#SELECTABLE:YES;
#DISPLAYBPM:138.000000;
#BPMS:0.000000=137.684998
,4.000000=138.018005
;
#STOPS:
;
#BGCHANGES:19.000=TWILIGHT ZONE (R-C Extended Club MIX).mp4=1.000=1=0=0=StretchNoLoop==CrossFade==,
99999=-nosongbg-=1.000=0=0=0 // don't automatically add -songbackground-
;
#KEYSOUNDS:;
#ATTACKS:;

//---------------dance-single - ----------------
#NOTES:
     dance-single:
     :
     Beginner:
     4:
     0.150458,0.210641,0.074469,0.000000,0.000000,99.000000,92.000000,7.000000,0.000000,0.000000,0.000000,0.150458,0.210641,0.074469,0.000000,0.000000,99.000000,92.000000,7.000000,0.000000,0.000000,0.000000:
0000
0000
0000
0000
,
0000
0000
0000
0000
,
0000
0000
0000
0000
,
0010
0000
0000
0000
,
0000
0000
0000
0000
,
0010
0000
0000
0000
,
0001
0000
0000
0000
,
1000
0000
0000
0000
,
0001
0000
0000
0000
,
1000
0000
0000
1001
,
1001
0000
0000
0001
,
0001
0000
0000
1000
,
1000
0000
0000
0001
,
0001
0000
1001
0000
,
0010
0000
0000
0000
,
0010
0000
0000
0000
,
0010
0000
0010
0000
,
1000
0000
1001
0000
,
0010
0010
0010
0000
,
0010
0010
0010
0000
,
0100
0100
0100
0000
,
1000
0000
0001
0001
,
0001
0000
0000
1000
,
1000
0000
0000
0001
,
0001
0000
0000
1000
,
1000
0000
1001
0000
,
0001
0000
0000
0000
,
1000
0000
0000
0000
,
0001
0000
0000
0000
,
1000
0000
1001
0000
,
0010
0000
0000
0000
,
0010
0000
0000
0000
,
0010
0000
0010
0000
,
0001
0000
1001
0000
,
0100
0100
0100
0000
,
0100
0100
0100
0000
,
0001
0000
0001
0000
,
1000
0000
1000
0000
,
0010
0010
0010
0000
,
0010
0010
0010
0000
,
1000
0000
1000
0000
,
0001
0000
0001
0000
,
1000
1000
1000
0000
,
0001
0001
0001
0000
,
1000
1000
1000
0000
,
0001
0001
0001
0000
,
0010
0000
0000
0000
,
0010
0000
0000
0000
,
0010
0010
0010
0000
,
0100
0100
0100
0000
,
0000
0000
0000
0000
;

//---------------dance-single - ----------------
#NOTES:
     dance-single:
     :
     Easy:
     5:
     0.180853,0.236971,0.117023,0.063830,0.000000,119.000000,108.000000,11.000000,6.000000,0.000000,0.000000,0.180853,0.236971,0.117023,0.063830,0.000000,119.000000,108.000000,11.000000,6.000000,0.000000,0.000000:
0000
0000
0000
0000
,
0000
0000
0000
0000
,
0000
0000
0000
0000
,
0010
0000
0000
0000
,
0010
0000
0000
0000
,
0010
0000
0000
0000
,
1001
0000
0000
0000
,
1001
0000
0000
0000
,
1001
0000
0000
0000
,
1000
0001
1001
0000
,
1000
0000
1000
0000
,
0001
0000
0001
0000
,
1000
0000
0001
0000
,
1000
0001
1001
0000
,
0010
0000
0000
0000
,
0010
0000
0000
0000
,
0010
0000
0010
0000
,
1000
0001
1001
0000
,
0010
0010
0010
0010
,
0010
0010
0010
0010
,
0100
0100
0100
0100
,
1000
1000
0001
0001
,
2000
0000
0000
3000
,
0002
0000
0000
0003
,
2000
0000
0000
3000
,
0001
1000
1001
0000
,
0002
0000
0000
0003
,
2000
0000
0000
3000
,
0002
0000
0000
0003
,
1000
0001
1001
0000
,
0010
0000
0000
0000
,
0010
0000
0000
0000
,
0010
0000
0010
0000
,
0001
1000
1001
0000
,
0001
1000
0100
0000
,
0001
1000
0100
0000
,
0001
1000
0001
1000
,
0001
1000
0100
0000
,
1000
0001
0100
0000
,
1000
0001
0100
0000
,
1000
0001
1000
0001
,
1000
0001
0100
0000
,
1000
1000
1000
0000
,
0001
0001
0001
0000
,
1000
1000
0001
0001
,
1000
0001
1001
0000
,
0010
0000
0000
0000
,
0010
0000
0000
0000
,
0010
0010
0010
0010
,
1000
0001
1001
0000
,
0000
0000
0000
0000
;

//---------------dance-single - ----------------
#NOTES:
     dance-single:
     :
     Medium:
     8:
     0.373864,0.447611,0.319152,0.085107,0.000000,246.000000,216.000000,30.000000,8.000000,0.000000,0.000000,0.373864,0.447611,0.319152,0.085107,0.000000,246.000000,216.000000,30.000000,8.000000,0.000000,0.000000:
0000
0000
0000
0000
,
0000
0000
0000
0000
,
0000
0000
0000
0000
,
0010
0000
0000
0000
,
0010
0000
0010
0000
,
0010
0010
0010
0010
,
1100
0000
0001
0100
,
0101
0000
1000
0100
,
1100
0000
0001
0100
,
0101
1000
0010
1001
,
0010
0000
1001
0000
0100
0000
1000
0100
,
0010
0000
1001
0000
0100
0000
0001
0100
,
0010
0000
1001
0000
0100
0000
1000
0100
,
0010
1001
0100
0001
,
1000
0000
0110
0000
1001
0000
0100
0001
,
1000
0000
0110
0000
1001
0000
0100
0001
,
1000
0000
0110
0000
1001
0000
0100
0001
,
1000
0110
1001
0110
,
0001
0100
0001
0100
0001
0100
0001
0100
,
1000
0100
1000
0100
1000
0100
0001
0000
,
0001
0100
0001
0100
0001
0100
0001
0200
,
1000
1000
1000
1300
,
0001
0000
0010
0000
0001
0000
0010
0001
,
1000
0000
0010
0000
1000
0000
0010
1000
,
0001
0000
0010
0000
0001
0000
0010
0001
,
1000
0010
1000
1001
,
0001
0000
1000
0000
0010
0000
1000
0100
,
1000
0000
0001
0000
0010
0000
0001
0100
,
0001
0000
1000
0000
0010
0000
1000
0100
,
1000
0001
0010
1001
,
0010
0000
1000
0000
0100
0000
0100
1000
,
0010
0000
1000
0000
0100
0000
0100
1000
,
0010
0000
1000
0000
0100
0000
0100
0010
,
0001
0100
1000
1000
,
0001
0100
0010
0000
0102
0000
0013
0000
,
1000
0100
0010
0000
2100
0000
3010
0000
,
0001
0100
0010
0000
1000
0100
0010
0000
,
2100
3010
0102
0013
,
1000
0100
0010
0000
2100
0000
3010
0000
,
0001
0100
0010
0000
0102
0000
0013
0000
,
1000
0100
0010
0000
0001
0100
0010
0000
,
0020
0000
0000
0030
,
1000
0000
0010
0000
0001
0000
1000
0100
,
0001
0000
0010
0000
1000
0000
0001
0100
,
1000
0000
0010
0000
0001
0000
1000
0100
,
0001
0010
1000
0110
,
1000
0000
1100
0000
0010
0000
0100
0001
,
1000
0000
1100
0000
0010
0000
0100
0001
,
1000
0000
1100
0000
0010
0000
0100
0001
,
1000
1000
1000
0000
,
0000
0000
0000
0000
;

//---------------dance-single - ----------------
#NOTES:
     dance-single:
     :
     Hard:
     13:
     0.515203,0.578530,0.148938,0.244683,0.361706,339.000000,325.000000,14.000000,23.000000,0.000000,0.000000,0.515203,0.578530,0.148938,0.244683,0.361706,339.000000,325.000000,14.000000,23.000000,0.000000,0.000000:
0000
0000
0000
0000
,
0000
0000
0000
0000
,
0000
0000
0000
0000
,
0010
0000
0000
0000
,
0010
0010
0010
0010
,
0010
1000
0001
0100
0101
0000
1100
0000
,
1000
0001
0000
1000
0001
0000
1000
0001
0000
1000
0001
0000
1000
0000
0001
0000
,
0100
0010
0000
0100
0010
0000
0100
0010
0000
0100
0010
0000
0100
0000
0010
0000
,
1000
0001
0000
1000
0001
0000
1000
0001
0000
1000
0001
0000
1000
0000
0001
0000
,
0010
0000
0100
0000
1000
0000
0001
1000
0000
0000
0000
0000
0000
0000
0000
0000
,
0010
0001
0000
0100
0001
0000
1000
0001
0000
1000
0100
0000
1000
0000
0010
0000
,
0010
1000
0000
0100
1000
0000
0001
1000
0000
0001
0100
0000
0001
0000
0010
0000
,
0010
0001
0000
0100
0001
0000
1000
0001
0000
1000
0100
0000
1000
0000
0010
0000
,
1000
0000
0001
0000
0100
0000
0010
0100
0000
0000
0000
0000
0000
0000
0000
0000
,
2000
0100
3000
0020
0000
0031
1000
0100
,
0002
0100
0003
0020
0000
1030
0001
0100
,
2000
0100
3000
0020
0000
0031
1000
0100
,
0001
0000
0100
0000
1000
0000
0010
0100
0000
0000
0000
0000
0000
0000
0000
0000
,
1000
0100
0010
0100
0001
0010
0100
0001
,
0100
1000
0010
0100
1000
0100
0001
0000
,
0010
0100
1000
0010
0001
0010
0100
0000
,
0101
0000
1100
0000
0001
1000
0100
0000
,
1000
0010
0000
1000
0001
0000
1000
0100
0000
0010
0001
0000
0100
0000
0010
0000
,
1000
0010
0000
1000
0001
0000
1000
0100
0000
0010
0001
0000
0100
0000
0010
0000
,
1000
0010
0000
1000
0001
0000
1000
0100
0000
0010
0001
0000
0100
0000
0010
0000
,
1000
0000
0010
0000
1000
0000
0001
1000
0000
0000
0000
0000
0000
0000
0000
0000
,
1000
0120
0000
0031
0000
1000
0001
0010
,
0100
2001
0000
3010
0000
0100
0010
1000
,
0001
0120
0000
1030
0000
0001
1000
0010
,
0100
0000
0001
0000
1000
0000
0100
0010
0000
0000
0000
0000
0000
0000
0000
0000
,
0010
1000
0100
0001
,
0010
1000
0100
0000
0001
0100
1000
0000
,
0010
0001
0100
1000
0100
0001
0010
0000
,
0110
0000
0001
0000
1000
0000
0100
0010
0000
0000
0000
0000
0000
0000
0000
0000
,
2000
0100
3100
1000
0200
0001
0301
0000
,
0110
0200
1000
1300
0001
0010
0100
0000
,
0002
0100
0103
0001
0200
1000
1300
0000
,
2002
0000
3003
0000
,
0002
0010
0013
0001
0020
1000
1030
0000
,
0110
0020
0001
0031
1000
0100
0010
0000
,
2000
0010
3010
1000
0020
0001
0031
0000
,
2002
0000
0000
3003
,
1000
0100
0000
0100
1000
0000
0010
0001
0000
0001
0010
0000
1000
0000
0001
0000
,
0001
0100
0000
0100
0001
0000
0010
1000
0000
1000
0010
0000
0001
0000
0100
0000
,
0010
0100
0000
0001
0100
0000
1000
0100
0000
0010
0100
0000
0001
0000
1000
0000
,
0110
0000
0100
0000
0001
0000
1000
0001
0000
0000
0000
0000
0000
0000
0000
0000
,
1000
0100
0000
0001
0100
0000
1000
0100
0000
0001
0100
0000
1000
0000
0001
0000
,
0010
0001
0000
0001
1000
0000
1000
0010
0000
0010
0100
0000
0001
0000
1000
0000
,
0001
0100
0000
1000
0100
0000
0001
0100
0000
1000
0100
0000
0001
0000
1000
0000
,
1001
0000
0100
0000
0010
0000
0001
1000
0000
0000
0000
0000
0000
0000
0000
0000
,
0000
0000
0000
0000
;

//---------------dance-double - ----------------
#NOTES:
     dance-double:
     :
     Easy:
     5:
     0.261401,0.368621,0.234045,0.053192,0.000000,172.000000,150.000000,22.000000,5.000000,0.000000,0.000000,0.261401,0.368621,0.234045,0.053192,0.000000,172.000000,150.000000,22.000000,5.000000,0.000000,0.000000:
00000000
00000000
00000000
00000000
,
00000000
00000000
00000000
00000000
,
00000000
00000000
00000000
00000000
,
00010000
00000000
00000000
00000000
,
00001000
00000000
00000000
00000000
,
00010000
00000000
00000000
00000000
,
00010100
00000000
00000000
00000000
,
01001000
00000000
00000000
00000000
,
00010100
00000000
00000000
00000000
,
00010000
00010000
00010000
00000000
,
00010000
00010000
00010000
00010000
,
01000000
01000000
01000000
01000000
,
10000000
10000000
10000000
10000000
,
01000000
00010000
00001000
00000000
,
00001000
00001000
00001000
00001000
,
00000100
00000100
00000100
00000100
,
00000001
00000001
00000001
00000001
,
00000100
00001000
00010000
00000000
,
00010000
00010000
00010000
00010000
,
00010000
00010000
00010010
00011000
,
00001000
00001000
00001000
00001000
,
00001000
00001000
00101000
00011000
,
00001000
00001000
00001000
00002000
,
00000100
00000100
00003100
00000200
,
00000001
00000001
00000301
00000001
,
00000100
00001000
00010000
00000000
,
00010000
00010000
00010000
00020000
,
01000000
01000000
01030000
02000000
,
10000000
10000000
13000000
10000000
,
01000000
00010000
00001000
00000000
,
00011000
00001000
00001000
00010010
,
00011000
00010000
00010000
00101000
,
00011000
00001000
00001000
00010010
,
00011000
00001000
00000100
00000000
,
00000001
00000100
00001000
00000000
,
00001000
00000100
00000001
00000000
,
00000001
00000100
00001000
00000000
,
00010000
01000000
10000000
00000000
,
10000000
01000000
00010000
00000000
,
00010000
01000000
10000000
00000000
,
10000000
01000000
00010000
00000000
,
00002000
00000000
00000000
00003000
,
00011000
00001000
00001000
00010010
,
00011000
00010000
00010000
00101000
,
00011000
00001000
00001000
00010010
,
00011000
00001000
00000100
00000000
,
00000001
00000100
00001000
00000000
,
00001000
00000100
00000001
00000000
,
00000001
00000100
00001000
00010000
,
01000000
10000000
10010000
00000000
,
00000000
00000000
00000000
00000000
;

//---------------dance-double - ----------------
#NOTES:
     dance-double:
     :
     Medium:
     8:
     0.348028,0.394951,0.265960,0.085107,0.000000,229.000000,204.000000,25.000000,8.000000,0.000000,0.000000,0.348028,0.394951,0.265960,0.085107,0.000000,229.000000,204.000000,25.000000,8.000000,0.000000,0.000000:
00000000
00000000
00000000
00000000
,
00000000
00000000
00000000
00000000
,
00000000
00000000
00000000
00000000
,
01000000
00010000
00001000
00000100
,
00000100
00001000
00010000
01000000
,
01000000
00010000
00001000
00000100
,
00000110
00000000
00001000
00010000
,
01100000
00000000
00010000
00001000
,
00000110
00000000
00001000
00010000
,
01000000
10000000
00010000
00000000
,
01000000
10000000
00000000
10010000
00000000
00100000
00000000
01000000
,
00000000
10000000
00000000
10010000
00000000
01000000
00010000
00001000
,
00000100
00000001
00000000
00001001
00000000
00000010
00000000
00000100
,
00000000
00000001
00000000
00001001
00000000
00000100
00000010
00000000
,
00000100
00000001
00000000
00001001
00000000
00000010
00000000
00000100
,
00000000
00000001
00000000
00001001
00000000
00000100
00001000
00010000
,
01000000
10000000
00000000
10010000
00000000
00100000
00000000
01000000
,
00000000
10000000
00000000
10010000
00000000
00100000
01000000
00000000
,
02100000
00010000
10000000
03020000
,
00001000
00000000
01030000
00000000
00001000
00000100
00000001
00000000
,
00000210
00001000
00000001
00002300
,
00010000
00000000
00013000
00000000
00000100
00001000
00010000
00000000
,
00010010
00001000
00010010
00002000
,
00000100
00000100
00010000
00013000
,
00101000
00010000
00101000
00020000
,
01000000
01000000
00001000
00031000
,
00001000
00000100
00000001
00001000
,
00000001
00000001
00000100
00001000
,
00010000
01000000
10000000
00010000
,
10000000
10000000
01000000
00010000
,
00001000
00010000
00000000
00100000
00000000
00010000
00001000
00000000
,
00010000
00001000
00000000
00000010
00000000
00001000
00010000
00000000
,
00001000
00010000
00000000
00100000
00000000
00010000
00001000
00000000
,
00000100
00000001
00001001
00000100
,
00000010
00000000
00000100
00000000
00000010
00001000
00000100
00001000
,
00000001
00000000
00001100
00000000
00000010
00000001
00000100
00000000
,
00001000
00010000
01000000
10000000
,
10010000
01000000
00100000
10010000
,
01000000
00000000
10000000
00000000
01000000
00010000
00001000
00010000
,
01000000
00000000
01100000
00000000
10000000
01000000
00010000
01000000
,
10000000
10010000
01000000
00100000
,
20020000
00000000
00000000
30030000
,
00100000
00000000
10000000
00000000
00100000
00000000
10000000
01000000
,
00010000
00000000
00001000
00000000
01000000
00000000
00001000
00000100
,
00000001
00000000
00000010
00000000
00001000
00000000
00000100
00001000
,
00000001
00000100
00001001
00000100
,
00000010
00000000
00000100
00000000
00000001
00000000
00000010
00000100
,
00001000
00000000
00000010
00000000
00000001
00000000
00000100
00000001
,
00001000
00000000
00000001
00000000
00000100
00000000
00001000
00010000
,
01000000
10000000
00100000
00000000
,
00000000
00000000
00000000
00000000
;

//---------------dance-double - ----------------
#NOTES:
     dance-double:
     :
     Hard:
     12:
     0.483288,0.552233,0.297875,0.074469,0.101065,318.000000,290.000000,28.000000,7.000000,0.000000,0.000000,0.483288,0.552233,0.297875,0.074469,0.101065,318.000000,290.000000,28.000000,7.000000,0.000000,0.000000:
00000000
00000000
00000000
00000000
,
00000000
00000000
00000000
00000000
,
00000000
00000000
00000000
00000000
,
10000000
01000000
00100000
00010000
,
01000000
00100000
00010000
00001000
,
00010000
01000000
10000000
00100000
,
10010000
00000000
00000000
00000000
10000000
00010000
01000000
00000000
,
01001000
00000000
00000000
00000000
00100000
00010000
00001000
00000000
,
00010100
00000000
00000000
00000000
00000010
00001000
00010000
00000000
,
00001000
00000000
00000100
00000000
00000001
00000000
00001000
00000001
00000000
00000000
00000000
00000000
00000000
00000000
00000000
00000000
,
00000001
00000010
00000100
00001000
00000001
00000010
00001000
00000001
,
00000100
00001000
00000010
00000100
00001000
00010000
00100000
10000000
,
01000000
00010000
00001000
00010000
01000000
00100000
00010000
01000000
,
00100000
00000000
00010000
00000000
00100000
00000000
01000000
00100000
00000000
00000000
00000000
00000000
00000000
00000000
00000000
00000000
,
10000000
00100000
01000000
00010000
10000000
00100000
00010000
10000000
,
01000000
00010000
00100000
01000000
00010000
00001000
00000010
00000001
,
00000100
00001000
00010000
00001000
00000100
00000010
00001000
00000100
,
00000010
00000000
00001000
00000000
00000010
00000000
00000100
00000010
00000000
00000000
00000000
00000000
00000000
00000000
00000000
00000000
,
00001001
00000110
00001001
00001100
,
00001001
00000101
00001001
00011000
,
10010000
01100000
10010000
01010000
,
10010000
01000000
00010000
00001000
,
00000010
00001000
00010000
00001000
00000010
00000001
00000010
00001000
,
00010000
00001000
00000010
00000001
00000100
00001000
00010000
00001000
,
00000100
00000001
00001000
00000100
00000010
00000001
00000100
00001000
,
00010000
00000000
00001000
00000000
00000010
00000000
00000100
00000010
00000000
00000000
00000000
00000000
00000000
00000000
00000000
00000000
,
00000010
00000001
00000100
00000001
00001000
00000100
00001000
00000010
,
00001000
00000100
00000010
00001000
00010000
01000000
00010000
00001000
,
00010000
00100000
00010000
00001000
00010000
01000000
10000000
00100000
,
01000000
00000000
00010000
00000000
10000000
00000000
01000000
10000000
00000000
00000000
00000000
00000000
00000000
00000000
00000000
00000000
,
10000000
01000000
00010000
01000000
10000000
01000000
00020000
00000000
,
00031000
00000100
00000001
00000100
00001000
00000100
00000002
00000000
,
00000013
00000001
00001000
00000010
00000100
00000001
00002000
00000000
,
00003001
00000000
00000110
00000000
00001001
00000100
00000010
00000100
,
00000001
00000000
00000010
00000000
00001000
00000010
00000001
00000100
,
00001000
00000000
00010000
00000000
01100000
10000000
00010000
01000000
,
00100000
10010000
11000000
01010000
,
20020000
00000000
00000000
30030000
10000000
01000000
00100000
00010000
,
10000000
00000000
01100000
00000000
00010000
00001000
00000010
00001000
,
00010000
00000000
01100000
00000000
00010000
00001000
00000100
00001000
,
00010000
00001000
00000110
00000101
,
00002002
00000000
00000000
00003003
,
00000001
00000100
00001000
00001000
00000100
00000100
00001000
00010000
,
01000000
01000000
00100000
00100000
00010000
10000000
00100000
01000000
,
00010000
00100000
01000000
01000000
00010000
00010000
00001000
00000100
,
00000001
00000000
00000010
00000000
00000100
00000000
00001000
00000001
00000000
00000000
00000000
00000000
00000000
00000000
00000000
00000000
,
00001000
00001000
00000000
00000100
00000100
00000000
00000010
00000010
00000000
00000001
00000001
00000000
00000100
00000000
00001000
00000000
,
00010000
00010000
00000000
01000000
01000000
00000000
00100000
00100000
00000000
10000000
10000000
00000000
00010000
00000000
01000000
00000000
,
10000000
10000000
00000000
01000000
01000000
00000000
00100000
00100000
00000000
00010000
00010000
00000000
01000000
00000000
00100000
00000000
,
00010000
00000000
00001000
00000000
00000100
00000000
00000010
00000001
00000000
00000000
00000000
00000000
00000000
00000000
00000000
00000000
,
00000000
00000000
00000000
00000000
;

//---------------dance-single - ----------------
#NOTES:
     dance-single:
     :
     Challenge:
     16:
     0.747728,0.736311,0.468090,0.063830,0.835115,492.000000,448.000000,44.000000,6.000000,0.000000,0.000000,0.747728,0.736311,0.468090,0.063830,0.835115,492.000000,448.000000,44.000000,6.000000,0.000000,0.000000:
// measure 0
0000
0000
0000
0000
,  // measure 1
0000
0000
0000
0000
,  // measure 2
0000
0000
0000
0000
,  // measure 3
0000
0000
0000
0000
,  // measure 4
0000
0000
0000
0000
,  // measure 5
1000
0001
1000
0001
1000
0001
1000
0001
0200
0000
0000
0000
0300
0000
0000
0000
,  // measure 6
0010
1000
0000
0010
1000
0000
0010
1000
0000
0010
1000
0000
0010
0000
1000
0000
,  // measure 7
0001
0100
0000
0001
0100
0000
0001
0100
0000
0001
0100
0000
0001
0000
0100
0000
,  // measure 8
0010
1000
0000
0010
1000
0000
0001
0100
0000
0001
0100
0000
0010
0000
1000
0000
,  // measure 9
1100
0000
0101
0000
1100
0000
0001
0100
0000
0000
0000
0000
1001
0000
0000
0000
,  // measure 10
0010
1000
0000
1000
0100
0000
0010
0001
0000
0001
0100
0000
0001
0000
0010
0000
,  // measure 11
1000
0100
0000
0100
0001
0000
1000
0010
0000
0010
0001
0000
0100
0000
0010
0000
,  // measure 12
0100
0001
0000
0001
1000
0000
0100
1000
0000
1000
0001
0000
0010
0000
0100
0000
,  // measure 13
1100
0000
0101
0000
1100
0000
0001
0100
0010
0100
1000
0100
0002
0000
0000
0000
,  // measure 14
0013
0100
0000
1000
0001
0000
0100
0010
0000
1000
0001
0000
0010
0000
1000
0000
,  // measure 15
0100
0010
0000
0001
1000
0000
0001
0010
0000
1000
0100
0000
1000
0000
0001
0000
,  // measure 16
0010
1000
0000
0100
0001
0000
0010
0100
0000
1000
0001
0000
0010
0000
1000
0000
,  // measure 17
1100
0000
0101
0000
1100
0000
0001
0100
0010
0100
1000
0100
0001
0000
0000
0000
,  // measure 18
1001
0000
0010
1000
0100
0000
0011
0000
1000
0010
0001
0000
1100
0000
0010
1000
,  // measure 19
0100
0000
0010
0001
0100
0000
0001
0010
1000
0010
0001
0000
0101
0000
0000
0000
,  // measure 20
1100
0000
0001
0100
0010
0000
0110
0000
1000
0100
0001
0000
0010
0001
0100
1000
,  // measure 21
0010
0000
0001
0100
0001
0100
0001
0100
0001
0000
1001
0000
0110
0000
0000
0000
,  // measure 22
1000
0010
0000
0001
0100
0000
0001
0010
0000
1000
0001
0000
1000
0000
0100
0000
,  // measure 23
0010
0100
0000
0100
0010
0000
0001
0100
0000
1000
0001
0000
1000
0000
0010
0000
,  // measure 24
1000
0001
0000
0001
0010
0000
1000
0001
0000
1000
0100
0000
0010
0000
0010
0000
,  // measure 25
0011
0000
0110
0000
1100
0000
1000
0001
0100
0010
1000
0001
0200
0000
0000
0000
,  // measure 26
0301
0010
0000
1000
0100
0000
0010
0001
0000
0100
0010
0000
0100
0000
1000
0000
,  // measure 27
0010
0001
0000
0100
0010
0000
1000
0100
0000
1000
0001
0000
1000
0000
0010
0000
,  // measure 28
1000
0001
0000
0010
0001
0000
1000
0100
0000
1000
0001
0000
0100
0000
0010
0000
,  // measure 29
1010
0000
0101
0000
1010
0000
0010
0001
0010
0100
0010
1000
0020
0000
0000
0000
,  // measure 30
1030
1000
0000
0010
0010
0000
0100
0100
0000
0001
0001
0000
1001
0000
0010
0000
,  // measure 31
0100
0100
0000
0010
0010
0000
1000
1000
0000
0001
0001
0000
1001
0000
0010
0000
,  // measure 32
0001
0001
0000
0010
0010
0000
1000
1000
0000
0100
0100
0000
1001
0000
0010
0000
,  // measure 33
1010
0000
0101
0000
1010
0000
0010
0100
0001
0010
1000
0100
0001
0010
1000
0100
,  // measure 34
0001
0000
0010
0001
0100
0000
0010
1000
0100
0000
0001
0000
0100
0000
1000
0000
,  // measure 35
0001
0000
0100
0010
1000
0000
0100
0010
0001
0000
0100
0000
1000
0000
0100
0000
,  // measure 36
0001
0010
1000
0010
0001
0000
0000
0000
1000
0100
0001
0100
1000
0000
0010
0000
,  // measure 37
0101
0000
0000
1100
0000
0000
1010
0000
0000
0011
0000
0000
1000
0001
1000
0001
,  // measure 38
0010
0000
0001
0100
0001
0000
1000
0100
1000
0000
0010
0000
0001
0000
0010
0000
,  // measure 39
1000
0000
0100
0010
0001
0000
0100
0010
1000
0000
0100
0000
0001
0000
0100
0000
,  // measure 40
1000
0010
0001
0010
1000
0000
0000
0000
0001
0100
1000
0100
0001
0000
0010
0100
,  // measure 41
2000
0000
0000
0000
0000
0000
3001
0100
0010
0000
0000
0000
1001
0000
0000
0000
,  // measure 42
1000
0010
0001
0100
0010
0000
1000
0001
0010
0100
1000
0000
0001
0000
0100
0000
,  // measure 43
0001
0010
1000
0001
1000
0000
0010
0100
0010
1000
0001
0000
0100
0000
0010
0000
,  // measure 44
1000
0100
0010
0001
1000
0000
0001
0010
0001
1000
0100
0000
1000
0000
0010
0000
,  // measure 45
0101
0000
1100
0000
0101
0000
0010
1000
0010
0100
0010
0001
0020
0000
0000
0000
,  // measure 46
1030
1000
0000
0001
0001
0000
0010
0010
0000
0100
0100
0000
1001
0000
0100
0000
,  // measure 47
0010
0010
0000
0001
0001
0000
0100
0100
0000
1000
1000
0000
1001
0000
0010
0000
,  // measure 48
0100
0100
0000
0010
0010
0000
1000
1000
0000
0001
0001
0000
1001
0000
1000
0000
,  // measure 49
1100
0000
0110
0000
0011
0000
0100
0010
0000
0000
0000
0000
0000
0000
0000
0000
;
