#TITLE:TUBTHUMPING;
#ARTIST:CHUMBAWAMBA;
#BANNER:TUBTHUMPING-bn.png;
#BACKGROUND:TUBTHUMPING-bg.png;
#JACKET:TUBTHUMPING-jacket.png;
#MUSIC:TUBTHUMPING.ogg;
#SAMPLESTART:10.68;
#SAMPLELENGTH:20;
#DISPLAYBPM:104;
#BPMS:0=103.5,4=103.795;
#BGCHANGES:0=TUBTHUMPING.mp4=1=0=0=0,
;

//---------------dance-single - ----------------
#NOTES:
     dance-single:
     :
     Beginner:
     2:
     :
0000
0000
0000
0000
,
0000
0000
0000
0000
,
0000
0000
0000
0000
,
0000
0000
0000
0000
,
0000
0000
0000
0000
,
0010
0000
0000
0000
,
1000
0000
0000
0000
,
0001
0000
0000
0000
,
0100
0000
0000
0000
,
0001
0000
0000
0000
,
1000
0000
0000
0000
,
0001
0000
0000
0000
,
0100
0000
0000
0000
,
0001
0000
0001
0000
,
1000
0000
1000
0000
,
0010
0000
0010
0000
,
0100
0000
0100
0000
,
0001
0000
0001
0000
,
1000
0000
1000
0000
,
0001
0000
1000
0000
,
1000
0000
0001
0000
,
0010
0000
0010
0000
,
0100
0000
0100
0000
,
0010
0000
0010
0000
,
0100
0000
0100
0000
,
1001
0000
0100
0000
,
0001
0000
1000
0000
,
1001
0000
0100
0000
,
0001
0000
1000
0000
,
1001
0000
0100
0000
,
0100
0000
0100
0000
,
1001
0000
0010
0000
,
0010
0000
0010
0000
,
1001
0000
0000
0000
;

//---------------dance-single - ----------------
#NOTES:
     dance-single:
     :
     Easy:
     7:
     :
0000
0000
0000
0000
,
0000
0000
0000
0000
,
0000
0000
0000
0000
,
0000
0000
0000
0000
,
0000
0000
0000
0000
,
1001
0100
0001
0001
,
1000
0010
0001
0001
,
0100
0001
1000
1000
,
0001
0100
1000
1000
,
0001
1000
0001
0001
,
1000
0001
1000
1000
,
0001
1000
0001
0001
,
0010
1000
0100
1001
,
0001
0100
1000
0100
,
1000
0100
0001
0100
,
1000
0100
0010
0100
,
0001
0100
0010
0100
,
0010
0000
0010
0000
,
0100
0000
0100
0000
,
1000
0000
0000
0000
1000
0001
0100
0000
,
0001
0000
0000
0000
0001
1000
0100
0000
,
1000
0000
0001
0000
,
1000
0000
0001
0000
,
0010
0000
0100
0000
,
0010
0000
0000
0000
0100
0100
0100
0000
,
1001
0100
0001
0001
,
0001
0100
1000
1000
,
1000
0000
0100
0000
0001
0001
0001
0000
,
0001
0000
0100
0000
1000
1000
1000
0000
,
0001
0000
1000
0000
0001
0001
0001
0000
,
1000
0000
0001
0000
1000
1000
0100
0000
,
0001
0000
1000
0000
0001
0001
0100
0000
,
1001
0000
1001
0000
0001
0100
0100
0100
,
1001
0000
0000
0000
;

//---------------dance-single - ----------------
#NOTES:
     dance-single:
     :
     Medium:
     7:
     :
0000
0000
0000
0000
,
0000
0000
0000
0000
,
0000
0000
0000
0000
,
0000
0000
0000
0000
,
0000
0000
0000
0000
,
1001
0000
0100
0000
0001
0001
1000
0000
,
1000
0000
0010
0000
0001
0001
1000
0000
,
1001
0000
0100
0000
0001
0001
0100
0000
,
0001
0000
0100
0000
0001
0001
1000
0000
,
1001
0000
1000
0000
0001
0001
0010
0000
,
0001
0000
1000
0000
0001
0001
0100
0000
,
1001
0000
1000
0000
0001
0001
0100
0000
,
0010
0000
1000
0000
0100
0100
0101
0000
,
0001
0100
1000
0100
,
0001
0000
0100
0000
1000
1000
0100
0000
,
1000
0000
0100
0000
0001
0001
0100
0000
,
1000
0000
0100
0000
0001
0001
0100
0000
,
0010
0000
0000
0000
0010
0010
0100
0000
,
0100
0000
0000
0000
0100
0100
0010
0000
,
1000
0000
1000
0000
,
0001
0000
0000
0000
0001
0001
0100
0000
,
1000
0100
0001
0100
,
1000
0100
0001
0100
,
0010
0000
0100
0000
,
0010
0000
0000
0000
0100
0100
0001
0000
,
1001
0000
0100
0000
0001
0001
1000
0000
,
1000
0000
0010
0000
0001
0001
1000
0000
,
1000
0000
0100
0000
0001
0001
0100
0000
,
0001
0000
0100
0000
1000
1000
0010
0000
,
0001
0000
1000
0000
0010
0010
0001
0000
,
1000
0000
0001
0000
0100
0100
0010
0000
,
0001
0000
1000
0000
0010
0010
0100
0000
,
1001
0000
0100
0000
1001
0100
0100
0010
,
1001
0000
0000
0000
;

//---------------dance-single - ----------------
#NOTES:
     dance-single:
     :
     Hard:
     8:
     :
0000
0000
0000
0000
,
0000
0000
0000
0000
,
0000
0000
0000
0000
,
0000
0000
0000
0000
,
0000
0000
0000
0000
0000
0010
0010
0010
,
1001
0000
0100
0000
0001
0001
1000
0000
,
1000
0000
0010
0000
0001
0001
1000
1000
,
1001
0000
0100
0000
0001
0001
0100
0000
,
0001
0000
0100
0000
0001
0001
1000
1000
,
1001
0000
1000
0000
0001
0001
0010
0000
,
0001
0000
1000
0000
0001
0001
0100
0100
,
1001
0000
1000
0000
0001
0001
0100
0000
,
0010
0000
1000
0000
0100
0100
0101
0000
,
0001
0100
1000
0010
,
0001
0000
0100
0000
1000
1000
0010
0000
,
0001
0000
0100
0000
0001
0001
0100
0000
,
1000
0000
0100
0000
0001
0001
0100
0000
,
0010
0000
0000
0000
0010
0010
0100
0000
,
0100
0000
0000
0000
0100
0100
1001
0000
,
1000
0100
0100
0001
0001
0100
0100
0000
,
0001
0001
0100
0100
1000
1000
0100
0000
,
1000
0000
0100
0000
0001
0001
0100
0000
,
1000
0000
0100
0000
0001
0001
0100
0000
,
0010
0000
1000
0000
0100
0100
0001
0000
,
0010
0000
0001
0000
0100
0100
1001
0100
,
1001
0000
0100
0000
0001
0001
1000
0000
,
1000
0000
0010
0000
0001
0001
1000
1000
,
0100
0000
0100
0000
0001
0001
0100
0000
,
0001
0000
0100
0000
1000
1000
0010
0010
,
1001
0000
1000
0000
0010
0010
0100
0000
,
0010
0000
0001
0000
0100
0100
0010
0001
,
1001
0000
1000
0000
0010
0010
0100
0000
,
1001
0000
0100
0000
1001
0100
0110
0010
,
1001
0000
0000
0000
;

//---------------dance-single - ----------------
#NOTES:
     dance-single:
     :
     Challenge:
     12:
     :
0000
0000
0000
0000
,
0000
0000
0000
0000
,
0000
0000
0000
0000
,
0000
0000
0000
0000
,
0110
1001
0110
1001
0110
0001
0001
0001
,
0100
0000
0000
0000
0000
0000
0000
0000
0001
1000
0000
1000
0010
0000
0100
0001
0000
0000
0000
0000
0000
0010
0000
0100
,
1000
0000
0100
1000
0000
0010
0100
0000
0000
0001
0000
0100
0000
0000
0000
0001
0000
0000
0001
0000
0000
0001
0000
0000
,
0100
0000
0000
0000
0000
0000
0000
0000
0001
1000
0000
1000
0010
0000
1000
0100
0000
0000
0000
0000
0000
0010
0000
0001
,
1000
0000
0010
0100
0000
0010
1000
0000
0000
0001
0000
0100
0000
0000
0000
1000
0000
0000
1000
0000
0000
1000
0000
0000
,
0100
0000
0000
0000
0000
0000
0000
0000
1000
0010
0000
0100
0010
0000
0100
0001
0000
0000
0000
0000
0000
0001
0000
1000
,
0100
0000
0100
0010
0000
0010
0001
0000
0000
1000
0000
0100
0000
0000
0000
0010
0000
0000
0010
0000
0000
0010
0000
0000
,
0100
0000
0000
0000
0000
0000
0000
0000
1000
0100
0000
0100
0010
0000
0001
1000
0000
0000
0000
0000
0000
0001
0000
0100
,
0001
0000
0100
0010
0000
0100
0010
0000
0000
1000
0000
0100
0000
0000
0000
0000
0000
0000
1000
0000
0001
1000
0000
0001
,
2000
0000
3010
0000
0100
0001
0100
1000
,
0100
0010
1000
0002
0000
0010
0013
0100
,
0020
0000
0031
0000
0100
1000
0100
0001
,
0010
0000
0000
1000
0000
0000
0010
0000
0000
0200
0000
0000
0000
0000
0000
1000
0000
0000
1300
0000
0001
0100
0000
0010
,
1000
0000
1000
0100
0000
0000
0000
0000
0010
0001
0000
0010
0001
0000
0100
0010
0000
0000
0000
0000
1000
0100
0000
0100
,
0010
0000
0010
0001
0000
0000
0000
0000
0100
0010
0000
0010
0100
0000
0100
0001
0000
0000
0000
0000
1000
0001
0000
1000
,
0100
0000
0000
0010
0000
0010
0001
0000
0001
1000
0000
1000
0001
0000
0000
1100
0000
0000
0000
0000
0010
0001
0000
0010
,
0100
0000
0000
1000
0000
1000
0001
0000
0001
0100
0000
0100
0010
0000
1000
0100
0000
0000
0010
0000
0001
0100
0000
0000
,
2020
0000
0000
0000
0030
0000
0000
0000
3001
0000
0000
1000
0000
0000
0100
0000
,
0022
0000
0000
0000
0003
0000
0000
0000
0031
0000
0000
0100
0000
0000
0010
0000
,
2020
0000
0000
0000
3000
0000
0000
0000
1030
0000
0000
0001
0000
0000
0100
0000
,
0110
1001
0110
1001
0110
0001
0001
0001
,
0100
0000
0000
0000
0000
0000
0000
0000
0001
1000
0000
1000
0010
0000
1000
0100
0000
0000
0000
0000
0000
0010
0000
0001
,
0010
0000
0010
0100
0000
0100
1000
0000
0000
0001
0000
0100
0000
0000
0000
0010
0000
0000
0010
0000
0000
0010
0000
0000
,
0100
0000
0000
0000
0000
0000
0000
0000
1000
0001
0000
0001
0010
0000
0100
0010
0000
0000
0000
0000
0000
0001
0000
1000
,
0100
0000
0100
1000
0000
1000
0001
0000
0000
1000
0000
0100
0000
0000
0000
0010
0000
0000
0010
0000
0000
0010
0000
0000
,
0100
0000
0000
0000
0000
0000
0000
0000
0010
0001
0000
1000
0010
0000
0100
0001
0000
0000
0000
0000
0000
1000
0000
0100
,
0010
0000
0010
0001
0000
0001
0100
0000
0000
0010
0000
0100
0000
0000
0000
1000
0000
0000
1000
0000
0000
1000
0000
0000
,
0100
0000
0000
0000
0000
0000
0000
0000
1000
0001
0000
1000
0010
0000
0100
0001
0000
0000
0000
0000
0000
0010
0000
0100
,
0010
0000
0001
1000
0000
0001
1000
0000
0000
0010
0000
0100
0000
0000
0000
0001
0000
0000
1000
0000
0000
0010
0000
0000
,
0100
0000
0000
0000
;

//---------------dance-double - ----------------
#NOTES:
     dance-double:
     :
     Easy:
     7:
     :
00000000
00000000
00000000
00000000
,
00000000
00000000
00000000
00000000
,
00000000
00000000
00000000
00000000
,
00000000
00000000
00000000
00000000
,
00000000
00000000
00000000
00000000
,
00011000
01000000
00010000
00010000
,
00001000
00000100
00001000
00001000
,
00001001
00000100
00000001
00000001
,
00001000
00010000
10000000
10000000
,
10010000
01000000
00010000
00010000
,
00001000
00010000
00000100
00000100
,
00001001
00000100
00000001
00000001
,
00000010
00001000
00010000
01000000
,
10000000
01000000
10000000
01000000
,
00010000
01000000
00001000
00010000
,
00001000
00000000
00000100
00000000
00000001
00000001
00000100
00000000
,
00001000
00000100
00000001
00000100
,
00010000
00000000
10000000
00000000
,
00001000
00000000
00000001
00000000
,
00000010
00000000
00000000
00000000
01000000
01000000
01000000
00000000
,
00100000
00000000
00000100
00000000
,
00000001
00000100
00010000
00001000
,
10000000
01000000
00001000
00010000
,
00000001
00000010
00010000
00001000
,
10000000
00000000
00100000
00000000
00010000
00010000
00010000
00000000
,
00011000
01000000
00010000
00010000
,
00001000
00000100
00001000
00001000
,
00001001
00000000
00000100
00000000
00000001
00000001
00000001
00000000
,
00001000
00000000
00010000
00000000
10000000
10000000
10000000
00000000
,
10010000
00000000
01000000
00000000
00010000
00010000
00010000
00000000
,
00001000
00000000
00010000
00000000
00000100
00000100
00000100
00000000
,
00001001
00000000
00000100
00000000
00000001
00000001
00000001
00000000
,
00000010
00000000
00001000
00000000
00010000
00000100
00000100
00000100
,
00001001
00000000
00000000
00000000
;

//---------------dance-double - ----------------
#NOTES:
     dance-double:
     :
     Medium:
     8:
     :
00000000
00000000
00000000
00000000
,
00000000
00000000
00000000
00000000
,
00000000
00000000
00000000
00000000
,
00000000
00000000
00000000
00000000
,
00000000
00000000
00000000
00000000
00000000
00010000
00010000
00010000
,
00011000
00000000
01000000
00000000
00010000
00010000
00000100
00000000
,
00001000
00000000
00000100
00000000
00001000
00001000
00000001
00000001
,
00001001
00000000
00000100
00000000
00000001
00000001
00000100
00000000
,
00001000
00000000
00010000
00000000
10000000
10000000
10000000
01000000
,
10010000
00000000
01000000
00000000
00010000
00010000
00010000
00000000
,
00001000
00000000
00010000
00000000
00000100
00000100
00000100
00001000
,
00001001
00000000
00000100
00000000
00000001
00000001
00000001
00000000
,
00000010
00000000
00001000
00000000
00010000
01000000
01000000
00000000
,
10000000
01000000
01000000
10000000
,
00010000
00000000
01000000
00000000
00001000
00001000
00010000
00000000
,
00001000
00000000
00000100
00000000
00000001
00000001
00000100
00000000
,
00001000
00000000
00000100
00000000
00000001
00000001
00000100
00000000
,
00010000
00000000
00000000
00000000
10000000
00010000
00010000
00000000
,
00001000
00000000
00000000
00000000
00000001
00000100
00000100
00000000
,
00000010
00000000
00000000
00000000
01000000
01000000
01000000
00000000
,
00100000
00000000
00010000
00000000
00000100
00000100
00000100
00000000
,
00000001
00000000
00000100
00000000
00010000
00001000
00001000
00000000
,
10000000
00000000
01000000
00000000
00001000
00010000
00010000
00000000
,
00000001
00000010
00010000
00001000
,
10000000
00000000
00100000
00000000
00010000
00010000
00010000
00001000
,
00011000
00000000
01000000
00000000
00010000
00010000
00001000
00000000
,
00001000
00000000
00000100
00000000
00001000
00001000
00001000
00000001
,
00001001
00000000
00000100
00000000
00000001
00000001
00000010
00000000
,
00001000
00000000
00010000
00000000
10000000
10000000
10000000
01000000
,
10010000
00000000
01000000
00000000
00010000
00010000
00000010
00000000
,
00001000
00000000
00010000
00000000
00000100
00000100
00000100
00000001
,
00001001
00000000
00000100
00000000
00000001
00000001
00000100
00000000
,
00000010
00000000
00000001
00000001
00000010
00000100
00000100
00001000
,
00011000
00000000
00000000
00000000
;

//---------------dance-double - ----------------
#NOTES:
     dance-double:
     :
     Hard:
     9:
     :
00000000
00000000
00000000
00000000
,
00000000
00000000
00000000
00000000
,
00000000
00000000
00000000
00000000
,
00000000
00000000
00000000
00000000
,
00000000
00000000
00000000
00000000
,
10000000
01000000
00100000
00010000
01000000
00001000
00010000
00000000
,
00001100
00000011
00001100
00000000
,
00010000
00001000
00100000
00010000
10000000
01000000
00100000
00000000
,
10010000
00011000
10010000
00000000
,
01000000
00100000
00001000
00010000
00000100
00000010
00000001
00000000
,
00001100
00001010
00000101
00000000
,
00001000
00000100
00010000
00001000
00100000
00010000
10000000
00000000
,
01100000
00011000
00001100
00000000
,
00000010
00000001
00000010
00000000
00000100
00001000
00000100
00000000
,
00010000
00001000
00010000
00000000
00000010
00001000
00000010
00000000
,
00010000
00001000
00100000
00000000
00010000
01000000
00100000
00000000
,
10000000
01000000
00100000
00000000
00001000
00010000
00000100
00000000
,
00001001
00000000
00000110
00000000
00001000
00000100
00010000
00000000
,
00011000
00000000
00110000
00000000
10000000
00100000
01000000
00000000
,
00011000
00000000
00001001
00000000
00000010
00000100
00001000
00000000
,
00000010
00010000
00001000
01000000
00100000
00000000
10010000
00000000
,
01000000
00100000
00001000
00000000
00010000
00000100
00000010
00000000
,
00000001
00000100
00000010
00000000
00001000
00000100
00010000
00000000
,
00001000
00100000
00010000
00000000
10000000
00100000
01000000
00000000
,
00001000
00010000
00000100
00001000
00000001
00000000
00000000
00000000
,
00000110
00000000
00001001
00000000
00000010
00000100
00010000
00000000
,
00001000
00100000
00010000
01000000
00001000
00000000
00011000
00000000
,
00001001
00000000
00000110
00000000
00010000
00001000
00100000
00000000
,
00010000
01000000
00001000
00010000
00000100
00000010
00000010
00000000
,
00001001
00000000
00011000
00000000
00100000
01000000
10000000
00000000
,
00010000
01000000
00001000
00010000
00000100
00000000
00001001
00000000
,
00000110
00000000
00011000
00000000
00000010
00001000
00000100
00000000
,
00010000
00001000
00100000
00010000
10000000
01000000
01000000
01000000
,
00110000
00000000
00000000
00000000
;

//---------------dance-couple - ----------------
#NOTES:
     dance-couple:
     :
     Easy:
     4:
     :
00000000
00000000
00000000
00000000
,
00000000
00000000
00000000
00000000
,
00000000
00000000
00000000
00000000
,
00000000
00000000
00000000
00000000
,
00000000
00000000
00000000
00000000
,
10011001
01000100
00001000
00010000
,
10000001
00100010
00010000
00001000
,
01000100
00011000
10000001
10000001
,
00011000
01000100
10000001
10000001
,
00011000
10000001
00011000
00011000
,
10000001
00011000
10000001
10000001
,
00011000
10000001
00011000
00011000
,
00100010
10000001
01000100
10011001
,
00010000
01000000
10000000
01000000
,
00000001
00000100
00001000
00000100
,
10000000
01000000
00100000
01000000
,
00000001
00000100
00000010
00000100
,
01100000
00000000
00001001
00000000
,
10010000
00000000
00000110
00000000
,
10011001
00000000
00000000
00000000
10000001
00011000
01000100
00000000
,
00011000
00000000
00000000
00000000
00011000
10000001
01000100
00000000
,
10000001
00000000
00011000
00000000
,
10000001
00000000
00011000
00000000
,
00100100
00000000
01000010
00000000
,
00100100
00000000
00000000
00000000
01000010
01000010
01000010
00000000
,
10011001
01000100
00011000
00011000
,
10000001
00100010
00011000
00011000
,
10000001
00000000
01000100
00000000
00011000
00011000
00011000
00000000
,
00011000
00000000
01000100
00000000
10000001
10000001
10000001
00000000
,
00011000
10000001
00011000
00011000
,
10000001
00000000
00011000
00000000
10000001
10000001
01000100
00000000
,
00011000
00000000
10000001
00000000
00011000
00011000
01000100
00000000
,
10011001
00000000
10011001
00000000
00011000
01000100
01000100
01000100
,
10011001
00000000
00000000
00000000
;

//---------------dance-couple - ----------------
#NOTES:
     dance-couple:
     :
     Medium:
     5:
     :
00000000
00000000
00000000
00000000
,
00000000
00000000
00000000
00000000
,
00000000
00000000
00000000
00000000
,
00000000
00000000
00000000
00000000
,
00000000
00000000
00000000
00000000
,
10011001
00000000
01000100
00000000
00011000
00011000
10000001
00000000
,
10000001
00000000
00100010
00000000
00011000
00011000
10000001
00000000
,
10011000
01000000
00011000
00010000
,
00011001
00000100
00011000
00001000
,
10011001
00000000
10000001
00000000
00011000
00011000
00100010
00000000
,
00011000
00000000
10000001
00000000
00011000
00011000
01000100
00000000
,
10011001
00000000
10000000
00000000
00010000
00010000
01000000
00000000
,
10011001
00000000
00000001
00000000
00001000
00001000
00000100
00000000
,
00011000
01000100
10000001
01000100
,
00011000
00000000
01000100
00000000
10000001
10000001
01000100
00000000
,
10000001
00000000
01000100
00000000
00011000
00011000
01000100
00000000
,
10000001
00000000
01000010
00000000
00011000
00011000
01000010
00000000
,
00100100
00000000
00000000
00000000
00100100
00100100
01000010
00000000
,
01000010
00000000
00000000
00000000
01000010
01000010
00100100
00000000
,
10000001
00000000
10000001
00000000
,
00011000
00000000
00000000
00000000
00011000
00011000
01000100
00000000
,
10000001
01000100
00011000
01000100
,
10000001
01000100
00011000
01000100
,
01000010
00000000
00100100
00000000
,
01000010
00000000
00000000
00000000
00100100
00100100
00011000
00000000
,
10011001
00000000
01000100
00000000
00011000
00011000
10000001
00000000
,
10000001
00000000
00100010
00000000
00011000
00011000
10000001
00000000
,
10000001
00000000
01000100
00000000
00011000
00011000
01000100
00000000
,
00011000
00000000
01000100
00000000
10000001
10000001
00100100
00000000
,
00011000
00000000
10000001
00000000
01000010
01000010
00011000
00000000
,
10000001
00000000
00011000
00000000
01000010
01000010
00100100
00000000
,
00011000
00000000
10000001
00000000
01000010
01000010
00100100
00000000
,
10011001
00000000
01000100
00000000
10011001
01000010
01000010
00100100
,
10011001
00000000
00000000
00000000
;

//---------------dance-couple - ----------------
#NOTES:
     dance-couple:
     :
     Hard:
     6:
     :
00000000
00000000
00000000
00000000
,
00000000
00000000
00000000
00000000
,
00000000
00000000
00000000
00000000
,
00000000
00000000
00000000
00000000
,
00000000
00000000
00000000
00000000
00000000
00100010
00100010
00100010
,
10011001
00000000
01000100
00000000
00011000
00011000
10000001
00000000
,
10000001
00000000
00100010
00000000
00011000
00011000
10000001
10000001
,
10011001
00000000
01000100
00000000
00011000
00011000
01000100
00000000
,
00011000
00000000
01000100
00000000
00011000
00011000
10000001
10000001
,
10011001
00000000
10000001
00000000
00011000
00011000
00100010
00000000
,
00011000
00000000
10000001
00000000
00011000
00011000
01000100
01000100
,
10011001
00000000
10000001
00000000
00011000
00011000
01000100
00000000
,
00100010
00000000
10000001
00000000
01000100
01000100
01011100
00000000
,
00011000
01000100
10000001
00100010
,
00011000
00000000
01000100
00000000
10000001
10000001
00100010
00000000
,
00011000
00000000
01000100
00000000
00011000
00011000
01000100
00000000
,
10000001
00000000
01000100
00000000
00011000
00011000
01000100
00000000
,
00100010
00000000
00000000
00000000
00100010
00100010
01000100
00000000
,
01000100
00000000
00000000
00000000
01000100
01000100
10011001
00000000
,
10000001
01000100
01000100
00011000
00011000
01000100
01000100
00000000
,
00011000
00011000
01000100
01000100
10000001
10000001
01000100
00000000
,
10000001
00000000
01000100
00000000
00011000
00011000
01000100
00000000
,
10000001
00000000
01000100
00000000
00011000
00011000
01000100
00000000
,
00100010
00000000
10000001
00000000
01000100
01000100
00011000
00000000
,
00100010
00000000
00011000
00000000
01000100
01000100
10011001
01000100
,
10011001
00000000
01000100
00000000
00011000
00011000
10000001
00000000
,
10000001
00000000
00100010
00000000
00011000
00011000
10000001
10000001
,
01000100
00000000
01000100
00000000
00011000
00011000
01000100
00000000
,
00011000
00000000
01000100
00000000
10000001
10000001
00100010
00100010
,
10011001
00000000
10000001
00000000
00100010
00100010
01000100
00000000
,
00100010
00000000
00011000
00000000
01000100
01000100
00100010
00011000
,
10011001
00000000
10000001
00000000
00100010
00100010
01000100
00000000
,
10011001
00000000
01000100
00000000
10011001
01000100
01100110
00100010
,
10011001
00000000
00000000
00000000
;

//---------------dance-solo - ----------------
#NOTES:
     dance-solo:
     :
     Easy:
     4:
     :
000000
000000
000000
000000
,
000000
000000
000000
000000
,
000000
000000
000000
000000
,
000000
000000
000000
000000
,
000000
000000
000000
000000
,
100001
001000
000001
000001
,
010000
000100
000001
000001
,
001000
000010
100000
100000
,
000001
001000
100000
100000
,
000010
010000
000001
000001
,
100000
000010
010000
010000
,
000001
100000
000010
000010
,
000100
010000
001000
100001
,
000001
001000
100000
001000
,
010000
001000
000010
001000
,
100000
001000
000100
001000
,
000001
001000
000100
001000
,
000100
000000
000100
000000
,
001000
000000
001000
000000
,
100000
000000
000000
000000
100000
000010
001000
000000
,
000001
000000
000000
000000
000001
100000
001000
000000
,
010000
000000
000001
000000
,
100000
000000
000001
000000
,
000100
000000
001000
000000
,
000100
000000
000000
000000
001000
001000
001000
000000
,
100001
001000
000010
000010
,
000001
001000
100000
100000
,
010000
000000
001000
000000
000001
000001
000001
000000
,
000010
000000
001000
000000
100000
100000
100000
000000
,
000001
000000
100000
000000
000010
000010
000010
000000
,
010000
000000
000001
000000
100000
100000
001000
000000
,
000001
000000
100000
000000
000010
000010
001000
000000
,
100001
000000
100001
000000
000010
001000
001000
001000
,
100001
000000
000000
000000
;

//---------------dance-solo - ----------------
#NOTES:
     dance-solo:
     :
     Medium:
     5:
     :
000000
000000
000000
000000
,
000000
000000
000000
000000
,
000000
000000
000000
000000
,
000000
000000
000000
000000
,
000000
000000
000000
000000
,
100001
000000
001000
000000
000010
000010
100000
000000
,
100000
000000
000100
000000
000001
000001
010000
000000
,
100001
000000
001000
000000
000001
000001
001000
000000
,
000010
000000
001000
000000
000001
000001
100000
000000
,
010010
000000
100000
000000
000001
000001
000100
000000
,
000001
000000
100000
000000
000010
000010
001000
000000
,
100001
000000
010000
000000
000001
000001
001000
000000
,
000100
000000
100000
000000
001000
001000
001001
000000
,
000010
001000
100000
001000
,
000001
000000
001000
000000
100000
100000
001000
000000
,
010000
000000
001000
000000
000001
000001
001000
000000
,
100000
000000
001000
000000
000001
000001
001000
000000
,
000100
000000
000000
000000
000010
000010
001000
000000
,
001000
000000
000000
000000
001000
001000
000100
000000
,
100000
000000
010000
000000
,
000001
000000
000000
000000
000010
000010
001000
000000
,
100000
001000
000001
001000
,
100000
001000
000001
001000
,
000100
000000
001000
000000
,
000010
000000
000000
000000
001000
001000
000001
000000
,
100001
000000
001000
000000
000010
000010
100000
000000
,
010000
000000
000100
000000
000001
000001
100000
000000
,
010000
000000
001000
000000
000001
000001
001000
000000
,
000010
000000
001000
000000
100000
100000
000100
000000
,
000001
000000
010000
000000
000100
000100
000001
000000
,
100000
000000
000010
000000
001000
001000
000100
000000
,
000001
000000
100000
000000
000100
000100
001000
000000
,
100001
000000
000100
000000
010010
001000
001000
000100
,
100001
000000
000000
000000
;

//---------------dance-solo - ----------------
#NOTES:
     dance-solo:
     :
     Hard:
     6:
     :
000000
000000
000000
000000
,
000000
000000
000000
000000
,
000000
000000
000000
000000
,
000000
000000
000000
000000
,
000000
000000
000000
000000
000000
000100
000100
000100
,
100001
000000
001000
000000
000010
000010
010000
000000
,
100000
000000
000100
000000
000001
000001
100000
100000
,
010010
000000
001000
000000
000001
000001
001000
000000
,
000010
000000
001000
000000
000001
000001
100000
100000
,
100001
000000
010000
000000
000010
000010
000100
000000
,
000001
000000
100000
000000
000010
000010
001000
001000
,
100001
000000
010000
000000
000010
000010
001000
000000
,
000100
000000
100000
000000
001000
001000
001001
000000
,
000010
001000
100000
000100
,
000001
000000
001000
000000
100000
100000
000100
000000
,
000010
000000
001000
000000
000001
000001
001000
000000
,
100000
000000
001000
000000
000001
000001
001000
000000
,
000010
000000
000000
000000
000100
000100
001000
000000
,
001000
000000
000000
000000
001000
001000
100001
000000
,
010000
001000
001000
000001
000001
001000
001000
000000
,
000010
000010
001000
001000
100000
100000
001000
000000
,
010000
000000
001000
000000
000001
000001
001000
000000
,
100000
000000
001000
000000
000001
000001
001000
000000
,
000010
000000
100000
000000
001000
001000
000001
000000
,
000100
000000
000010
000000
001000
001000
100001
001000
,
100001
000000
001000
000000
000001
000001
100000
000000
,
100000
000000
000100
000000
000010
000010
010000
010000
,
001000
000000
001000
000000
000001
000001
001000
000000
,
000010
000000
001000
000000
010000
010000
000100
000100
,
100001
000000
010000
000000
000100
000100
001000
000000
,
000100
000000
000001
000000
001000
001000
000100
000010
,
100001
000000
010000
000000
000100
000100
001000
000000
,
100001
000000
001000
000000
100001
001000
001100
000100
,
010010
000000
000000
000000
;
