#VERSION:0.83;
#TITLE:TSUGARU;
#SUBTITLE:(25th Anniversary Special);
#ARTIST:RevenG VS. DE-SIRE;
#TITLETRANSLIT:;
#SUBTITLETRANSLIT:;
#ARTISTTRANSLIT:;
#GENRE:;
#ORIGIN:;
#CREDIT:;
#BANNER:TSUGARU (25th Anniversary Special)-bn.png;
#BACKGROUND:TSUGARU (25th Anniversary Special)-bg.png;
#PREVIEWVID:;
#JACKET:TSUGARU (25th Anniversary Special)-jacket.png;
#CDIMAGE:;
#DISCIMAGE:;
#LYRICSPATH:;
#CDTITLE:;
#MUSIC:TSUGARU (25th Anniversary Special).ogg;
#OFFSET:0.000000;
#SAMPLESTART:34.909000;
#SAMPLELENGTH:20.000000;
#SELECTABLE:YES;
#DISPLAYBPM:165.000000;
#BPMS:0.000=165.000;
#STOPS:;
#DELAYS:;
#WARPS:;
#TIMESIGNATURES:0.000=4=4;
#TICKCOUNTS:0.000=4;
#COMBOS:0.000=1;
#SPEEDS:0.000=1.000=0.000=0;
#SCROLLS:0.000=1.000;
#FAKES:;
#LABELS:0.000=Song Start;
#BGCHANGES:;
#KEYSOUNDS:;
#ATTACKS:
;

//---------------dance-single - ----------------
#NOTEDATA:;
#CHARTNAME:;
#STEPSTYPE:dance-single;
#DESCRIPTION:;
#CHARTSTYLE:;
#DIFFICULTY:Challenge;
#METER:18;
#RADARVALUES:0.981278,1.385524,0.328134,0.021876,1.421915,628.000000,598.000000,30.000000,2.000000,0.000000,0.000000,0.000000,0.000000,0.000000,0.981278,1.385524,0.328134,0.021876,1.421915,628.000000,598.000000,30.000000,2.000000,0.000000,0.000000,0.000000,0.000000,0.000000;
#CREDIT:;
#DISPLAYBPM:165.000000;
#NOTES:
// measure 0
0000
0000
0000
0000
,  // measure 1
0000
0000
0000
0000
,  // measure 2
0000
0000
0000
0000
,  // measure 3
0000
0000
0000
0000
,  // measure 4
0000
2200
0000
0000
0000
0000
0300
0000
,  // measure 5
3001
0000
0100
0000
0010
0000
0100
0001
1000
0000
1000
0000
0010
0000
1000
0000
,  // measure 6
0000
0000
0100
0000
1000
0000
0001
0000
1000
0000
1000
0000
1000
0001
0100
0000
,  // measure 7
0000
0010
0010
1000
0100
0100
0100
1000
,  // measure 8
1000
0000
1000
0000
0001
0000
1000
0000
1000
0000
0100
0000
0010
0001
0100
0000
,  // measure 9
0000
0000
0001
0000
1000
0000
0100
0010
0001
0000
0001
0000
0001
0000
0100
0000
,  // measure 10
0000
0000
0010
0000
0010
0000
1000
0000
1000
0000
0001
0000
1000
0100
0010
0000
,  // measure 11
0000
0001
0001
1000
0010
0010
0010
0100
,  // measure 12
0001
0000
0001
0000
0010
0000
0100
0000
1000
0010
1000
0000
0001
0000
0001
0000
,  // measure 13
0011
0000
0100
1000
0010
0000
0100
0001
0010
0000
0100
1000
0001
0000
0100
0000
,  // measure 14
0010
0000
1000
0000
1000
0000
0001
0000
1000
0100
0010
0001
0010
0100
1000
0000
,  // measure 15
0000
0001
0001
0001
1000
0010
1000
0001
,  // measure 16
0010
0000
0010
0000
0010
0000
0100
0000
0010
0000
0010
0000
0001
1000
0100
0000
,  // measure 17
0110
0000
0001
0010
0001
0000
1000
0010
1000
0000
0100
0010
0100
0000
1000
0000
,  // measure 18
0000
0000
0001
0000
0001
0000
0001
0000
0100
0000
0010
1000
0010
0100
0001
0000
,  // measure 19
0000
1000
0100
0010
0100
0100
0100
0010
,  // measure 20
0001
0000
0100
0000
0001
0000
1000
0000
0010
0100
0010
1000
0001
0010
0100
1000
,  // measure 21
0001
0000
0000
0000
0000
0000
0000
0000
0000
0000
0010
0000
0000
0000
0000
0000
0000
0000
0000
0100
0000
0000
0000
0000
0000
0000
0000
0000
0000
1000
0000
0000
0000
0000
0000
0000
0000
0000
0100
0000
0000
0000
0000
0000
0000
0000
0000
0000
0010
0000
0000
0000
0000
0000
0000
0000
0000
0000
0001
0000
0000
0000
0000
0000
0000
0000
0000
0010
0000
0000
0000
0000
0000
0000
0000
0000
0000
0100
0000
0000
0000
0000
0000
0000
0000
0000
1000
0000
0000
0000
0000
0000
0000
0000
0000
0000
0100
0000
0000
0000
0000
0000
0000
0000
0000
0000
0010
0000
0000
0000
0000
0000
0000
0000
0000
0001
0000
0000
0000
0000
0000
0000
0000
0000
0000
0010
0000
0000
0000
0000
0000
0000
0000
0000
0100
0000
0000
0000
0000
0000
0000
0000
0000
0000
1000
0000
0000
0000
0000
0000
0000
0000
0000
0000
0100
0000
0000
0000
0000
0000
0000
0000
0000
0010
0000
0000
0000
0000
0000
0000
0000
0000
0000
0001
0000
0000
0000
0000
0000
0000
0000
0000
0010
0000
0000
0000
0000
0000
0000
0000
0000
0000
,  // measure 22
0100
0000
0000
0000
0000
0000
0000
0000
0000
0000
1000
0000
0000
0000
0000
0000
0000
0000
0000
0100
0000
0000
0000
0000
0000
0000
0000
0000
0000
0010
0000
0000
0000
0000
0000
0000
0000
0000
0001
0000
0000
0000
0000
0000
0000
0000
0000
0000
0010
0000
0000
0000
0000
0000
0000
0000
0000
0000
0100
0000
0000
0000
0000
0000
0000
0000
0000
1000
0000
0000
0000
0000
0000
0000
0000
0000
0000
0100
0000
0000
0000
0000
0000
0000
0000
0000
0010
0000
0000
0000
0000
0000
0000
0000
0000
0000
0001
0000
0000
0000
0000
0000
0000
0000
0000
0000
0010
0000
0000
0000
0000
0000
0000
0000
0000
0100
0000
0000
0000
0000
0000
0000
0000
0000
0000
1000
0000
0000
0000
0000
0000
0000
0000
0000
0100
0000
0000
0000
0000
0000
0000
0000
0000
0000
0010
0000
0000
0000
0000
0000
0000
0000
0000
0000
0001
0000
0000
0000
0000
0000
0000
0000
0000
0010
0000
0000
0000
0000
0000
0000
0000
0000
0000
0100
0000
0000
0000
0000
0000
0000
0000
0000
1000
0000
0000
0000
0000
0000
0000
0000
0000
0000
,  // measure 23
0100
0000
0000
0000
0000
0000
0000
0000
0000
0000
0010
0000
0000
0000
0000
0000
0000
0000
0000
0001
0000
0000
0000
0000
0000
0000
0000
0000
0000
0010
0000
0000
0000
0000
0000
0000
0000
0000
0100
0000
0000
0000
0000
0000
0000
0000
0000
0000
1000
0000
0000
0000
0000
0000
0000
0000
0000
0000
0100
0000
0000
0000
0000
0000
0000
0000
0000
0010
0000
0000
0000
0000
0000
0000
0000
0000
0000
0001
0000
0000
0000
0000
0000
0000
0000
0000
0010
0000
0000
0000
0000
0000
0000
0000
0000
0000
0100
0000
0000
0000
0000
0000
0000
0000
0000
0000
1000
0000
0000
0000
0000
0000
0000
0000
0000
0100
0000
0000
0000
0000
0000
0000
0000
0000
0000
0010
0000
0000
0000
0000
0000
0000
0000
0000
0001
0000
0000
0000
0000
0000
0000
0000
0000
0000
0010
0000
0000
0000
0000
0000
0000
0000
0000
0000
0100
0000
0000
0000
0000
0000
0000
0000
0000
1000
0000
0000
0000
0000
0000
0000
0000
0000
0000
0100
0000
0000
0000
0000
0000
0000
0000
0000
0010
0000
0000
0000
0000
0000
0000
0000
0000
0000
,  // measure 24
0001
0000
0100
0010
0000
0100
0001
0000
1000
0010
1000
0001
,  // measure 25
0010
0000
0100
1000
0000
0010
1000
0000
0001
1000
0010
0100
,  // measure 26
0010
0000
1000
0010
0000
0100
0001
0000
0010
0100
1000
0010
,  // measure 27
1000
0000
0001
1000
0000
0001
0010
0000
0010
0100
1000
0010
,  // measure 28
0101
0000
1000
0001
0000
0010
0001
0000
0100
0010
1000
0100
,  // measure 29
0010
0000
0010
0001
0000
0100
0010
0000
1000
0001
0010
0100
,  // measure 30
1001
0000
0010
1000
0000
0100
0010
0000
0001
0100
0010
1000
,  // measure 31
0001
0000
1000
0100
0000
0010
0001
0000
0100
0001
0010
0100
,  // measure 32
1100
0000
0000
0000
1000
0001
0100
0000
0000
0000
0010
0000
1000
0000
0000
0000
0100
0010
0001
0000
1000
0000
0010
0000
,  // measure 33
0101
0000
0000
0000
0010
1000
0001
0000
0000
0000
0010
0000
0100
0000
0000
0000
1000
0001
0010
0000
0100
0000
1000
0000
,  // measure 34
0110
0000
0000
0000
0001
0010
0100
0000
1000
0000
0010
0000
0101
0000
0000
0000
1000
0001
0100
0000
0010
0000
1000
0000
,  // measure 35
0100
0000
0000
0000
1000
0001
0010
0000
0100
0000
1000
0000
0010
0000
0100
0000
0001
0010
0100
0000
1000
0000
0001
0000
,  // measure 36
0100
0100
0100
0100
0100
0100
0100
0000
0000
0001
1000
0001
,  // measure 37
0100
0100
0100
0100
0100
0100
0100
0000
0000
0001
1000
0001
,  // measure 38
0100
0100
0100
0100
0100
0100
0100
0100
0100
0100
0100
0100
,  // measure 39
0100
0100
0100
0100
0100
0100
0100
0000
0000
0000
0000
0000
,  // measure 40
1001
0000
0010
0000
1000
0000
0100
0010
0001
0000
0100
0000
0001
0000
1000
0000
,  // measure 41
0010
0000
1000
0000
0100
0000
0010
0001
1000
0000
0001
0010
0100
0000
1000
0000
,  // measure 42
0010
0000
1000
0000
0001
0000
0100
0001
0010
0000
0100
0000
1000
0000
0001
1000
,  // measure 43
0100
0000
0010
0000
0001
0000
0100
0010
1000
0000
0001
0010
1000
0001
0100
1000
,  // measure 44
0010
0001
0100
1000
0001
0100
1000
0001
0010
0001
1000
0010
0100
1000
0100
0010
,  // measure 45
1000
0010
1000
0001
0010
0100
0001
1000
0100
1000
0001
0100
0010
0100
0010
0001
,  // measure 46
0100
0010
1000
0010
0001
0010
0001
1000
0100
0001
0100
1000
0100
0010
1000
0001
,  // measure 47
0100
0001
0100
0001
0100
0010
1000
0001
1000
0100
0010
1000
0010
0001
0010
1000
,  // measure 48
0110
0000
0000
0000
1000
0001
1000
0001
1000
0000
0010
0000
0110
0000
0000
0000
1000
0001
1000
0001
1000
0000
0010
0000
0110
0000
0000
0000
1000
0100
0010
0001
,  // measure 49
0100
0000
0010
1000
0001
0000
0010
0100
1000
0000
0010
0100
0001
0000
1000
0100
,  // measure 50
0010
0000
0000
0000
0001
0000
0100
0000
0010
0000
0000
0000
1000
0000
0001
0000
1000
0000
0000
0000
0100
0000
0010
0000
0001
0000
0000
0000
0100
0010
1000
0001
,  // measure 51
0100
0000
0010
1000
0001
0000
1000
0100
0010
0000
0100
0010
0001
0000
0100
0010
,  // measure 52
1010
0101
0011
1100
0101
1010
1100
1001
,  // measure 53
0011
0000
0100
1000
0001
0000
0010
0001
0100
0000
0001
0010
1000
0000
0100
0010
,  // measure 54
0001
0000
0000
0000
1000
0000
0010
0000
0001
0000
0000
0000
1000
0000
0001
0000
0100
0000
0000
0000
0010
0000
1000
0000
0100
0000
0000
0000
0001
0010
0100
1000
,  // measure 55
0001
0000
0100
0001
0010
0000
0100
1000
0001
0000
1000
0010
0100
0001
0010
0100
,  // measure 56
1100
0000
1000
0100
0110
0000
0010
0001
0011
0000
0000
0000
0000
0000
1001
0010
,  // measure 57
1000
0000
1100
0000
0000
0000
0100
0010
0011
0000
1000
0010
1010
0000
0000
0000
,  // measure 58
0101
0000
0000
0000
0000
0000
0000
0000
0000
0000
0000
0000
0000
0000
0000
1000
,  // measure 59
0000
1000
0000
0000
0000
0000
0000
0000
0000
0000
0000
0000
0000
0000
0000
0000
,  // measure 60
0000
0000
0000
0000
0000
0000
0000
0000
0000
0000
0000
0000
0001
0000
0000
0000
0001
0000
0000
0000
0000
0000
0000
0000
0000
0000
0000
0000
0000
0000
0000
0000
0010
0000
0000
0000
0000
0000
0000
0000
0000
0000
0000
0000
0000
0100
0000
0000
,  // measure 61
0000
0000
0000
0000
0000
0000
0000
0000
0000
0000
0000
0000
0000
0000
0000
0000
1000
0000
0000
0000
0000
0000
0000
0000
0000
0000
0000
0010
0000
0000
0000
0000
0100
0000
0000
0000
0000
0000
0010
0000
0000
0000
0000
0000
0000
0000
0000
0000
;
