#TITLE:TRIP MACHINE ~luv mix~;
#SUBTITLE:(25th Anniversary Special);
#ARTIST:2MB;
#BANNER:TRIP MACHINE ~luv mix~ (25th Anniversary Special)-bn.png;
#BACKGROUND:TRIP MACHINE ~luv mix~ (25th Anniversary Special)-bg.png;
#JACKET:TRIP MACHINE ~luv mix~ (25th Anniversary Special)-jacket.png;
#MUSIC:TRIP MACHINE ~luv mix~ (25th Anniversary Special).ogg;
#OFFSET:1.3;
#SAMPLESTART:7.679;
#SAMPLELENGTH:20;
#LASTBEATHINT:0.779;
#DISPLAYBPM:80:160;
#BPMS:0=160.17,152=80.085,160=160.17,240=80.805;
#BGCHANGES:;

//---------------dance-single - ----------------
#NOTES:
     dance-single:
     :
     Challenge:
     17:
     :
0000
0000
0000
0000
,
0000
0000
0000
0000
,
0000
0000
0000
0000
,
0000
0000
0000
0000
,
0000
0000
0000
0000
,
0000
0000
0000
0000
,
0011
0000
0011
0110
1100
0000
1100
0101
,
0000
1100
0101
0000
1100
0110
0011
0000
,
1001
0000
1001
1010
1100
0000
1100
0101
,
0000
1100
0101
0000
0011
0110
1100
0000
,
0101
0000
0101
1001
1100
0000
1100
0011
,
0000
1100
0011
0000
1001
0101
0011
0000
,
1010
0000
1010
0101
0011
0000
0011
1100
,
0000
0011
1100
0000
1001
0110
1001
0000
,
0110
0000
1000
0100
1000
0000
0001
0100
0001
0000
1000
0100
1000
0000
0001
0000
,
1010
0000
0100
0001
0100
0000
0010
1000
0010
0000
0001
1000
0001
0000
0100
0000
,
0101
0000
0010
1000
0010
0000
1000
0100
1000
0000
0001
0010
0001
0000
0100
0000
,
1001
1000
0100
0001
0011
0100
1010
0100
,
0011
0000
1000
0010
1000
0000
0001
0010
0001
0000
0100
0010
0100
0000
0001
0000
,
0011
0000
0100
1000
0100
0000
0010
0001
0010
0000
0001
1000
0001
0000
0100
0000
,
0110
0000
1000
0100
1000
0000
0001
0010
0001
0000
1000
0001
1000
0000
0100
0000
,
1100
0001
0100
1000
1010
0100
0011
0100
,
1010
0000
0101
0011
0110
0000
1100
0101
,
0000
0011
1100
0000
1001
1010
0101
0000
,
0011
0000
1100
1001
1010
0000
0101
0011
,
0000
0110
0011
0000
0101
1100
0110
0000
,
1001
0000
0010
1000
0100
0000
0010
0001
0100
0000
0001
0010
1000
0000
0100
0000
,
1100
0000
0010
0001
1000
0000
0001
0010
0100
0000
0010
0001
1000
0000
0100
0000
,
0011
0000
0010
0001
1000
0000
0001
0010
0100
0000
1000
0010
0100
0000
0001
0000
,
1001
0010
1000
0100
0011
1000
0101
0010
,
1100
0000
0001
0010
1000
0000
0100
0010
0001
0000
0100
0001
1000
0000
0010
0000
,
0101
0000
0001
0010
1000
0000
0100
1000
0010
0000
1000
0100
0010
0000
0001
0000
,
1010
0000
0100
0001
0010
0000
0001
0100
0010
0000
1000
0100
0001
0000
1000
0000
,
0110
1000
0001
0010
1100
0001
0101
0010
,
1001
0000
0100
0001
0100
0000
0001
0100
0001
0000
0100
0001
0100
0000
0110
0000
,
1010
1000
1100
0011
0100
0110
1001
0010
,
0101
0000
1000
0100
1000
0000
0001
0100
0001
0000
0011
0000
1000
0000
1100
0000
,
0101
0010
1000
1100
0001
0011
0110
1100
,
1001
0000
1010
0100
0001
0010
0001
0100
0010
1000
0100
1000
0001
0010
0100
1000
,
0010
0110
0110
0100
0001
0010
0001
0100
1000
0010
1000
0001
0010
1100
0100
0001
,
1001
0000
0010
1000
0100
0000
0010
0001
0100
0000
0001
0010
1000
0000
0100
0000
,
0011
0100
0001
1000
1010
0101
0010
1100
,
0011
0100
0001
1000
1010
0100
0001
0010
,
1100
0001
0100
1000
1010
0110
0101
0000
,
1001
0010
1010
1100
0011
0100
0101
0011
,
1000
1100
1001
0010
1010
0101
0011
0100
,
1100
0001
1001
0011
1010
0100
0011
1100
,
0010
1001
0101
0010
0110
0011
1100
0001
,
1001
0100
0101
0011
1100
0010
1001
1100
,
0001
1010
0011
0100
0011
0110
1100
1000
,
0011
0100
1100
1001
0011
0100
1100
1010
,
0001
0101
0011
0100
0110
1001
0101
0000
,
1001
0000
0010
0001
0100
0000
0001
0010
1000
0000
0100
1000
0001
0000
0100
0010
,
1000
0000
0100
0010
0001
0000
1000
0000
0010
0100
0010
1000
0100
0010
0001
1000
,
0001
0000
0100
0010
0100
0000
0001
0010
0100
0000
1000
0010
1000
0000
0001
0100
,
0001
0000
0010
0001
1000
0000
0010
0000
1000
0100
0010
0100
0010
0001
1000
0100
,
0010
0000
0100
0010
0001
0000
0100
0001
0010
0000
1000
0100
1000
0000
0001
0010
,
0001
0000
1000
0100
0010
0000
0001
0000
0100
0010
0100
0001
0010
0100
1000
0010
,
1000
0000
0001
0100
0010
0000
1000
0100
0001
0000
0010
0001
0100
0000
0001
0010
,
1000
0000
0100
0010
0001
0000
0100
0000
0010
1000
0100
0010
0001
0100
0001
1000
,
0020
0200
0000
0000
0000
0000
0000
0330
0001
0010
1000
0001
0100
1000
0000
0000
,
0002
2000
0000
0000
0000
0000
0000
3003
0100
0001
0010
1000
0100
0001
0000
0000
,
0110
0000
1001
0000
0000
0000
0000
0000
1000
0100
0001
1000
0010
0001
0000
0000
,
1000
0010
0000
0000
0000
0000
0000
0000
0000
0000
0000
0000
0000
0000
0000
0000
;
