#TITLE:TRIP MACHINE PhoeniX;
#SUBTITLE:;
#ARTIST:DE-SIRE改;
#TITLETRANSLIT:;
#SUBTITLETRANSLIT:;
#ARTISTTRANSLIT:DE-SIRE alterative;
#GENRE:;
#CREDIT:;
#BANNER:TRIP MACHINE PhoeniX-bn.png;
#BACKGROUND:TRIP MACHINE PhoeniX-bg.png;
#LYRICSPATH:;
#CDTITLE:;
#MUSIC:TRIP MACHINE PhoeniX.ogg;
#OFFSET:0.000000;
#SAMPLESTART:0.760000;
#SAMPLELENGTH:20.000000;
#SELECTABLE:YES;
#DISPLAYBPM:160.000000;
#BPMS:0.000000=160.000000
,4.000000=159.992996
,221.000000=160.714005
,222.000000=159.897995
,236.000000=159.962997
;
#STOPS:32.000000=0.375000,
221.500000=0.374000
;
#BGCHANGES:0.000=TRIP MACHINE PhoeniX.avi=1.000=1=0=0=StretchNoLoop==CrossFade==,
99999=-nosongbg-=1.000=0=0=0 // don't automatically add -songbackground-
;
#KEYSOUNDS:;
#ATTACKS:;

//---------------dance-single - ----------------
#NOTES:
     dance-single:
     :
     Hard:
     15:
     0.815864,0.911248,0.503916,0.199467,0.582653,544.000000,496.000000,48.000000,19.000000,0.000000,0.000000,0.815864,0.911248,0.503916,0.199467,0.582653,544.000000,496.000000,48.000000,19.000000,0.000000,0.000000:
0000
0000
0000
0000
,
0000
0000
0000
0000
,
0000
0000
0000
0000
,
0000
0000
0000
0000
0000
0010
0010
0010
,
0010
0000
1000
1000
1000
0101
0000
0001
,
0110
1000
0000
1000
0110
0001
0000
0001
,
0110
1000
0000
1000
0110
0001
0000
0001
,
0110
1000
0010
0100
0000
0001
0011
0000
,
1100
0000
0000
0000
0010
0000
1000
0000
0100
0000
0001
0000
1000
0010
0100
0000
,
0000
0000
0001
0000
1000
0010
0100
0000
0000
0000
0001
0000
1000
0010
0100
0000
,
0000
0000
0110
0000
0001
0000
0010
0000
0100
0000
1000
0000
0010
0100
0001
0000
,
0010
0100
1000
0000
0000
0000
1100
0000
0000
0000
0101
0000
1100
0000
0000
0000
,
0001
0000
0001
0000
0001
0000
0010
0001
0100
0000
0010
1000
0100
0000
0010
0000
,
0001
0100
0010
0000
1000
0100
0010
0100
1000
0000
0000
0000
0001
0100
0010
0000
,
0000
0000
1000
0100
0010
0000
0001
0000
1000
0010
1000
0000
0010
0100
0001
0000
,
0000
0011
0000
1100
0000
0101
0000
0110
,
1001
0000
0000
0000
1010
0000
0001
0000
0100
0000
0010
0000
1000
0100
1000
0000
,
0001
0100
0001
0000
0020
0000
0001
0000
0031
0000
0100
0010
1000
0000
0001
0000
,
0010
0100
1000
0000
0002
0000
0100
0000
0103
0000
0010
0000
1000
0000
0001
0000
,
1000
0010
0100
0001
2000
0000
0100
0000
3100
0000
1000
0000
0001
0000
0100
0000
,
0010
1000
0001
0000
0010
0000
0100
0010
0001
0000
1000
0000
0010
0000
0001
0000
,
0010
0000
1000
0000
0200
0000
0010
0000
0310
0000
0001
1000
0001
0000
0100
0000
,
0010
1000
0001
0000
0100
0000
0001
0010
0000
0001
0010
0100
1000
0000
0001
0010
,
0000
0001
0010
0100
1000
0000
0001
0010
0000
0001
0010
0100
1000
0010
0100
0010
,
1000
0010
0100
0010
1000
0001
0100
0010
1000
0000
0001
0000
0010
0100
1000
0100
,
0010
0000
0001
0000
0100
0010
1000
0000
0001
1000
0100
0000
1000
0010
0100
0001
,
0010
0100
1000
0000
0000
0000
1100
0000
0000
0000
0011
0000
0000
0000
0101
0000
,
0000
0000
1010
0000
0101
0000
1000
0001
0100
0000
0010
1000
0001
0000
0100
0010
,
0100
0001
1000
0000
0000
0000
1010
0000
0001
0000
1100
0000
0000
0000
0011
0000
,
0100
0010
1000
0000
1001
0000
0000
0000
0110
0000
0000
0000
1001
0000
0000
0000
,
1100
0000
0101
0000
0010
1000
0100
0010
0001
0000
0100
0001
0010
0000
0100
0000
,
1000
0001
1000
0000
0010
0000
0100
0000
0001
1000
0010
0000
2000
0000
0002
0000
,
3000
0000
0100
0000
0103
0000
0010
0000
1000
0200
0020
0000
0300
0000
0001
0000
,
0031
0000
0100
0000
0010
0000
1000
0000
0001
0010
0100
0000
2000
0000
0002
0000
,
3000
0000
1000
0000
1003
0000
0010
0100
0002
0000
1003
0000
0000
0000
1100
0000
,
1100
0000
0001
0000
0100
0000
0010
0000
0100
0001
0010
0100
2000
0000
0002
0000
,
3000
0000
0010
0000
0013
0000
0100
0010
0002
0000
2000
0000
0003
0000
0010
0000
,
3010
0000
0100
0000
0001
0000
0010
0000
0001
1000
0100
1000
0020
0000
0200
0000
,
0030
0000
0001
0000
0301
0000
0100
0000
0010
1000
0001
0000
0010
0001
1000
0000
,
0010
1000
0001
0000
0100
0000
0100
0000
0100
0010
1000
0000
0001
0000
0010
0100
,
1000
0000
0001
0000
0000
0000
0100
0010
0100
0000
0001
0000
0000
0000
0011
0000
,
1001
0000
0000
0000
0010
0000
1000
0000
0100
1000
0010
0100
0001
0000
0010
0100
,
1000
0000
1001
0000
0000
0000
0101
0000
0010
0000
1010
0000
0000
0000
1000
0001
,
0100
0000
0000
0000
0001
0000
0001
0000
0001
0000
0000
0000
0010
0000
0001
1000
,
0100
0000
0000
0000
0010
0000
0001
0000
0100
0010
1000
0000
0001
0000
0100
0001
,
0010
0000
0000
0000
0100
0000
0100
0000
0100
1000
0001
0000
0100
0000
0010
1000
,
0001
0000
0010
0000
0001
0000
0100
0000
0010
0000
1000
0000
0000
0000
0100
0010
,
0001
0000
0110
0001
0100
1000
1001
0010
,
0100
0000
0001
0000
1000
0100
0010
0100
1000
0000
0001
0000
0100
0010
1000
0010
,
0100
0000
0001
0000
0010
0001
0100
0001
0010
0000
0100
0000
1000
0001
0100
0001
,
1000
0000
0010
0100
0001
0000
0000
0000
0011
0000
1100
0000
0000
0000
0010
0000
,
0010
0010
1000
0100
1000
0001
0010
0001
,
0100
0000
0010
1000
0001
0000
0010
0001
0000
0001
1000
0000
0010
0100
0000
0100
,
0001
0000
1000
0100
0000
1000
0010
0100
0001
0000
1000
0000
0010
0000
1000
0000
,
0100
0010
0001
0010
0100
0000
1100
0000
0001
0000
0101
0000
0010
0000
1000
0001
,
1000
0000
1000
0000
0000
0000
0101
0000
1001
0000
0010
1000
0001
0000
1000
0100
,
0010
0000
0001
0000
0100
0010
1000
0000
0110
0000
0001
0010
0100
0000
1000
0001
,
0100
0000
0010
0000
0100
0001
1000
0000
0100
1000
0001
0000
0100
0000
0010
0000
,
1000
0010
0100
0010
1000
0000
0001
0000
1000
0100
0010
0001
0100
0000
2020
0000
,
0000
0000
0000
0000
,
0000
0000
0000
0000
,
0000
0000
0000
0000
,
3030
0000
0000
0000
;

//---------------dance-single - ----------------
#NOTES:
     dance-single:
     :
     Medium:
     12:
     0.577404,0.585802,0.451425,0.041993,0.015747,385.000000,342.000000,43.000000,4.000000,0.000000,0.000000,0.577404,0.585802,0.451425,0.041993,0.015747,385.000000,342.000000,43.000000,4.000000,0.000000,0.000000:
0000
0000
0000
0000
,
0000
0000
0000
0000
,
0000
0000
0000
0000
,
0000
0000
0000
0000
0000
0010
0100
0010
,
0100
0000
1000
0001
0000
0101
0000
0000
,
0110
0000
0110
0000
,
0110
0000
0110
0000
,
0110
0000
1000
0001
0000
0000
1010
0000
,
0101
0000
1000
0100
0001
0100
1000
0001
,
0000
0100
0010
1000
0000
0100
0010
0001
,
0000
0110
0000
0001
0100
0010
1000
0001
,
0000
1010
0000
0101
0000
0100
0010
0000
,
1000
0001
1000
0100
0010
0100
0001
0100
,
0010
0100
0001
0100
1000
0000
0010
0100
,
0000
0110
0000
0001
0010
0001
0100
0010
,
0000
1010
0000
0101
0000
1100
0000
0001
,
1000
0000
1001
0100
0010
1000
0000
0001
,
0010
0001
0100
0010
0100
0010
1000
0100
,
0001
0000
0010
0001
0010
0100
0000
1100
,
0000
1000
0001
0100
0000
0001
0010
0100
,
1000
0000
1001
0100
0010
1000
0000
0101
,
0000
0001
1000
0010
0000
1000
0100
0010
,
0000
0000
0001
0000
0100
0000
0000
0010
0000
0000
1000
0000
0100
0000
0000
0010
,
0000
0000
0001
0000
1000
0000
0000
0001
0000
0000
1000
0000
0010
0000
0100
0000
,
0010
1000
0002
0000
0013
0100
2000
0000
,
3010
0100
0001
1000
0100
0010
0100
1000
,
0001
1000
0000
1010
0000
0101
0000
0011
,
0000
1100
0001
0100
1000
0100
0001
0100
,
0010
1000
0000
1001
0000
0110
0000
1000
,
0100
0001
1001
0000
0110
0000
1001
0000
,
0100
0010
1000
0001
1000
0010
1000
0001
,
1000
0100
0010
0001
0010
0100
1000
0001
,
0000
1000
0010
0100
0001
1000
0000
0010
,
0000
1000
1000
0100
0010
0100
0010
0001
,
0000
0100
0010
0100
0001
1000
0000
0010
,
0010
1000
0001
0010
0001
0100
0001
1000
,
0000
0010
1000
0100
0010
0001
0000
1000
,
0000
0100
0100
0010
0100
1000
0001
0100
,
0000
0010
1000
0001
0010
1000
0010
0001
,
0010
0100
1000
0001
1000
0000
0101
0000
,
0010
1000
0010
0110
0000
1001
0000
0100
,
0001
0000
0010
0001
0010
0000
1100
0000
,
1000
1100
0000
0101
0000
1010
0000
0100
,
0001
0000
0100
0010
1000
0000
1010
0000
,
0001
1000
0001
1001
0000
0110
0000
0100
,
0010
0000
1000
0010
1000
0000
1100
0000
,
0010
0001
0010
0100
1000
0001
0000
0100
,
0010
0000
1001
0100
0000
0010
1000
0001
,
0000
1000
0100
0010
0001
0100
0001
0010
,
0100
1000
0000
0010
1000
0001
0000
1000
,
0100
0001
0010
0000
0001
0001
0000
1000
,
1000
0001
0000
0100
0010
0100
0000
0010
,
1000
0001
0010
0100
0010
0001
0100
0010
,
1000
0001
1000
0010
0100
0010
1000
0100
,
0010
0001
1000
0001
1000
0010
0100
0001
,
0001
0001
0000
0101
1001
0000
1000
0100
,
0010
0001
0100
0010
1000
0001
1000
0010
,
0100
0010
1000
0100
0001
0100
1000
0010
,
0100
0010
0001
0010
1000
0001
0100
0220
,
0000
0000
0000
0000
,
0000
0000
0000
0000
,
0000
0000
0000
0000
,
0330
0000
0000
0000
;

//---------------dance-single - ----------------
#NOTES:
     dance-single:
     :
     Easy:
     8:
     0.392934,0.488168,0.293951,0.083986,0.000000,262.000000,234.000000,28.000000,8.000000,0.000000,0.000000,0.392934,0.488168,0.293951,0.083986,0.000000,262.000000,234.000000,28.000000,8.000000,0.000000,0.000000:
0000
0000
0000
0000
,
0000
0000
0000
0000
,
0000
0000
0000
0000
,
0000
0000
0000
0000
,
0000
0000
0010
0000
,
0110
0000
0110
0000
,
0110
0000
0110
0000
,
0110
0000
0000
1000
,
0001
0000
0010
0000
0001
0000
0100
0010
,
0000
0000
1000
0001
0000
0000
1000
0100
,
0000
0010
0000
0001
0100
0000
0010
1000
,
0000
0100
0000
0100
0000
0100
0010
0000
,
0000
0001
0100
0010
,
1000
0000
0100
0010
0100
0000
1000
0001
,
0000
0100
0000
0010
1000
0000
0010
0100
,
0000
0001
0000
0001
0000
0001
0000
1000
,
0100
0000
0010
0010
0000
0001
0000
0000
,
1000
0000
0001
0100
0000
0001
0100
0000
,
0010
0000
1000
0001
0000
1000
0000
1000
,
0000
0000
0010
0100
0000
0010
0100
0000
,
0001
0000
0010
0010
0000
0100
0000
1000
,
0000
0000
0010
0000
0100
0001
0000
1000
,
0100
0000
0000
0011
0000
0000
0000
1100
,
0000
0000
0000
0101
0000
0000
0010
0100
,
0010
2010
3001
0101
,
0000
0020
0000
2030
0000
0000
3001
0100
,
0001
0100
0000
0110
0000
1001
0000
0110
,
0000
1000
0002
0000
0023
0000
0031
0000
,
1000
0100
0000
1100
0000
0110
0000
0011
,
0000
0100
0100
0000
0110
0000
1001
0000
,
0100
0010
2000
0000
0001
0000
0100
0000
,
3001
0000
0010
0000
0001
0000
0100
0010
,
0000
1000
0001
0000
1000
0100
0000
0000
,
0000
0010
0010
0000
0001
0000
1000
0001
,
0000
0100
0000
0100
0010
1000
0000
0000
,
0000
0001
0001
0000
0010
0000
0100
1000
,
0000
0010
1000
0000
0001
0100
0000
0000
,
0000
0010
0010
0000
0100
0000
0010
1000
,
0000
0001
0000
0010
0001
0000
0100
0000
,
1000
0000
0010
0100
0010
0000
1001
0000
,
0000
0000
0000
1000
0000
0100
0000
1000
,
0001
0000
0100
0010
0100
0000
1001
0000
,
0000
0010
0000
0010
0000
0010
0000
0001
,
1000
0000
0001
0100
0001
0000
1001
0000
,
0000
0000
0000
0010
0000
0010
0000
1000
,
0100
0000
1000
0001
1000
0000
1001
0000
,
0000
0100
0000
0100
0000
0100
0000
0010
,
0100
0110
1001
0110
,
1000
0001
0000
0010
0000
0001
0000
0100
,
0000
0010
0000
1000
0000
0100
0000
1000
,
0000
0001
0000
0010
0000
0001
0000
0100
,
0010
0100
0000
0010
1000
0001
0000
1000
,
0000
0010
0000
1000
0000
0100
0000
0010
,
0000
0001
0000
0100
0010
0100
0000
0001
,
1000
0001
0000
0010
0000
0100
0000
1000
,
0001
1000
0000
0101
1001
0000
0010
0000
,
1000
0100
0010
0001
,
0100
0000
0001
0000
1000
0010
1000
0000
,
0001
0010
0001
0000
0100
0010
0000
0202
,
0000
0000
0000
0000
,
0000
0000
0000
0000
,
0000
0000
0000
0000
,
0303
0000
0000
0000
;

//---------------dance-single - ----------------
#NOTES:
     dance-single:
     :
     Beginner:
     5:
     0.197967,0.278728,0.125979,0.000000,0.000000,132.000000,120.000000,12.000000,0.000000,0.000000,0.000000,0.197967,0.278728,0.125979,0.000000,0.000000,132.000000,120.000000,12.000000,0.000000,0.000000,0.000000:
0000
0000
0000
0000
,
0000
0000
0000
0000
,
0000
0000
0000
0000
,
0000
0000
0000
0000
,
0000
0000
0000
0000
,
0010
0000
0010
0000
,
0010
0000
0010
0000
,
0010
0000
0000
0000
,
1001
0100
0100
0100
,
0000
0010
0000
1000
,
0000
0001
0001
0001
,
0000
0010
0010
0010
,
0000
0000
0100
0000
,
1000
0000
0001
0001
,
0000
1000
0000
0001
,
0000
0100
0100
0100
,
0000
1001
0000
0000
,
0000
0001
0000
1000
,
0000
0001
0000
0000
,
0000
0010
0000
0100
,
0000
0110
0000
0000
,
0000
1000
0000
0001
,
0000
1001
0000
0110
,
0000
1001
0000
0100
,
0100
0100
0000
0001
,
0000
1000
1000
1000
,
1000
0000
0001
0000
,
0001
0000
0100
0000
,
0000
0000
0010
0010
,
0000
1000
1000
1000
,
0000
1001
0000
0000
,
0000
0100
0100
0100
,
0000
0001
0001
0000
,
0000
1000
1000
1000
,
0000
0001
0001
0000
,
0000
0010
0010
0010
,
0000
0100
0100
0000
,
0000
1000
1000
1000
,
0000
0001
0000
1000
,
0000
0001
0001
0001
,
0000
0000
0100
0000
,
0010
0000
0100
0100
,
0000
0001
0001
0001
,
0000
1000
1000
1000
,
0000
0000
0001
0000
,
0010
0000
0001
0001
,
0000
0100
0100
0100
,
0000
0110
0000
1001
,
0000
1000
0000
0100
,
0000
1000
0000
0001
,
0000
0010
0010
0010
,
0010
0000
0110
0000
,
0000
1000
0000
0001
,
0000
1000
0000
0010
,
0000
0100
0100
0100
,
0100
0000
1001
0000
,
0000
0000
1000
0000
,
0000
0000
0001
0000
,
0010
0000
0100
0000
,
1001
0000
0000
0000
;

//---------------dance-single - ----------------
#NOTES:
     dance-single:
     :
     Challenge:
     18:
     1.013831,1.106515,0.713881,0.083986,1.028828,676.000000,608.000000,68.000000,8.000000,0.000000,0.000000,1.013831,1.106515,0.713881,0.083986,1.028828,676.000000,608.000000,68.000000,8.000000,0.000000,0.000000:
// measure 0
0000
0000
0000
0000
,  // measure 1
0000
0000
0000
0000
,  // measure 2
0000
0000
0000
0000
,  // measure 3
0000
0000
0000
0000
0000
0010
0010
0010
,  // measure 4
0010
0000
0000
0000
0000
0000
1000
0001
1000
0001
0000
0000
1000
0000
0000
0101
0000
0000
0010
0000
0000
0100
0000
0000
,  // measure 5
0110
0001
0010
0100
0110
1000
0010
0100
,  // measure 6
0110
0000
0001
0000
1000
0010
0100
0010
0110
0000
0001
0000
1000
0000
0100
0000
,  // measure 7
0110
1000
0010
0001
0000
0100
1010
0001
,  // measure 8
0101
0000
0000
0000
0010
0000
0001
0000
0100
0000
1000
0000
0010
1000
0010
0100
,  // measure 9
0010
1000
0001
0010
0100
1000
0001
1000
0010
0100
0010
1000
0100
0010
0001
0000
,  // measure 10
0000
0000
1000
0010
0001
0000
0100
0000
0001
0000
0010
0000
0100
1000
0010
0100
,  // measure 11
0001
0010
0110
0000
0000
0000
1100
0000
0000
0000
0101
0000
1010
0000
0000
0000
,  // measure 12
0010
0000
0010
0000
0010
1000
0100
0010
0100
0010
1000
0010
0001
0100
0010
0100
,  // measure 13
0001
0010
0100
1000
0010
1000
0100
0010
0001
0000
0000
0000
1000
0010
0001
0000
,  // measure 14
0000
0000
0100
0010
1000
0000
0001
0000
0010
0000
0001
0100
0010
0000
1010
0000
,  // measure 15
0000
1100
0000
0101
0000
1010
0000
0110
,  // measure 16
1001
0000
0001
0000
0101
0000
1010
0000
0100
0000
0010
0000
0001
1000
0010
0000
,  // measure 17
1000
0100
0001
0000
0020
0000
0001
0000
0130
0000
1000
0010
1000
0100
0010
0001
,  // measure 18
1000
0001
0100
0000
0010
1000
0100
0000
0010
0000
0001
0000
0100
0000
0001
0010
,  // measure 19
1000
0010
0100
0010
0002
0000
0100
0000
1003
0000
0002
0000
0010
0000
1003
0000
,  // measure 20
0001
0000
0100
0000
0110
0000
1001
0000
1000
0000
0010
0000
0001
0000
1000
0001
,  // measure 21
0010
0100
2000
0010
3001
2000
0100
3001
,  // measure 22
1000
0010
0100
0001
0011
0000
0001
1000
0000
1000
0100
0010
0011
0000
0001
1000
,  // measure 23
0000
1000
0100
0010
0011
0000
0001
1000
0000
1000
0100
0010
0001
0100
1000
0100
,  // measure 24
0001
0100
1000
0100
0002
0000
0013
0100
1000
0000
0001
0000
1000
0010
0100
0010
,  // measure 25
1000
0000
0001
0010
1000
0000
0100
1000
0001
0000
0010
0001
0100
0000
0001
0010
,  // measure 26
0100
1000
0001
0000
0000
0000
1001
0000
0000
0000
1010
0000
0000
0000
0011
0000
,  // measure 27
0000
0000
1100
0000
0101
0000
0010
0000
1000
0001
0010
0100
0010
0001
0100
0010
,  // measure 28
1000
0100
0001
0000
0000
0000
0011
0000
0110
0000
1100
0000
0000
0000
0110
0000
,  // measure 29
1000
0010
0001
0000
0011
0000
0100
0000
1010
0000
0100
0000
0011
0000
0000
0000
,  // measure 30
1001
0100
0010
0000
1000
0001
0010
0100
0001
0010
0100
0001
0100
1000
0010
1000
,  // measure 31
0001
0010
1000
0100
0010
0000
0001
0000
0100
0010
1000
0001
0010
0000
0100
1000
,  // measure 32
0010
1000
0001
0000
0010
0000
0010
0000
0010
0001
1000
0010
0100
0000
0001
0000
,  // measure 33
0010
0100
1000
0000
1000
0000
0001
0000
1000
0010
0100
0001
0010
0000
0100
0010
,  // measure 34
0001
0100
1000
0000
0010
0000
1000
0001
1000
0000
0100
0000
0000
0000
1100
0000
,  // measure 35
0101
0000
1100
0000
0101
0010
1000
0000
0100
0010
0100
1000
0001
0000
0010
0001
,  // measure 36
1000
0001
0100
0000
0010
0000
1000
0100
0010
0001
1000
0001
0100
0000
0010
0000
,  // measure 37
0000
0000
0110
0000
1001
0100
0001
0000
0010
0100
0010
0001
1000
0000
1100
0000
,  // measure 38
0000
0000
1010
0000
0101
0000
0011
0000
1000
0010
0001
0100
1000
0010
0001
0100
,  // measure 39
1000
0010
0001
0100
1000
0000
0010
0000
1000
0100
0001
0000
0010
0001
0010
0100
,  // measure 40
1000
0000
0001
0000
0100
0010
1000
0000
0100
0010
0001
0000
1000
0000
0010
0100
,  // measure 41
0001
0000
0010
0100
1000
0000
0001
0000
0010
0100
0010
0001
0100
0010
1000
0001
,  // measure 42
0100
0010
1000
0000
0100
0010
0100
1000
0010
1000
0001
0000
0100
0000
1010
0000
,  // measure 43
0101
0000
0000
0000
0001
0010
1000
0010
0001
0100
0010
1000
0100
0000
0010
0001
,  // measure 44
1000
0001
0000
0000
0100
0010
1000
0001
0010
0100
1000
0001
0100
0000
0010
1000
,  // measure 45
0001
0000
1000
0100
0010
0001
0100
0000
0001
0010
1000
0000
0100
0010
0100
1000
,  // measure 46
0001
0000
0100
0000
0001
0010
0100
0000
0010
0100
1000
0000
0001
0000
0100
0010
,  // measure 47
0100
0000
0000
0000
0110
0000
1010
0000
0101
0000
0011
0000
1100
0001
1000
0000
,  // measure 48
0010
0100
0001
0000
1000
0010
0100
0010
1000
0100
0001
0000
0010
0001
0010
0100
,  // measure 49
1000
0000
0001
0100
0010
1000
0001
1000
0100
0010
0001
0000
1000
0000
1001
0000
,  // measure 50
1000
0100
0001
0010
0100
0000
1000
0000
0010
0100
0001
0000
0010
0000
1100
0000
,  // measure 51
0101
0000
1100
0000
0000
0000
0011
0000
1001
0000
1010
0000
0100
0000
0001
0010
,  // measure 52
1000
0100
1000
0010
0100
0000
0001
0010
0001
0100
1000
0000
0010
1000
0010
0100
,  // measure 53
0001
0000
0010
0100
1000
0010
0001
0100
0010
0000
1000
0000
0100
0000
0001
0000
,  // measure 54
1000
0000
0000
0001
0000
0000
1000
0000
0000
0100
0000
0000
0010
0000
0000
0000
0000
0000
0011
0000
0000
0000
0000
0000
0100
0000
0000
0000
0000
0000
1010
0000
0000
0000
0000
0000
0100
0000
0000
0000
0000
0000
0001
0000
1000
0000
0001
0000
,  // measure 55
1000
0000
1100
0000
0000
0000
0101
0000
1001
0000
0001
0010
0001
0100
0010
1000
,  // measure 56
0100
0010
0001
0100
0001
0100
1000
0010
0001
1000
0001
1000
0010
0001
0010
0100
,  // measure 57
1000
0010
0001
1000
0001
1000
0001
0100
0010
1000
0010
0001
0100
0010
0100
0001
,  // measure 58
0010
0100
1000
0001
1000
0010
1000
0100
0001
1000
0001
0010
0100
1000
0022
0000
,  // measure 59
0000
0000
0000
0000
,  // measure 60
0000
0000
0000
0000
,  // measure 61
0000
0000
0000
0000
,  // measure 62
0033
0000
0000
0000
;
