#VERSION:0.83;
#TITLE:TRIP MACHINE CLIMAX;
#SUBTITLE:(25th Anniversary Special);
#ARTIST:DE-SIRE;
#TITLETRANSLIT:;
#SUBTITLETRANSLIT:;
#ARTISTTRANSLIT:;
#GENRE:;
#ORIGIN:;
#CREDIT:;
#BANNER:TRIP MACHINE CLIMAX (25th Anniversary Special)-bn.png;
#BACKGROUND:TRIP MACHINE CLIMAX (25th Anniversary Special)-bg.png;
#PREVIEWVID:;
#JACKET:TRIP MACHINE CLIMAX (25th Anniversary Special)-jacket.png;
#CDIMAGE:;
#DISCIMAGE:;
#LYRICSPATH:;
#CDTITLE:;
#MUSIC:TRIP MACHINE CLIMAX (25th Anniversary Special).ogg;
#OFFSET:-0.050000;
#SAMPLESTART:12.050000;
#SAMPLELENGTH:20.000000;
#SELECTABLE:YES;
#DISPLAYBPM:360.000000;
#BPMS:0.000=360.000;
#STOPS:199.500=0.667;
#DELAYS:;
#WARPS:;
#TIMESIGNATURES:0.000=4=4;
#TICKCOUNTS:0.000=4;
#COMBOS:0.000=1;
#SPEEDS:0.000=1.000=0.000=0;
#SCROLLS:0.000=1.000;
#FAKES:;
#LABELS:0.000=Song Start;
#BGCHANGES:;
#KEYSOUNDS:;
#ATTACKS:
;

//---------------dance-single - ----------------
#NOTEDATA:;
#CHARTNAME:;
#STEPSTYPE:dance-single;
#DESCRIPTION:;
#CHARTSTYLE:;
#DIFFICULTY:Challenge;
#METER:18;
#RADARVALUES:1.246288,1.339799,0.853793,0.032838,0.043784,797.000000,719.000000,78.000000,3.000000,0.000000,0.000000,0.000000,0.000000,0.000000,1.246288,1.339799,0.853793,0.032838,0.043784,797.000000,719.000000,78.000000,3.000000,0.000000,0.000000,0.000000,0.000000,0.000000;
#CREDIT:;
#DISPLAYBPM:360.000000;
#NOTES:
// measure 0
0000
0000
0000
0000
,  // measure 1
0000
0000
0000
0000
,  // measure 2
1000
0000
0100
0000
0001
0000
0100
0010
,  // measure 3
0100
0001
0010
0001
,  // measure 4
1000
0001
0010
0100
,  // measure 5
1000
0010
1000
0001
0010
0100
1000
0000
,  // measure 6
0001
0001
0001
0010
,  // measure 7
0001
1000
0001
0000
0100
0000
0010
0000
,  // measure 8
1000
0100
0001
0100
,  // measure 9
1000
0001
0010
0001
0010
0100
1000
0000
,  // measure 10
0001
0100
0010
1000
,  // measure 11
0110
0001
1000
0100
,  // measure 12
0110
0010
0001
0100
,  // measure 13
0110
0000
1000
0000
0100
0010
0001
0000
,  // measure 14
0110
1000
1000
0010
,  // measure 15
0110
0100
0001
1000
,  // measure 16
0001
0010
0011
1000
,  // measure 17
1100
0010
0100
0001
,  // measure 18
1001
0010
1000
0001
,  // measure 19
0010
0100
1000
0010
0100
0000
0001
0000
,  // measure 20
1000
0000
0001
0000
0010
0000
0001
0100
,  // measure 21
0010
0000
1000
0000
0001
1000
0100
0000
,  // measure 22
0010
0000
0001
0000
0100
0000
0001
1000
,  // measure 23
0010
0000
0100
0000
0001
1000
0100
0000
,  // measure 24
0010
0001
0010
0100
1000
0000
0001
0100
,  // measure 25
0010
0000
1000
0000
0100
0010
0001
0100
,  // measure 26
1000
0000
0010
1000
0001
0000
0010
0100
,  // measure 27
1000
0000
0001
1000
0100
0000
0010
0001
,  // measure 28
0100
0010
1000
0001
,  // measure 29
0010
0100
1000
0010
1000
0000
0001
0100
,  // measure 30
0010
0000
1000
0001
1000
0000
0100
0010
,  // measure 31
0001
0000
0100
0001
1000
0000
0010
0000
,  // measure 32
1000
0100
0001
0100
0001
0010
0100
1000
,  // measure 33
0001
1000
0010
0100
0010
0001
0010
1000
,  // measure 34
0100
0000
1000
0010
0001
1000
0100
0000
,  // measure 35
1000
0010
0001
0100
0010
0000
1000
0001
,  // measure 36
1000
0100
0010
0011
,  // measure 37
0011
0110
0110
1100
,  // measure 38
1100
0000
1000
0001
0100
0000
0001
0010
,  // measure 39
0100
1000
0010
1000
0001
0000
0100
0010
,  // measure 40
1000
0001
0101
0010
,  // measure 41
1010
0000
0100
0000
0010
0000
0001
0100
,  // measure 42
1000
0000
0010
1000
0001
0000
0100
0001
,  // measure 43
0010
0100
0010
0001
1000
0000
0010
0100
,  // measure 44
0010
0000
1000
0100
0001
0000
0011
0000
,  // measure 45
0011
0110
0110
1100
,  // measure 46
1100
0000
0001
1000
0010
0000
0100
0000
,  // measure 47
0001
0010
0100
1000
0001
0000
0100
0000
,  // measure 48
0001
0100
0010
0100
1000
0001
0100
0001
,  // measure 49
0100
0001
1000
0010
1000
0010
1000
0010
,  // measure 50
1001
0000
0100
0000
0001
0000
1000
0010
,  // measure 51
0001
0100
1000
0000
0001
0000
0100
0001
,  // measure 52
0010
0000
0100
0000
1000
0000
0010
1000
,  // measure 53
0001
0100
0010
0100
0001
0000
1000
0100
,  // measure 54
0001
0000
0010
0000
0001
0000
0100
0010
,  // measure 55
1000
0100
0001
0000
0010
0100
1000
0000
,  // measure 56
1100
1010
0101
0011
,  // measure 57
1010
0101
0110
1001
,  // measure 58
0100
0000
1010
0000
0101
0000
0010
1000
,  // measure 59
0100
0001
1000
0000
0001
0000
1000
0100
,  // measure 60
0001
0000
0010
0000
0001
1000
0010
0100
,  // measure 61
0001
0000
0010
0100
1000
0000
0100
0010
,  // measure 62
0001
0000
1000
0000
0001
0000
0100
0001
,  // measure 63
0010
1000
0100
0000
0010
0000
1001
0000
,  // measure 64
0100
0000
0001
0000
0010
0000
0100
1000
,  // measure 65
0010
1000
0001
0000
0001
0000
0001
0000
,  // measure 66
1000
0100
0001
0000
0010
0000
1100
0000
,  // measure 67
0000
1000
0010
1000
0100
0010
0001
0100
,  // measure 68
0010
0000
0010
0000
0010
0000
1000
0001
,  // measure 69
1000
0010
0100
0001
0010
0100
1000
0001
,  // measure 70
0100
0001
0010
0101
,  // measure 71
0000
1000
0010
0001
1000
0100
0001
0000
,  // measure 72
0110
0000
1001
0000
0110
0000
1000
0100
,  // measure 73
0001
0000
0020
0030
,  // measure 74
0011
0000
0100
1000
0001
0000
1000
0010
,  // measure 75
0000
0010
0100
0001
0010
0100
1000
0000
,  // measure 76
0001
0100
0001
0000
0010
0000
0100
1000
,  // measure 77
0010
0100
0001
0000
0000
0000
1010
0000
,  // measure 78
1100
0000
0101
0000
0010
1000
0100
0010
,  // measure 79
0001
0100
0010
0000
0110
0000
0000
0000
,  // measure 80
1000
0000
1000
0000
1000
0000
1000
0000
1000
0000
1000
0000
,  // measure 81
0001
0000
0001
0000
0001
0000
0001
0000
0001
0000
0001
0000
,  // measure 82
1001
0000
0010
0000
1001
0000
0100
0001
,  // measure 83
0010
0100
1000
0000
0001
0100
0001
0000
,  // measure 84
1000
0100
1000
0000
0010
0000
0101
0000
,  // measure 85
0001
0010
1000
0000
0100
0001
0010
0000
,  // measure 86
1000
1100
0001
0101
,  // measure 87
0010
1000
0100
0000
0001
0010
1000
0001
,  // measure 88
0100
0010
1000
0100
0010
0001
0100
0010
,  // measure 89
1000
0000
0001
0100
0010
0000
0000
0000
,  // measure 90
0110
0000
1000
0010
1000
0000
0100
0010
,  // measure 91
0001
1000
0001
0000
0100
0000
0001
0010
,  // measure 92
1000
0100
0001
0000
0010
0000
0100
0010
,  // measure 93
0001
0100
1000
0000
0010
1000
0100
0000
,  // measure 94
0010
0001
0100
0001
1000
0000
0010
1000
,  // measure 95
0100
0010
0001
0000
0100
0001
0010
0000
,  // measure 96
1000
1000
1000
0000
0001
0001
0001
0000
,  // measure 97
1001
0000
0110
0000
,  // measure 98
1001
0011
1001
0110
,  // measure 99
1100
0011
1010
0101
,  // measure 100
1000
0010
0001
1000
0100
0010
0001
0100
,  // measure 101
0001
0010
0100
1000
0010
1000
0001
0100
,  // measure 102
0001
0010
0001
0100
0010
1000
0010
1000
,  // measure 103
0010
0001
0001
0100
0001
0100
1000
0010
,  // measure 104
1000
0001
1000
0100
0010
0001
0100
0001
,  // measure 105
0010
0100
1000
0100
0100
0010
0100
1000
,  // measure 106
1001
0101
0011
1001
,  // measure 107
0101
1100
0110
1010
,  // measure 108
0001
0010
0001
0100
0001
0100
0010
1000
,  // measure 109
0100
0001
0010
0001
0010
1000
0001
0100
,  // measure 110
0001
0010
0001
0100
0001
0010
0100
1000
,  // measure 111
0100
0010
0001
0100
0001
0010
1000
0100
,  // measure 112
0001
0010
0001
0100
0010
1000
0100
0001
,  // measure 113
0011
0000
0000
0100
0100
0000
0100
0000
,  // measure 114
1100
0101
0000
0010
,  // measure 115
1001
0000
0100
0010
0001
0000
0000
0000
,  // measure 116
0011
0100
1000
0000
,  // measure 117
1100
0000
0001
0010
1000
0000
0000
0000
,  // measure 118
0010
1000
0100
0010
0001
0000
0100
0001
,  // measure 119
0010
0001
0100
1000
0010
0000
0100
0001
,  // measure 120
0010
0000
0001
0100
1000
0000
0000
0010
,  // measure 121
1000
0100
0001
0000
0010
0001
0010
0100
,  // measure 122
1000
0010
0001
0100
1000
0000
0000
0000
,  // measure 123
1010
0001
1000
0100
0010
0000
0000
0000
,  // measure 124
0011
0100
0001
0010
1000
0000
0000
0000
,  // measure 125
1001
0100
0001
1000
0010
0000
0100
0001
,  // measure 126
0010
0100
1000
0000
0001
0000
1000
0010
,  // measure 127
0001
1000
0001
0000
0100
0010
0100
0001
,  // measure 128
1000
0001
0010
0010
0100
1000
0100
1000
,  // measure 129
0001
1000
0010
0100
0001
0001
0010
0100
,  // measure 130
0000
2020
0000
0000
,  // measure 131
0000
0000
0000
0000
,  // measure 132
0000
0000
0000
0000
,  // measure 133
0000
0000
0000
0000
,  // measure 134
0000
0000
0000
0000
,  // measure 135
0000
0000
0000
0000
,  // measure 136
3030
0000
0000
0000
;
