#TITLE:TRIP MACHINE;
#SUBTITLE:(25th Anniversary Special);
#ARTIST:DE-SIRE;
#BANNER:TRIP MACHINE (25th Anniversary Special)-bn.png;
#BACKGROUND:TRIP MACHINE (25th Anniversary Special)-bg.png;
#JACKET:TRIP MACHINE (25th Anniversary Special)-jacket.png;
#MUSIC:TRIP MACHINE (25th Anniversary Special).ogg;
#SAMPLESTART:0.008;
#SAMPLELENGTH:20;
#DISPLAYBPM:160;
#BPMS:0=160.1;
#BGCHANGES:;

//---------------dance-single - ----------------
#NOTES:
     dance-single:
     :
     Challenge:
     13:
     :
0000
0000
0000
0000
,
0000
0000
0000
0000
,
0000
0000
0000
0000
,
0000
0000
0000
0000
,
0000
0000
0000
0000
,
0010
0000
0010
0000
,
0010
0000
0010
0000
,
0010
0000
0000
0110
,
1001
0100
0000
1001
0000
0000
0000
0010
,
1010
0100
0000
1010
0000
0001
0001
0100
,
0010
0010
1000
1100
0000
0001
0001
0100
,
0010
0010
1000
0001
0000
0100
0100
0010
,
1000
0000
0000
0001
0100
0000
0000
0010
1000
0000
0000
0000
0000
0000
0100
0000
,
0100
1000
0001
1000
0000
1000
0010
1000
,
0001
0010
0001
1000
0000
0110
0001
0100
,
1010
0001
0000
1000
1000
0100
1000
0001
,
0010
0001
0100
0001
0010
0100
1000
0001
,
0000
0000
0101
0000
0010
0000
2000
0000
0000
0000
3100
0000
0010
0000
0001
1000
,
0001
0100
0010
1000
1000
0100
1000
0001
,
0010
0010
0001
0100
0010
1000
0001
1000
,
0100
0010
0100
1000
0001
1000
0010
0100
,
0000
0000
1010
0000
0100
0000
2000
0000
0000
0000
3001
0000
0010
0000
0001
1000
,
0001
0100
0010
1000
0100
0001
0100
0010
,
0001
0000
0100
0010
0200
0000
0000
0000
0310
0000
1000
0000
0100
0000
0010
0000
,
0001
0000
1001
0000
0110
0000
1001
1000
,
1000
0100
0010
0020
0000
0031
0100
0010
,
0101
1000
0001
0010
0100
0110
0000
1000
,
1000
0001
0100
1010
0000
0100
0100
1000
,
0001
0000
0100
0000
0010
0000
1000
0100
1000
0000
0001
0000
0100
0000
1001
0000
,
0000
0000
0011
0000
0000
0000
0100
1000
0100
0000
0010
0000
0001
0000
1000
0000
,
0010
1000
0100
1000
0001
0011
0000
1100
,
0001
0001
0001
0001
0101
0000
1100
0000
,
1001
0010
0100
0000
0110
0001
0100
0010
,
1000
0100
0001
0100
1000
1000
1000
0000
,
1001
0010
0000
0100
0001
0010
0001
1000
,
0100
0001
0100
1000
0010
0010
0010
0010
,
1001
0100
0000
0001
0010
0100
0001
0100
,
1000
0010
0001
0010
1000
1000
1000
0000
,
1001
0100
0000
0010
0001
1000
0001
0100
,
0010
0000
1000
0000
0100
0000
0010
0000
0000
0000
0001
0000
0100
0010
0100
0010
,
0100
0010
1000
0001
0101
0000
0000
0000
,
1010
0001
0100
0110
0000
1000
1000
0100
,
0010
2200
0300
0000
0001
0000
3001
1000
,
1010
0001
0100
2000
0000
3002
0000
0003
,
0011
0000
0100
0000
1000
0000
0001
0100
0001
0000
1000
0000
0001
0000
0010
0000
,
0110
0000
0001
0000
1000
0000
1100
0000
0000
0000
0001
0000
0100
0000
0010
1000
,
0010
0202
0300
0000
1000
0000
1003
0001
,
0100
0010
1000
0001
1001
0000
0110
0000
,
1001
0000
0100
0000
0000
0000
0010
1000
0010
0000
0000
0000
0010
1000
0010
0000
,
0000
0100
0001
1000
0000
0101
0000
0110
,
0110
0000
1000
0000
0000
0000
0001
0010
0001
0000
0000
0000
0001
0010
0001
0000
,
0000
1100
0000
0101
0000
0011
0000
1010
,
0000
0000
0101
0000
0101
0000
0000
0000
0010
0000
1000
0000
0100
0010
0100
0010
,
0100
1000
0001
0100
0000
1010
0000
1100
,
1100
0001
0000
0100
0010
0000
1000
0001
,
0000
0010
0001
0100
0000
1010
0000
0000
,
0101
0010
0000
1100
0010
0000
0101
0010
,
0000
1100
0010
0000
0000
0000
0000
0000
;
