#VERSION:0.83;
#TITLE:TRIBAL DANCE (ALMIGHTY MIX);
#SUBTITLE:;
#ARTIST:2 UNLIMITED;
#TITLETRANSLIT:;
#SUBTITLETRANSLIT:;
#ARTISTTRANSLIT:;
#GENRE:;
#ORIGIN:;
#CREDIT:;
#BANNER:TRIBAL DANCE (ALMIGHTY MIX)-bn.png;
#BACKGROUND:TRIBAL DANCE (ALMIGHTY MIX)-bg.png;
#PREVIEWVID:;
#JACKET:TRIBAL DANCE (ALMIGHTY MIX)-jacket.png;
#CDIMAGE:;
#DISCIMAGE:;
#LYRICSPATH:;
#CDTITLE:;
#MUSIC:TRIBAL DANCE (ALMIGHTY MIX).ogg;
#OFFSET:0.000000;
#SAMPLESTART:57.529999;
#SAMPLELENGTH:20.000000;
#SELECTABLE:YES;
#DISPLAYBPM:136.000000;
#BPMS:0.000=135.458,
4.000=135.999;
#STOPS:;
#DELAYS:;
#WARPS:;
#TIMESIGNATURES:0.000=4=4;
#TICKCOUNTS:0.000=4;
#COMBOS:0.000=1;
#SPEEDS:0.000=1.000=0.000=0;
#SCROLLS:0.000=1.000;
#FAKES:;
#LABELS:0.000=Song Start;
#BGCHANGES:18.500=TRIBAL DANCE (ALMIGHTY MIX).mp4=1.000=1=0=0=StretchNoLoop==CrossFade==,
99999=-nosongbg-=1.000=0=0=0 // don't automatically add -songbackground-
;
#KEYSOUNDS:;
#ATTACKS:
;

//---------------dance-single - ----------------
#NOTEDATA:;
#CHARTNAME:;
#STEPSTYPE:dance-single;
#DESCRIPTION:;
#CHARTSTYLE:;
#DIFFICULTY:Easy;
#METER:6;
#RADARVALUES:0.300003,0.299448,0.000000,0.000000,0.000000,189.000000,189.000000,0.000000,0.000000,0.000000,0.000000,0.000000,0.000000,0.000000,0.300003,0.299448,0.000000,0.000000,0.000000,189.000000,189.000000,0.000000,0.000000,0.000000,0.000000,0.000000,0.000000,0.000000;
#CREDIT:;
#DISPLAYBPM:136.000000;
#NOTES:
0000
0000
0000
0000
,
0000
0000
0000
0000
,
0000
0000
0000
0000
,
0100
0001
0100
1000
,
0100
0001
1000
0001
,
1000
1000
1000
1000
,
0010
1000
0100
1000
,
0001
0100
0100
0100
,
0010
0100
1000
0100
,
0001
1000
1000
0001
,
0100
1000
0100
0001
,
1000
0010
1000
0010
,
0100
0100
0100
0100
,
0001
0001
1000
0001
,
0100
0100
0100
0100
,
0001
1000
0001
1000
,
0010
0100
0001
1000
,
0010
0000
0010
0000
,
1000
0010
0100
0001
,
1000
1000
1000
1000
,
0001
0001
1000
0001
,
0100
0100
0010
0010
,
0100
0010
1000
0001
,
1000
0010
0100
0001
,
1000
0000
0000
0000
0001
1000
0001
0000
,
0000
0100
0100
0100
,
0001
0001
1000
1000
,
0010
0100
0100
0100
,
0001
1000
0001
1000
,
0010
0010
1000
1000
,
0010
0010
0100
0100
,
0001
0001
0100
0100
,
0001
1000
0001
0000
,
0001
0100
1000
0100
,
0001
0100
1000
0001
,
1000
0010
0001
0100
,
1000
0010
1000
0001
,
0100
0100
0010
1000
,
0001
0100
0010
1000
,
0001
0001
0100
0010
,
1000
0010
1000
0001
,
0100
0000
0100
0000
0100
0000
0100
0010
,
1000
0000
1000
0000
1000
0000
1000
0001
,
0100
0000
0100
0000
0100
0000
0100
0010
,
1000
0000
1000
0000
1000
0000
1000
0001
,
0100
0000
0100
0000
0100
0000
0100
0010
,
1000
0000
1000
0000
1000
0000
1000
0001
,
0100
0000
0100
0000
0100
0000
0100
0010
,
1000
0000
1000
0000
1000
0000
1000
0001
,
1000
0000
0000
0000
,
0000
0000
0000
0000
;

//---------------dance-single - ----------------
#NOTEDATA:;
#CHARTNAME:;
#STEPSTYPE:dance-single;
#DESCRIPTION:;
#CHARTSTYLE:;
#DIFFICULTY:Medium;
#METER:10;
#RADARVALUES:0.420640,0.462783,0.100001,0.000000,0.000000,265.000000,256.000000,9.000000,0.000000,0.000000,0.000000,0.000000,0.000000,0.000000,0.420640,0.462783,0.100001,0.000000,0.000000,265.000000,256.000000,9.000000,0.000000,0.000000,0.000000,0.000000,0.000000,0.000000;
#CREDIT:;
#DISPLAYBPM:136.000000;
#NOTES:
0000
0000
0000
0000
,
0000
0000
0000
0000
,
0000
0000
0000
0000
,
0100
0000
0001
0000
0100
0001
0001
0000
,
1000
0000
1000
0000
1000
0001
1000
0001
,
0100
1001
0100
0100
,
0010
1000
0001
0100
,
0001
0110
1000
1000
,
0010
0000
0100
0000
0001
0000
0001
1000
,
0010
1010
0100
0001
,
1000
0010
0100
0001
,
1000
1100
0010
0001
,
1000
0000
1000
0000
0010
0000
0100
0001
,
1000
0000
1000
0000
1000
0000
1000
0010
,
1000
0000
1000
0010
1000
0000
1000
0010
,
1000
0010
1000
0010
1000
0010
1000
0010
,
1000
0001
1000
0001
0100
0010
0100
0010
,
1000
0001
1000
0001
,
0100
0000
0100
0000
0001
0100
1000
0000
,
0010
0010
1000
0001
,
1000
0000
1000
0000
0001
0100
1000
0000
,
0100
0000
0001
0000
0100
0001
1000
0000
,
0010
0000
0100
0000
0010
1000
0001
0000
,
0100
0100
0001
1000
,
0010
0100
0000
0000
0001
0000
1001
0000
,
0100
0100
0001
0000
1000
0000
0001
0000
,
0100
0001
1000
0010
,
1000
1000
0010
0000
0100
0000
0001
0000
,
1000
0000
0010
0000
0100
0000
0001
0001
,
1000
1000
0010
0010
1000
1000
0001
0001
,
0100
0100
0010
0010
0100
0100
0001
0001
,
1000
1000
0010
0010
0100
0010
0100
0010
,
0100
0000
0000
0000
0000
0001
0001
0001
,
0100
0011
0001
1000
,
0010
0000
1000
0000
0001
0100
0001
0100
,
0001
1010
1000
0001
,
0010
0000
0100
0000
1000
0010
1000
0010
,
1000
0000
1001
0000
0100
0001
0100
0001
,
1000
0010
0100
0000
0100
0010
1000
0000
,
0001
0100
1000
0100
0001
0000
1001
0000
,
1000
0000
1000
0000
0010
0100
0010
0100
,
0001
0000
0001
0000
0001
1000
0001
1000
,
0010
0000
0010
0000
0010
0100
0010
0100
,
0001
1000
0001
1000
0010
0100
0001
1000
,
0010
0100
0001
1000
0010
0100
0001
0001
,
1000
0000
1000
0000
1000
0001
1000
0001
,
0010
0000
0010
0000
0010
0100
0010
0100
,
1000
0001
1000
0001
0010
0100
1000
0001
,
0010
0100
1000
0001
0010
0100
1000
0001
,
1000
0000
0000
0000
,
0000
0000
0000
0000
;

//---------------dance-single - ----------------
#NOTEDATA:;
#CHARTNAME:;
#STEPSTYPE:dance-single;
#DESCRIPTION:;
#CHARTSTYLE:;
#DIFFICULTY:Hard;
#METER:12;
#RADARVALUES:0.542863,0.571673,0.033334,0.000000,0.177780,342.000000,339.000000,3.000000,0.000000,0.000000,0.000000,0.000000,0.000000,0.000000,0.542863,0.571673,0.033334,0.000000,0.177780,342.000000,339.000000,3.000000,0.000000,0.000000,0.000000,0.000000,0.000000,0.000000;
#CREDIT:;
#DISPLAYBPM:136.000000;
#NOTES:
0000
0000
0000
0000
,
0000
0000
0000
0000
,
0000
0000
0000
0000
,
1000
0000
0000
0010
0100
0000
0001
0000
1000
0000
0010
0000
0100
0000
0000
0000
,
0001
1000
0001
1000
0001
0001
1001
1001
,
0010
0100
0001
0001
1000
0100
1000
0100
,
0010
0000
0001
0000
1000
0000
0000
1000
0000
0000
0001
0000
0100
0000
0000
0000
,
0010
0010
0100
0001
1000
0010
1000
0001
,
0100
0000
0000
0010
0000
0000
0100
0000
0000
0000
0001
0000
0100
0000
0010
0000
,
1000
0001
1000
0010
0010
0100
0001
1000
,
0010
0000
0000
0100
0000
0000
0001
0000
1000
0000
0000
0000
1000
0000
0001
0000
,
0100
0010
1000
0010
0100
0001
1000
0010
,
0100
0000
0010
0000
0100
0000
0010
0000
1000
0000
0001
0000
1000
0001
1000
0001
,
1000
0000
0010
0000
0010
0000
0010
0100
,
0001
0100
0001
0100
0001
1000
0001
1000
,
0010
1000
0010
0100
0001
1000
0010
0100
,
0010
0000
1000
0000
0001
0000
0100
0000
0010
0100
0010
0100
0010
0100
0010
0100
,
0010
0000
0000
1000
0001
0100
0010
0000
,
1000
0010
1000
0001
0100
0100
0100
0000
,
0001
0000
0001
0100
0010
1000
0001
0000
,
1000
0100
1000
0010
0100
0100
0100
0000
,
0001
0000
0000
1000
0010
0100
0001
0000
,
1000
0010
0100
0001
1000
1000
1000
0000
,
0010
0000
0100
0000
,
0001
0000
0100
0010
1000
1000
1000
0000
,
0001
0000
0000
0001
1000
0000
0000
0000
0010
0000
0100
0000
0010
0000
0000
0000
,
1000
0010
0100
0001
0100
0010
1000
0000
,
0010
0000
0000
0010
1000
0000
0000
0000
0001
0000
0100
0000
0001
0000
0000
0000
,
0010
0100
1000
0001
0010
0100
1000
0000
,
0001
0000
0000
0001
0100
0000
0000
0000
0001
0000
0100
0000
0001
0000
0000
0000
,
1000
0000
0000
1000
0100
0000
0000
0000
1000
0000
0100
0000
1000
0000
0000
0000
,
0001
0100
0010
1000
0001
0100
0010
1000
,
0001
0000
0000
0001
0100
0000
0000
0000
0010
0000
0010
0000
1010
0000
1000
0000
,
0010
0100
0001
0001
1000
0100
1000
0100
,
0010
0000
0001
0000
1000
0000
0000
1000
0000
0000
0001
0000
0100
0000
0000
0000
,
0010
0010
1000
0001
0100
0001
0100
0010
,
1000
0000
0000
0010
0000
0000
0100
0000
0000
0000
0001
0000
0100
0000
0010
0000
,
1000
0001
1000
0010
0010
0100
0001
1000
,
0010
0000
0000
0100
0000
0000
0001
0000
1000
0000
0000
0000
1000
0000
0010
0000
,
0100
0001
1000
0010
0100
0001
1000
0010
,
0100
0000
0010
0000
0100
0000
0010
0000
1000
0000
0001
0000
1000
0001
1000
0001
,
1000
0000
0000
0000
0010
0000
0100
0000
0001
0000
0100
0000
0001
0100
0001
0100
,
0001
0000
0000
0000
1000
0000
0100
0000
0010
0000
0100
0000
0010
0100
0010
0100
,
0010
0000
0000
0000
0001
0000
1000
0000
0100
0000
1000
0000
0100
1000
0100
1000
,
0100
0000
0000
0000
1000
0000
0001
0000
0010
0000
0001
0000
0010
0001
0010
0001
,
0010
0001
1000
0100
0010
0001
1000
0100
,
0010
0100
1000
0001
0100
0010
1000
0001
,
0010
0100
1000
0001
0100
0001
1000
0010
,
0100
0000
0010
0000
0100
0000
0010
0000
0100
0010
0100
0010
0100
0010
0100
0010
,
0100
0000
0000
0000
,
0000
0000
0000
0000
;

//---------------dance-double - ----------------
#NOTEDATA:;
#CHARTNAME:;
#STEPSTYPE:dance-double;
#DESCRIPTION:;
#CHARTSTYLE:;
#DIFFICULTY:Easy;
#METER:5;
#RADARVALUES:0.271432,0.272225,0.022222,0.000000,0.000000,171.000000,169.000000,2.000000,0.000000,0.000000,0.000000,0.000000,0.000000,0.000000,0.271432,0.272225,0.022222,0.000000,0.000000,171.000000,169.000000,2.000000,0.000000,0.000000,0.000000,0.000000,0.000000,0.000000;
#CREDIT:;
#DISPLAYBPM:136.000000;
#NOTES:
00000000
00000000
00000000
00000000
,
00000000
00000000
00000000
00000000
,
00000000
00000000
00000000
00000000
,
10000000
01000000
00010000
01000000
,
10000000
00100000
00010000
00010000
,
00001000
00000000
00001000
00010000
,
00000010
00000100
00000001
00001000
,
00000001
00000000
00000001
00001000
,
00000010
00001000
00010000
00010000
,
01000000
00000000
01000000
00100000
,
10000000
00010000
01000000
00100000
,
01000000
00000000
00010000
00100000
,
00001000
00001000
00010000
00000000
,
00000010
00000010
00000010
00000010
,
00001000
00001000
00001000
00001000
,
00000100
00000100
00000100
00000100
,
00010000
00010000
00001000
00011000
,
01000000
00000000
00100000
00000000
,
10000000
00000000
00010000
10000000
,
00100000
00100000
01000000
00010000
,
01000000
00000000
00001000
00010000
,
00000100
00000100
00001000
00000010
,
00000100
00000100
00000001
00001000
,
00000010
00000000
00010000
00001000
,
00010000
00010000
00100000
01000000
,
00100000
00100000
01000000
01000000
,
00001000
00010000
00000100
00000100
,
00010000
00010000
00001000
00001000
,
00000100
00000100
00000010
00000010
,
00001000
00000001
00001000
00000010
,
00001000
00000100
00010000
00001000
,
01000000
00010000
01000000
00100000
,
01000000
00000000
00000000
10010000
,
00010000
00000000
01000000
00001000
,
01000000
00100000
10000000
00010000
,
10000000
00000000
10000000
00010000
,
01000000
00010000
00001000
00001000
,
00000010
00000000
00000010
00000100
,
00000001
00001000
00000010
00000100
,
00000010
00000000
00001000
00000100
,
00010000
00010000
00001000
00010000
,
00100000
00100000
00100000
00100000
,
10000000
10000000
01000000
01000000
,
01000000
01000000
00100000
00100000
,
00001000
00001000
00010000
00001000
,
00010000
00000100
00000100
00000100
,
00001000
00000010
00000010
00000010
,
00000100
00000001
00001000
00000010
,
00000100
00000001
00001000
00000010
,
00000100
00000000
00000000
00000000
,
00000000
00000000
00000000
00000000
;

//---------------dance-double - ----------------
#NOTEDATA:;
#CHARTNAME:;
#STEPSTYPE:dance-double;
#DESCRIPTION:;
#CHARTSTYLE:;
#DIFFICULTY:Medium;
#METER:10;
#RADARVALUES:0.406354,0.435560,0.188891,0.000000,0.000000,256.000000,239.000000,17.000000,0.000000,0.000000,0.000000,0.000000,0.000000,0.000000,0.406354,0.435560,0.188891,0.000000,0.000000,256.000000,239.000000,17.000000,0.000000,0.000000,0.000000,0.000000,0.000000,0.000000;
#CREDIT:;
#DISPLAYBPM:136.000000;
#NOTES:
00000000
00000000
00000000
00000000
,
00000000
00000000
00000000
00000000
,
00000000
00000000
00000000
00000000
,
10000000
01000000
00010000
00000000
10000000
01000000
00010000
00000000
,
01000000
00100000
00001000
00010000
,
00000010
00000000
00001000
00000000
00001000
00000001
00001000
00000001
,
00001000
00001000
00000010
00010000
,
00001000
00000000
00001000
00000000
01000000
00010000
01000000
00010000
,
10000000
00100000
10000000
00010000
,
01000000
00000000
00001000
00000000
00010000
00001000
00010000
00001000
,
00010000
00000100
00000100
00001000
,
00000010
00000000
00000010
00000000
00000100
00000001
00000100
00000001
,
00001000
00001000
00001000
00000100
,
00010000
00001000
00010000
00001000
,
00010000
00000100
00010000
00000010
,
00010000
00000000
00001000
00000000
00010000
00001000
00010000
00001000
,
00010000
00001000
01000000
00001000
01000000
00001000
01000000
00001000
,
01000000
00010000
01000000
10000000
,
01000000
00100000
00001000
00010000
00001000
00010000
00010000
00000000
,
00001000
00001000
00010000
00000100
,
00001000
00000000
00001000
00000000
00000010
00000100
00000001
00000000
,
00001000
00000000
00001000
00000000
00000010
00010000
00001000
00000000
,
01000000
00000000
00001000
01000000
00010000
00010000
00010000
00000000
,
10000000
00000000
10000000
00000000
00100000
01000000
00100000
00000000
,
01000000
00000000
00001000
00011000
,
00010100
00010100
00011000
00011000
,
00001000
00010000
00001000
00010000
,
01001000
01001000
00011000
00011000
,
00010000
00001000
00010000
00001000
,
00010000
00010010
00010000
00010100
,
00010000
00010010
00001000
00101000
,
01001000
00101000
01001000
00101000
,
01000000
00001000
01000000
00010000
01000000
00000000
00000000
00000000
,
01000000
00000000
00010000
00000000
00010000
10000000
00010000
10000000
,
00010000
00010000
01000000
00001000
,
00010000
00000000
00010000
00000000
00000010
00001000
00000010
00001000
,
00000001
00000100
00000001
00001000
,
00000010
00000000
00010000
00000000
00001000
00010000
00001000
00010000
,
00001000
00100000
00100000
00010000
,
01000000
00000000
01000000
00000000
00100000
10000000
00100000
10000000
,
00010000
00010000
00010000
00100000
,
00001000
00000000
00010000
00000000
00001000
00010000
00001000
00010000
,
00001000
01000000
01000000
01000000
00100000
01000000
00100000
01000000
,
00010000
01000000
00100000
00000000
00001000
01000000
00010000
00000000
,
01000000
00001000
00010000
00001000
00010000
00001000
00010000
00001000
,
00010000
00000000
00000010
00000000
00001000
00000010
00001000
00000010
,
00000100
00000000
00000100
00000000
00000100
00000001
00000100
00000001
,
00001000
00000010
00000100
00000001
00001000
00000010
00000100
00000001
,
00001000
00000000
00000100
00000000
00010000
00001000
00010000
00001000
,
00010000
00000000
00000000
00000000
,
00000000
00000000
00000000
00000000
;

//---------------dance-double - ----------------
#NOTEDATA:;
#CHARTNAME:;
#STEPSTYPE:dance-double;
#DESCRIPTION:;
#CHARTSTYLE:;
#DIFFICULTY:Hard;
#METER:12;
#RADARVALUES:0.531752,0.544450,0.077779,0.000000,0.083334,335.000000,328.000000,7.000000,0.000000,0.000000,0.000000,0.000000,0.000000,0.000000,0.531752,0.544450,0.077779,0.000000,0.083334,335.000000,328.000000,7.000000,0.000000,0.000000,0.000000,0.000000,0.000000,0.000000;
#CREDIT:;
#DISPLAYBPM:136.000000;
#NOTES:
00000000
00000000
00000000
00000000
,
00000000
00000000
00000000
00000000
,
00000000
00000000
00000000
00000000
,
00000100
00010000
00001000
00010000
00100000
00100000
00100000
00000000
,
10000000
00000000
10000000
00000000
01000000
00010000
00001000
00010000
,
00000010
00001000
00000001
00000000
00000100
00000010
00001000
00000010
,
00010000
00001000
01000000
01000000
00000000
00000000
00010000
00000000
,
10000000
00100000
01000000
00000000
00010000
01000000
00001000
01000000
,
00001000
00010000
00000100
00000100
00000000
00000000
00001000
00000000
,
00000010
00000000
00001000
00000000
00000001
00000000
00000100
00000000
00000010
00000000
00001000
00000000
00000010
00001000
00000010
00001000
,
00000010
00000000
00000100
00000000
00000001
00001000
00000010
00001000
,
00000010
00000000
00010000
00000000
00001000
00000000
00100000
00000000
00010000
00000000
10000000
00000000
00010000
10000000
00010000
10000000
,
00010000
00000000
01000000
00000000
00100000
01000000
01010000
00010000
,
01000000
00000000
00001000
00010000
00000100
00010000
00000010
00000000
,
00001000
00000001
00000100
00000010
00001000
00000001
00001000
00000000
,
00000010
00001000
00000100
00010000
00001000
00010000
00001000
01000000
,
00100000
00000000
01000000
00000000
00010000
00000000
10000000
00000000
00100000
00000000
10000000
00000000
00100000
10000000
00100000
10000000
,
00100000
01000000
01100000
00000000
00010000
00100000
00110000
00000000
,
00001000
00010000
00000010
00000100
00000001
00001000
00001001
00000000
,
00000001
00000100
00000010
00001000
00000100
00010000
00010100
00000000
,
00001000
01000000
00010000
10000000
00100000
10000000
10100000
00000000
,
10000000
00000000
00010000
00000000
00001000
00000000
00000001
00000001
,
00000001
00000000
00001000
00000000
00010000
00000000
10000000
00100000
,
01000000
00010000
10000000
00100000
01000000
01000000
01000000
00010000
,
00100000
00000000
00000000
00001000
00010000
00000010
00001000
00000000
,
00000010
00000000
00000000
00001000
00000010
00000000
00001000
00000000
00000001
00000000
00000100
00000000
00000001
00000000
00001000
00000000
,
00000010
00001000
00000100
00010000
01000000
00100000
00010000
10000000
,
00100000
00000000
00000000
10000000
00100000
00000000
10000000
00000000
00010000
00000000
01000000
00000000
00010000
00000000
00100000
00000000
,
00010000
00001000
00000010
00001000
00000001
00000100
00000010
00001000
,
00000100
00010000
00000100
00010000
00000010
00010000
00000010
00010000
,
00001000
01000000
00001000
01000000
00001000
00100000
00001000
00100000
,
00010000
10000000
00100000
01000000
00010000
10000000
00100000
01000000
,
00010000
00000000
00000000
10000000
00010000
00000000
10000000
00000000
00000000
00000000
00000000
00000000
00010000
00000000
00010000
00000000
,
01000000
00010000
10000000
00000000
00100000
01000000
00010000
01000000
,
00001000
00010000
00000010
00000010
00000000
00000000
00001000
00000000
,
00000001
00000100
00000010
00000000
00001000
00000010
00010000
00000010
,
00010000
00001000
00100000
00100000
00000000
00000000
00010000
00000000
,
01000000
00000000
00010000
00000000
10000000
00000000
00100000
00000000
01000000
00000000
00010000
00000000
01000000
00010000
01000000
00010000
,
01000000
00000000
00100000
00000000
10000000
00010000
01000000
00010000
,
01000000
00000000
00001000
00000000
00010000
00000000
00000100
00000000
00001000
00000000
00000001
00000000
00001000
00000001
00001000
00000001
,
00001000
00000000
00000010
00000000
00000100
00000010
00001010
00001000
,
00000010
00000000
00010000
00001000
00100000
00001000
01000000
00000000
,
00010000
10000000
00100000
01000000
00010000
10000000
00010000
00000000
,
01000000
00010000
00100000
00001000
00010000
00001000
00010000
00000010
,
00000100
00000000
00000010
00000000
00001000
00000000
00000001
00000000
00000100
00000000
00000001
00000000
00000100
00000001
00000100
00000001
,
00000100
00000000
00000010
00000000
00010000
00001000
00010000
00001000
,
01000000
00010000
00100000
01000000
10000000
00010000
10000000
00010000
,
01000000
00001000
00100000
00000000
01000000
00001000
00100000
00000000
,
01000000
00001000
00010000
00000010
00001000
00000001
00000100
00000010
,
00001000
00000000
00000000
00000000
,
00000000
00000000
00000000
00000000
;

//---------------dance-single - ----------------
#NOTEDATA:;
#CHARTNAME:;
#STEPSTYPE:dance-single;
#DESCRIPTION:;
#CHARTSTYLE:;
#DIFFICULTY:Challenge;
#METER:15;
#RADARVALUES:0.819057,0.816676,0.333337,0.111112,1.138902,516.000000,486.000000,30.000000,10.000000,0.000000,0.000000,0.000000,0.000000,0.000000,0.819057,0.816676,0.333337,0.111112,1.138902,516.000000,486.000000,30.000000,10.000000,0.000000,0.000000,0.000000,0.000000,0.000000;
#CREDIT:;
#DISPLAYBPM:136.000000;
#NOTES:
0000
0000
0000
0000
,
0000
0000
0000
0000
,
0000
0000
0000
0000
,
0100
0000
0000
0001
0010
0100
1000
0000
0001
0000
0001
0000
0001
0000
0000
0000
,
0011
0000
0001
0100
0010
0000
1000
0001
0100
0000
0010
1000
0100
0010
0001
1000
,
0010
0000
0000
0100
0001
0000
0010
0100
0000
0100
1000
0000
0001
0000
0100
0000
,
0110
0000
0000
1001
0000
0000
0110
0000
1000
0010
1000
0000
0001
0000
0100
0000
,
0010
0000
0000
1000
0001
0000
0010
0100
0000
0100
1000
0000
0010
0000
0100
0000
,
0101
0000
0000
1100
0000
0000
0101
0000
0001
0000
0010
0000
0100
0000
1000
0000
,
0010
1000
0000
1000
0100
0000
0010
0001
0000
0001
0100
0000
0010
0000
1000
0000
,
1100
0000
0000
0110
0000
0000
0011
0000
1000
0001
1000
0010
0100
0000
0001
0000
,
0010
0100
0000
0100
1000
0000
0001
1000
0000
1000
0010
0000
0100
0000
0001
0000
,
0011
0000
0000
1010
0000
0000
0101
0000
1000
0000
0010
0000
0100
0000
0001
0000
,
0010
0000
0100
1000
0000
0001
0100
0010
0100
0001
0100
0010
1000
0001
1000
0100
,
0010
0001
1000
0001
0000
0100
0010
0000
1000
0001
0010
0001
0010
0100
1000
0000
,
0001
0100
0001
0100
0010
1000
0010
1000
0100
1000
0100
1000
0001
0010
0001
0010
,
0100
0000
1000
0000
0010
0000
1000
0000
0001
0010
0100
1000
0100
0010
0001
0000
,
0110
0000
0001
1000
0000
0000
0000
0010
1000
0000
0001
0100
0000
0000
0020
0000
,
1030
0000
0010
0100
0000
0100
0001
1000
0001
0000
0010
0100
2000
0000
3002
0000
,
0103
0001
1000
0001
0010
0100
1000
0001
0000
0100
0000
0100
0010
0000
2000
0000
,
3001
0000
0010
0001
0000
1000
0010
0100
0010
1000
0001
0000
0200
0000
0000
0000
,
0310
0000
0000
0000
1001
0000
0000
0100
0000
0001
1000
0000
0001
0000
0020
0000
,
0130
1000
0010
1000
0001
0010
0100
1000
0000
0001
0000
1000
0002
0000
0203
0000
,
0310
0000
1000
0000
0100
0000
1000
0001
0000
0010
0000
0010
0000
0000
0200
0000
,
1300
0000
0001
1000
0000
0010
0100
0010
1000
0000
0001
0000
0110
0000
0000
0000
,
1010
0000
0010
0100
0000
0010
0100
0000
0001
0010
0001
1000
0010
0100
0010
1000
,
0000
0001
0010
0100
0000
1000
0010
0100
0000
0001
1000
0001
0000
0100
0010
0000
,
0000
0000
1000
0001
0000
1000
0001
0000
0010
0001
1000
0010
0000
0100
0000
0001
,
0000
0000
0010
0100
0000
1000
0000
0001
0000
1000
0010
1000
0001
0000
0200
0000
,
0310
0000
0100
0001
0000
0100
0001
0000
1000
0010
0100
0010
1000
0100
0010
0100
,
0000
0000
1000
0001
0000
1000
0001
0000
0010
0001
0010
0100
1000
0010
1000
0001
,
0100
0010
0100
0001
0100
0010
0100
0001
1000
0010
1000
0001
1000
0010
1000
0001
,
0100
0000
0010
1000
0000
0010
1000
0000
0001
0000
0010
0000
0100
0000
1000
0000
,
0001
0000
0000
0100
0001
0000
1000
0010
0000
0010
0100
0000
0001
0000
0010
0000
,
0011
0000
0000
1010
0000
0000
1100
0000
1000
0010
0100
0001
1000
0000
0001
0000
,
0010
0100
0000
0010
0001
0000
1000
0001
0000
1000
0010
0000
0100
0000
0001
0000
,
1001
0000
0000
1010
0000
0000
0110
0000
0100
0001
1000
0000
0001
0000
0010
0000
,
0100
0000
0000
1000
0001
0000
1000
0010
0000
0100
0001
0000
1000
0000
0001
0000
,
0101
0000
0000
1100
0000
0000
0011
0000
1000
0001
1000
0010
0100
0000
0001
0000
,
0010
0001
0000
0001
1000
0000
0010
1000
0000
1000
0100
0000
0010
0000
0001
0000
,
1001
0000
0000
0110
0000
0000
1001
0000
1000
0000
0010
0000
0100
0000
0001
0000
,
0010
0001
0010
0100
0000
1000
0001
0000
1000
0010
0100
0010
1000
0001
0010
0100
,
1000
0001
0010
0001
0000
0100
0000
0100
0000
0001
0010
0100
1000
0001
0100
0000
,
0010
1000
0001
1000
0000
0100
0000
0100
0000
0010
0001
1000
0001
0100
0010
0000
,
1000
0010
0100
0001
0000
0010
0000
0010
0000
0000
0001
1000
0100
1000
0001
0000
,
0100
0010
0100
0001
0000
1000
0001
0000
1000
0010
1000
0001
0010
0100
1000
0000
,
0001
0100
0001
0010
0000
0100
0000
1000
0000
0001
1000
0010
1000
0001
0100
0000
,
0010
1000
0001
0100
0000
0001
1000
0000
0001
0100
0010
0100
0001
1000
0100
0000
,
1000
0100
1000
0001
0000
0010
0000
0001
0100
0010
1000
0001
0010
0100
1000
0000
,
1100
0000
0000
0000
;

//---------------dance-single - ----------------
#NOTEDATA:;
#CHARTNAME:;
#STEPSTYPE:dance-single;
#DESCRIPTION:;
#CHARTSTYLE:;
#DIFFICULTY:Beginner;
#METER:2;
#RADARVALUES:0.119049,0.190558,0.055556,0.066667,0.000000,75.000000,70.000000,5.000000,6.000000,0.000000,0.000000,0.000000,0.000000,0.000000,0.119049,0.190558,0.055556,0.066667,0.000000,75.000000,70.000000,5.000000,6.000000,0.000000,0.000000,0.000000,0.000000,0.000000;
#CREDIT:;
#DISPLAYBPM:136.000000;
#NOTES:
// measure 0
0000
0000
0000
0000
,  // measure 1
0000
0000
0000
0000
,  // measure 2
0000
0000
0000
0000
,  // measure 3
0001
0000
0000
0000
,  // measure 4
1000
0000
0001
0000
,  // measure 5
0100
0100
0000
0000
,  // measure 6
0010
0000
1000
0000
,  // measure 7
0001
0001
0000
0000
,  // measure 8
0010
0000
0100
0000
,  // measure 9
1000
1000
0000
0000
,  // measure 10
0010
0000
1000
0000
,  // measure 11
0001
0001
0000
0000
,  // measure 12
0010
0000
0001
0000
,  // measure 13
0200
0000
0000
0000
,  // measure 14
0000
0000
0300
0000
,  // measure 15
0020
0000
0000
0000
,  // measure 16
0000
0000
0030
0000
,  // measure 17
1000
0000
0001
0000
,  // measure 18
0010
0000
0001
0000
,  // measure 19
0100
0100
0100
0000
,  // measure 20
0010
0000
1000
0000
,  // measure 21
0001
0001
0001
0000
,  // measure 22
1000
0000
0100
0000
,  // measure 23
0010
0000
0010
0000
,  // measure 24
0001
0000
1000
0000
,  // measure 25
0000
1001
0000
0000
,  // measure 26
0000
0000
0000
0000
,  // measure 27
0000
0110
0000
0000
,  // measure 28
0000
0000
0000
0000
,  // measure 29
1000
1000
0000
0000
,  // measure 30
0001
0001
0000
0000
,  // measure 31
0100
0100
0000
0000
,  // measure 32
1001
0000
0110
0000
,  // measure 33
0010
0010
0000
0000
,  // measure 34
1000
0000
0100
0000
,  // measure 35
1000
1000
0000
0000
,  // measure 36
0001
0000
0010
0000
,  // measure 37
0100
0100
0000
0000
,  // measure 38
0010
0000
0001
0000
,  // measure 39
1000
1000
0000
0000
,  // measure 40
0001
0000
0100
0000
,  // measure 41
0020
0000
0000
0000
,  // measure 42
0000
0000
0030
0000
,  // measure 43
2000
0000
0000
0000
,  // measure 44
0000
0000
3000
0000
,  // measure 45
0002
0000
0000
0000
,  // measure 46
0000
0000
0003
0000
,  // measure 47
0200
0000
0000
0000
,  // measure 48
0000
0000
0300
0000
,  // measure 49
0110
0000
0000
0000
;
