#VERSION:0.83;
#TITLE:TOGETHER & FOREVER;
#SUBTITLE:;
#ARTIST:NINEBALL feat. ATOMIC GUN & JULIA;
#TITLETRANSLIT:;
#SUBTITLETRANSLIT:;
#ARTISTTRANSLIT:;
#GENRE:;
#ORIGIN:;
#CREDIT:;
#BANNER:TOGETHER & FOREVER-bn.png;
#BACKGROUND:TOGETHER & FOREVER-bg.png;
#PREVIEWVID:;
#JACKET:TOGETHER & FOREVER-jacket.png;
#CDIMAGE:;
#DISCIMAGE:;
#LYRICSPATH:;
#CDTITLE:;
#MUSIC:TOGETHER & FOREVER.ogg;
#OFFSET:0.000000;
#SAMPLESTART:39.985001;
#SAMPLELENGTH:20.000000;
#SELECTABLE:YES;
#DISPLAYBPM:150.000000;
#BPMS:0.000=150.057;
#STOPS:;
#DELAYS:;
#WARPS:;
#TIMESIGNATURES:0.000=4=4;
#TICKCOUNTS:0.000=4;
#COMBOS:0.000=1;
#SPEEDS:0.000=1.000=0.000=0;
#SCROLLS:0.000=1.000;
#FAKES:;
#LABELS:0.000=Song Start;
#BGCHANGES:;
#KEYSOUNDS:;
#ATTACKS:
;

//---------------dance-single - ----------------
#NOTEDATA:;
#CHARTNAME:;
#STEPSTYPE:dance-single;
#DESCRIPTION:;
#CHARTSTYLE:;
#DIFFICULTY:Easy;
#METER:6;
#RADARVALUES:0.249481,0.334249,0.064680,0.000000,0.000000,162.000000,156.000000,6.000000,0.000000,0.000000,0.000000,0.000000,0.000000,0.000000,0.249481,0.334249,0.064680,0.000000,0.000000,162.000000,156.000000,6.000000,0.000000,0.000000,0.000000,0.000000,0.000000,0.000000;
#CREDIT:;
#DISPLAYBPM:150.000000;
#NOTES:
0000
0000
0000
0000
,
0000
0000
0000
0000
,
0000
0000
0000
0000
,
0000
0000
0000
0000
,
0000
0000
0000
0000
,
0000
0000
0001
0010
,
0000
0000
1000
0100
,
0000
0000
0010
0010
,
0000
0000
0100
0001
,
0000
0000
1000
0100
,
0001
0000
1000
0000
,
0000
0000
0010
0010
,
0000
0000
0100
0100
,
0000
0000
0001
0100
,
0000
0001
0010
1001
,
0000
0000
1000
0100
,
0000
1000
0010
1001
,
0000
0000
0100
0001
,
0000
0100
0010
1001
,
0000
0000
0010
0100
,
1001
0110
1001
0100
,
1000
0000
0000
0100
,
0001
0000
0000
0000
,
0010
0010
0100
0100
,
0001
0001
0001
0001
,
0010
0001
0100
0000
,
0100
1000
0010
0000
,
1000
1000
0001
0001
,
0100
0100
0010
0010
,
0010
0001
0100
0000
,
0100
1000
0010
0000
,
0010
0010
0100
0100
,
1000
1000
0001
0001
,
0010
0001
1000
0100
,
0010
0000
0010
0000
0010
0000
1000
0001
,
0000
0000
0010
0001
,
0000
0000
0100
1000
,
0001
0010
1000
0100
,
0010
0000
0010
0000
0010
0000
1000
0001
,
0000
0000
0100
0100
,
0001
0001
1000
1000
,
0100
0000
0001
0000
,
0100
0000
1000
0000
,
0001
0001
1000
1000
,
0010
0010
0100
0100
,
0100
0000
0001
0000
,
0100
0000
1000
0000
,
0010
1000
0100
0001
,
0001
1000
0000
0000
,
0001
0001
0010
0001
,
1000
1000
0010
1000
,
0010
0010
0100
0100
,
0010
0000
0010
0010
0000
0000
0000
0000
,
1000
1000
0010
1000
,
0001
0001
0010
0001
,
0100
0100
0010
0010
,
0100
0000
0100
0100
0000
0000
0000
0000
;

//---------------dance-single - ----------------
#NOTEDATA:;
#CHARTNAME:;
#STEPSTYPE:dance-single;
#DESCRIPTION:;
#CHARTSTYLE:;
#DIFFICULTY:Medium;
#METER:8;
#RADARVALUES:0.355741,0.455794,0.097020,0.000000,0.000000,231.000000,222.000000,9.000000,0.000000,0.000000,0.000000,0.000000,0.000000,0.000000,0.355741,0.455794,0.097020,0.000000,0.000000,231.000000,222.000000,9.000000,0.000000,0.000000,0.000000,0.000000,0.000000,0.000000;
#CREDIT:;
#DISPLAYBPM:150.000000;
#NOTES:
0000
0000
0000
0000
,
0000
0000
0000
0000
,
0000
0000
0000
0000
,
0000
0000
0000
0000
,
0000
0000
0000
0000
,
0001
0000
0010
0000
0000
1000
0001
0000
,
0010
0000
0010
0000
0001
1000
0001
0000
,
1000
0000
0010
0000
0000
0001
1000
0000
,
0010
0000
0010
0000
1000
0001
1000
0000
,
0100
1000
0100
0001
,
0010
0010
1001
0000
,
0000
0000
0010
0001
,
0000
0000
0010
1000
,
0010
1000
0001
0000
1000
0001
0100
0000
,
0000
0000
1001
1001
,
0010
0001
0010
0000
1000
0010
1000
0000
,
0100
0010
0100
0010
0100
0000
1001
0000
,
0000
0000
0000
0000
0100
0100
0100
0000
,
0010
1000
0001
0010
0100
0000
1001
0000
,
0000
0000
0000
0000
0001
0001
0001
0000
,
0010
0001
1000
0010
0100
0000
0000
0000
,
0000
0000
0100
0001
0010
0000
0000
0000
,
0000
0000
0100
1000
0010
0000
0000
0000
,
0100
0010
0100
0010
1000
0001
0100
0001
,
1000
0010
1000
0100
,
0010
0000
0001
0010
0000
0001
0100
0000
,
0010
0000
1000
0010
0000
1000
0100
0000
,
1001
0110
0001
0100
,
0010
0001
0100
1000
,
0010
0000
1000
0010
0000
1000
0100
0000
,
0010
0000
0001
0010
0000
0001
0100
0000
,
1001
0110
1000
0100
,
0010
1000
0100
0001
,
0001
0100
1000
0100
,
0001
1000
0001
0000
0100
0000
0100
0100
,
0000
0000
0100
0001
,
0010
1000
0100
0001
,
1000
0100
0001
0100
,
1000
0001
1000
0000
0100
0000
0100
0100
,
0000
0000
0100
1000
,
1000
0100
0001
0100
,
1000
0100
1000
0000
0000
0100
0100
0000
,
1000
0100
1000
0000
0000
0100
0100
0000
,
0010
0001
0100
1000
,
1000
0100
0001
0010
,
0010
0100
0010
0000
0000
1000
1000
0000
,
0100
0010
0100
0000
0000
0001
0001
0000
,
0010
0010
0000
0000
1000
1000
0000
0000
,
0100
0010
0000
0000
,
0001
0100
0001
0000
0000
0100
1000
0000
,
1000
0100
1000
0000
0000
0100
0001
0000
,
0001
0100
0001
0000
0000
0100
1000
0000
,
0010
0000
0001
0001
0000
0000
0000
0000
,
0001
0100
0001
0000
0000
0100
1000
0000
,
1000
0100
1000
0000
0000
0100
0001
0000
,
0001
0100
0001
0000
0000
0100
1000
0000
,
1000
0000
0100
0100
0000
0000
0000
0000
;

//---------------dance-single - ----------------
#NOTEDATA:;
#CHARTNAME:;
#STEPSTYPE:dance-single;
#DESCRIPTION:;
#CHARTSTYLE:;
#DIFFICULTY:Hard;
#METER:10;
#RADARVALUES:0.409642,0.486180,0.075460,0.000000,0.000000,266.000000,259.000000,7.000000,0.000000,0.000000,0.000000,0.000000,0.000000,0.000000,0.409642,0.486180,0.075460,0.000000,0.000000,266.000000,259.000000,7.000000,0.000000,0.000000,0.000000,0.000000,0.000000,0.000000;
#CREDIT:;
#DISPLAYBPM:150.000000;
#NOTES:
0000
0000
0000
0000
,
0000
0000
0000
0000
,
0000
0000
0000
0000
,
0000
0000
0000
0000
,
0000
0000
0000
0000
,
0010
0000
0100
0010
0000
0100
0010
0000
,
0001
0000
1000
0001
0000
1000
0001
0000
,
1000
0000
0001
1000
0000
0001
1000
0000
,
0100
0000
0010
0100
0000
0010
0100
0000
,
1000
0000
0001
1000
0000
0001
1000
0000
,
0001
0000
1000
0001
0000
1000
0001
0000
,
1000
1000
1000
1000
,
0001
0001
0001
0001
,
0010
0100
1000
0000
0010
0100
0001
0000
,
0010
0100
1000
0010
0100
0000
1001
0000
,
0010
1000
0100
0000
0010
0001
0100
0000
,
0010
0100
1000
0010
0100
0000
1001
0000
,
0010
0100
0001
0000
0100
0001
1000
0000
,
1000
0100
0010
0001
1000
0000
0110
0000
,
0001
1000
0100
0010
0001
1000
1000
0000
,
0010
1000
0010
0100
0010
0000
0000
0000
,
0001
1000
0010
0000
,
0100
0001
0010
0000
,
0100
1000
0010
0100
0001
0010
0100
1000
,
1100
0011
0110
1001
,
0000
0001
0000
0001
,
0000
0010
0100
1000
,
0000
0001
0000
0001
,
0000
0100
0010
1000
,
0000
0001
0000
0001
,
0000
0010
0100
1000
,
0000
0001
0000
0001
,
0000
1000
0001
0010
,
0001
0000
0001
0000
1000
0010
0100
0000
,
1000
0000
1000
0000
0001
0010
0100
0000
,
0001
0000
0001
0000
0100
0010
1000
0000
,
1000
0000
1000
0000
0100
0010
0001
0000
,
0010
0000
0100
0000
0001
0100
0010
0000
,
1000
0000
0010
0000
1000
0100
0010
0000
,
0100
0000
0001
0000
0100
0010
1000
0000
,
0001
0100
0100
0100
,
0010
1000
0100
1000
0010
1000
0100
1000
,
0010
1000
0100
1000
0010
1000
0100
0000
,
0010
0001
0100
0001
0010
0001
0100
0001
,
0010
0001
0100
0001
0010
0001
0100
0000
,
0010
1000
0100
1000
0010
1000
0100
0010
,
0001
0100
0001
1000
0010
1000
0100
0000
,
0010
0001
0100
0001
0010
0001
0100
0010
,
1000
0100
1000
0001
0010
0001
0100
0000
,
0001
0000
0100
0001
0000
0100
0001
0000
,
1000
0000
0100
1000
0000
0100
1000
0000
,
0001
0000
0100
0001
0000
0100
0001
0000
,
1000
0000
0100
1000
0000
0000
0000
0000
,
0001
0000
0100
0010
0000
0100
0010
0000
,
1000
0000
0100
0001
0000
0100
1000
0000
,
0010
0000
0100
0010
0000
0100
0010
0000
,
1000
0000
0100
0001
0000
0000
0000
0000
;

//---------------dance-double - ----------------
#NOTEDATA:;
#CHARTNAME:;
#STEPSTYPE:dance-double;
#DESCRIPTION:;
#CHARTSTYLE:;
#DIFFICULTY:Easy;
#METER:5;
#RADARVALUES:0.215601,0.334249,0.032340,0.000000,0.000000,140.000000,137.000000,3.000000,0.000000,0.000000,0.000000,0.000000,0.000000,0.000000,0.215601,0.334249,0.032340,0.000000,0.000000,140.000000,137.000000,3.000000,0.000000,0.000000,0.000000,0.000000,0.000000,0.000000;
#CREDIT:;
#DISPLAYBPM:150.000000;
#NOTES:
00000000
00000000
00000000
00000000
,
00000000
00000000
00000000
00000000
,
00000000
00000000
00000000
00000000
,
00000000
00000000
00000000
00000000
,
00000000
00000000
00000000
00000000
,
00000000
00000000
00000000
00000000
,
00000000
00000000
00000000
00000000
,
00000000
00100000
00000000
10000000
,
00000000
01000000
00000000
00010000
,
00000000
00000010
00000000
00000001
,
00000000
00000100
00000000
00010000
,
00100000
00100000
00100000
00100000
,
01000000
01000000
01000000
01000000
,
00100000
00010000
00100000
00010000
,
00100000
00010000
00001000
00000000
,
00000010
00001000
00000010
00001000
,
00000010
00001000
00010000
00000000
,
00100000
00010000
00100000
00010000
,
00100000
00010000
00001000
00011000
,
00000010
00001000
00000010
00001000
,
00000010
00001000
00011000
00010000
,
00100000
00000000
00000000
01000000
,
00010000
00000000
00000000
00000000
,
00100000
00000000
01000000
00000000
,
00010000
00010000
00010000
00010000
,
00000010
00000001
00000100
00000000
,
00000100
00000001
00000010
00000010
,
00000010
00001000
00000100
00000000
,
00000100
00000000
00010000
00000000
,
00100000
00010000
01000000
00000000
,
01000000
10000000
00100000
00100000
,
00100000
00100000
01000000
00000000
,
10000000
10000000
00010000
00010000
,
10000000
00100000
00010000
00100000
,
10000000
00100000
00010000
00100000
,
00000000
01000000
00000000
00001000
,
00000000
00010000
00000000
00000010
,
00000001
00000010
00001000
00000010
,
00000001
00000010
00001000
00000010
,
00000000
00001000
00000000
00010000
,
00001000
00001000
00010000
00010000
,
00011000
00000000
00000000
00000000
,
10000000
00000000
00000000
00000000
,
00000001
00000000
00000000
00000000
,
00001000
00001000
00010000
00010000
,
00000010
00000000
00000000
00000000
,
01000000
00000000
00000000
00000000
,
00100000
00000000
00000000
00000000
,
00000100
00000000
00000000
00000000
,
00000000
00100000
00000000
10000000
,
00000000
01000000
00000000
00010000
,
00000000
00000010
00000000
00000001
,
00000000
00000100
00000000
00001000
,
00100000
00100000
00000000
00000000
,
00010000
00010000
00000000
00000000
,
00001000
00001000
00000100
00000100
,
00000010
00000000
00000001
00000100
00000000
00000000
00000000
00000000
;

//---------------dance-double - ----------------
#NOTEDATA:;
#CHARTNAME:;
#STEPSTYPE:dance-double;
#DESCRIPTION:;
#CHARTSTYLE:;
#DIFFICULTY:Medium;
#METER:7;
#RADARVALUES:0.266421,0.334249,0.140141,0.000000,0.000000,173.000000,160.000000,13.000000,0.000000,0.000000,0.000000,0.000000,0.000000,0.000000,0.266421,0.334249,0.140141,0.000000,0.000000,173.000000,160.000000,13.000000,0.000000,0.000000,0.000000,0.000000,0.000000,0.000000;
#CREDIT:;
#DISPLAYBPM:150.000000;
#NOTES:
00000000
00000000
00000000
00000000
,
00000000
00000000
00000000
00000000
,
00000000
00000000
00000000
00000000
,
00000000
00000000
00000000
00000000
,
00000000
00000000
00000000
00000000
,
00000000
00000000
00000000
00000000
,
00000000
00000000
00000000
00000000
,
01000000
00100000
00000000
00001000
,
00000010
00000100
00000000
00000010
,
00001000
00000010
00000000
00001000
,
00010000
01000000
10000000
00100000
,
00100000
00010000
00100000
00000000
01000000
00000000
00010000
00000000
,
00100000
10000000
00100000
00000000
01000000
00000000
10000000
00000000
,
00100000
00000000
00100000
00000000
,
00100000
00010000
00001000
00000100
00000001
00000000
00000000
00000000
,
00000010
00000000
00000010
00000000
,
00000010
00001000
00010000
00011000
,
00100000
00000000
00100000
00000000
,
00100000
00010000
00001000
00000100
00000001
00000000
00000000
00000000
,
00000010
00000000
00000010
00000000
,
00000010
00000000
00001000
00000000
00011000
00000000
00100000
00010000
,
00100000
00000000
00000000
00000000
00000000
00000000
01000000
10000000
,
00010000
00000000
00000000
00000000
,
00100000
01000000
10000000
00010000
,
00010000
00010000
00001000
00001000
,
00000010
00001000
00000001
00000000
00000100
00000000
00000000
00000000
,
00000100
00000001
00000010
00000010
,
00000010
00000001
00001000
00000000
00000100
00000000
00000000
00000000
,
00000010
00001000
00010000
01000000
,
00100000
10000000
00010000
00000000
01000000
00000000
00000000
00000000
,
01000000
10000000
00100000
00100000
,
00100000
01000000
00100000
00000000
01000000
00000000
00000000
00000000
,
00100000
00100000
01000000
01000000
,
11000000
00100000
00010000
00100000
,
01010000
00000000
00100000
00000000
10000000
00000000
00100000
01000000
,
00000000
00000000
00000000
00001000
,
00000000
00010000
00000000
00000010
,
00000011
00000100
00001000
00000100
,
00001010
00000000
00000100
00000000
00000001
00000000
00000100
00000010
,
00000000
00000000
00000000
00000000
,
00001000
00000000
00001000
00000000
00010000
00000000
00010000
00001000
,
00010000
00000000
00000000
00000000
,
10100000
00000000
00000000
00000000
,
00011000
00000000
00000000
00000000
,
00000101
00000101
00001000
00001000
,
00010000
00000000
00000000
01000000
00000000
00000000
00000000
00000000
,
10000000
00000000
00000000
01000000
00000000
00000000
00000000
00000000
,
00011000
00000000
00000000
00000010
00000000
00000000
00000000
00000000
,
00000101
00000101
00001000
00001000
,
01000000
00100000
00000000
10000000
,
00100000
01000000
00000000
00010000
,
00001000
00000010
00000000
00001000
,
00000001
00000000
00000100
00001000
00000000
00000000
00000000
00000000
,
00000000
00000000
00000000
00000000
,
00010000
00001000
00010000
00000000
00000000
00000000
00010000
00000000
,
00001000
00001000
00000100
00000100
,
00000010
00000000
00000001
00000100
00000000
00000000
00000000
00000000
;

//---------------dance-solo - ----------------
#NOTEDATA:;
#CHARTNAME:;
#STEPSTYPE:dance-solo;
#DESCRIPTION:;
#CHARTSTYLE:;
#DIFFICULTY:Easy;
#METER:3;
#RADARVALUES:0.249481,0.334249,0.064680,0.000000,0.000000,162.000000,156.000000,6.000000,0.000000,0.000000,0.000000,0.000000,0.000000,0.000000,0.249481,0.334249,0.064680,0.000000,0.000000,162.000000,156.000000,6.000000,0.000000,0.000000,0.000000,0.000000,0.000000,0.000000;
#CREDIT:;
#DISPLAYBPM:150.000000;
#NOTES:
000000
000000
000000
000000
,
000000
000000
000000
000000
,
000000
000000
000000
000000
,
000000
000000
000000
000000
,
000000
000000
000000
000000
,
000000
000000
000010
000010
,
000000
000000
010000
010000
,
000000
000000
000100
000100
,
000000
000000
001000
000001
,
000000
000000
100000
001000
,
000001
000000
100000
000000
,
000000
000000
000100
000100
,
000000
000000
001000
001000
,
000000
000000
000001
001000
,
000000
000001
000100
010010
,
000000
000000
100000
001000
,
000000
100000
000100
010010
,
000000
000000
001000
000001
,
000000
000010
000100
100001
,
000000
000000
000100
001000
,
100001
001100
100001
001000
,
100000
000000
000000
001000
,
000001
000000
000000
000000
,
000100
000100
001000
001000
,
000001
000001
000001
000001
,
000100
000001
001000
000000
,
001000
100000
000100
000000
,
100000
100000
000001
000001
,
001000
001000
000100
000100
,
000100
000001
001000
000000
,
001000
100000
000100
000000
,
000100
000100
001000
001000
,
100000
100000
000001
000001
,
000010
000010
010000
010000
,
000100
000000
000100
000000
000100
000000
010000
000010
,
000000
000000
000100
000001
,
000000
000000
001000
100000
,
000010
000010
010000
010000
,
000100
000000
000100
000000
000100
000000
010000
000010
,
000000
000000
001000
001000
,
000001
000001
100000
100000
,
001000
000000
000001
000000
,
001000
000000
100000
000000
,
000001
000001
100000
100000
,
000100
000100
001000
001000
,
001000
000000
000001
000000
,
001000
000000
100000
000000
,
000100
100000
001000
000001
,
000001
100000
000000
000000
,
000001
000001
000010
000010
,
100000
100000
010000
010000
,
000100
000100
001000
001000
,
000100
000000
000100
000100
000000
000000
000000
000000
,
100000
100000
010000
010000
,
000001
000001
000010
000010
,
001000
001000
000100
000100
,
001000
000000
001000
001000
000000
000000
000000
000000
;

//---------------dance-solo - ----------------
#NOTEDATA:;
#CHARTNAME:;
#STEPSTYPE:dance-solo;
#DESCRIPTION:;
#CHARTSTYLE:;
#DIFFICULTY:Medium;
#METER:6;
#RADARVALUES:0.358821,0.455794,0.118580,0.000000,0.000000,233.000000,222.000000,11.000000,0.000000,0.000000,0.000000,0.000000,0.000000,0.000000,0.358821,0.455794,0.118580,0.000000,0.000000,233.000000,222.000000,11.000000,0.000000,0.000000,0.000000,0.000000,0.000000,0.000000;
#CREDIT:;
#DISPLAYBPM:150.000000;
#NOTES:
000000
000000
000000
000000
,
000000
000000
000000
000000
,
000000
000000
000000
000000
,
000000
000000
000000
000000
,
000000
000000
000000
000000
,
000010
000000
000010
000000
000000
100000
000001
000000
,
000100
000000
000100
000000
000001
100000
000001
000000
,
010000
000000
010000
000000
000000
000001
100000
000000
,
000100
000000
000100
000000
100000
000001
100000
000000
,
001000
010000
001000
000010
,
000100
000100
010010
000000
,
000000
000000
000100
000011
,
000000
000000
000100
110000
,
000100
100000
000001
000000
100000
000001
001000
000000
,
000000
000000
100001
010010
,
000010
000010
000010
000000
010000
010000
010000
000000
,
001000
001000
001000
001000
001000
000000
100001
000000
,
000000
000000
000000
000000
001000
001000
001000
000000
,
000100
100000
000001
000100
001000
000000
100001
000000
,
000000
000000
000000
000000
000001
000001
000001
000000
,
000100
000001
100000
000100
001000
000000
000000
000000
,
000000
000000
001000
000001
000010
000000
000000
000000
,
000000
000000
001000
100000
010000
000000
000000
000000
,
001000
001000
001000
001000
100000
000001
001000
000001
,
010000
010000
010000
010000
,
000100
000000
000001
000100
000000
000010
000010
000000
,
000100
000000
000001
000100
000000
000010
000010
000000
,
000101
000110
000001
001000
,
000100
000001
001000
100000
,
000100
000000
100000
000100
000000
010000
010000
000000
,
000100
000000
100000
000100
000000
010000
010000
000000
,
100100
010100
100000
001000
,
000100
100000
001000
000001
,
000001
001000
100000
001000
,
000001
100000
000001
000000
001000
000000
001000
001000
,
000000
000000
001000
000001
,
000100
100000
001000
000001
,
100000
001000
000001
001000
,
100000
000001
100000
000000
001000
000000
001000
001000
,
000000
000000
001000
100000
,
100000
001000
000001
001000
,
100000
001000
100000
000000
000000
001000
001000
000000
,
010000
001000
010000
000000
000000
001000
001000
000000
,
000100
000001
001000
100000
,
100000
001000
000001
000100
,
000100
001000
000100
000000
000000
100000
100000
000000
,
001000
000100
001000
000000
000000
000001
000001
000000
,
000100
000100
000000
000000
100000
100000
000000
000000
,
001000
000010
000000
000000
,
000001
001000
000001
000000
000000
001000
100000
000000
,
100000
001000
100000
000000
000000
001000
000001
000000
,
000001
001000
000001
000000
000000
001000
100000
000000
,
000100
000000
000001
000001
000000
000000
000000
000000
,
000001
001000
000001
000000
000000
001000
100000
000000
,
100000
001000
100000
000000
000000
001000
000001
000000
,
000001
001000
000001
000000
000000
001000
100000
000000
,
100000
000000
001000
001000
000000
000000
000000
000000
;

//---------------dance-solo - ----------------
#NOTEDATA:;
#CHARTNAME:;
#STEPSTYPE:dance-solo;
#DESCRIPTION:;
#CHARTSTYLE:;
#DIFFICULTY:Hard;
#METER:7;
#RADARVALUES:0.409642,0.486180,0.075460,0.000000,0.000000,266.000000,259.000000,7.000000,0.000000,0.000000,0.000000,0.000000,0.000000,0.000000,0.409642,0.486180,0.075460,0.000000,0.000000,266.000000,259.000000,7.000000,0.000000,0.000000,0.000000,0.000000,0.000000,0.000000;
#CREDIT:;
#DISPLAYBPM:150.000000;
#NOTES:
000000
000000
000000
000000
,
000000
000000
000000
000000
,
000000
000000
000000
000000
,
000000
000000
000000
000000
,
000000
000000
000000
000000
,
000100
000000
001000
000100
000000
001000
000100
000000
,
000001
000000
100000
000001
000000
100000
000001
000000
,
100000
000000
000001
100000
000000
000001
100000
000000
,
001000
000000
000100
001000
000000
000100
001000
000000
,
010000
000000
000001
010000
000000
000001
010000
000000
,
000010
000000
100000
000010
000000
100000
000010
000000
,
100000
100000
100000
100000
,
000001
000001
000001
000001
,
000100
001000
100000
000000
000100
001000
000001
000000
,
000010
001000
010000
000100
001000
000000
100001
000000
,
000100
100000
010000
000000
000100
000001
000010
000000
,
000100
001000
100000
000100
001000
000000
100001
000000
,
010000
001000
000010
000000
001000
010000
000010
000000
,
100000
001000
000100
000001
100000
000000
001100
000000
,
000001
100000
001000
000100
000001
100000
100000
000000
,
010000
100000
000100
000001
000010
000000
000000
000000
,
001000
100000
000100
000000
,
001000
000001
000100
000000
,
001000
100000
000100
001000
000001
000010
100000
010000
,
010100
000110
001100
100001
,
000000
000001
000000
000001
,
000000
000010
100000
001000
,
000000
000001
000000
000001
,
000000
000100
100000
001000
,
000000
000001
000000
000001
,
000000
010000
100000
001000
,
000000
000001
000000
000001
,
000000
010000
000010
000100
,
000001
000000
000001
000000
100000
000100
010000
000000
,
100000
000000
100000
000000
000001
000100
000010
000000
,
000001
000000
000001
000000
001000
000100
100000
000000
,
100000
000000
100000
000000
001000
000100
000001
000000
,
000010
000000
000010
000000
000001
001000
000100
000000
,
010000
000000
010000
000000
100000
001000
000100
000000
,
000010
000000
000001
000000
001000
000100
100000
000000
,
000001
001000
001000
001000
,
000100
100000
001000
010000
000100
100000
001000
010000
,
000100
100000
001000
010000
000100
100000
001000
000000
,
000100
000001
001000
000010
000100
000001
001000
000010
,
000100
000001
001000
000010
000100
000001
001000
000000
,
000100
100000
001000
010000
000100
100000
001000
000100
,
000010
001000
000001
010000
000100
100000
001000
000000
,
000100
000001
001000
000010
000100
000001
001000
000100
,
010000
001000
100000
000010
000100
000001
001000
000000
,
000001
000000
001000
000001
000000
001000
000001
000000
,
100000
000000
001000
100000
000000
001000
100000
000000
,
000010
000000
001000
000010
000000
001000
000010
000000
,
010000
000000
001000
010000
000000
000000
000000
000000
,
000010
000000
001000
000100
000000
001000
010000
000000
,
100000
000000
001000
000001
000000
001000
100000
000000
,
010000
000000
001000
000100
000000
001000
000010
000000
,
000001
000000
001000
100000
000000
000000
000000
000000
;

//---------------dance-solo - ----------------
#NOTEDATA:;
#CHARTNAME:;
#STEPSTYPE:dance-solo;
#DESCRIPTION:;
#CHARTSTYLE:;
#DIFFICULTY:Challenge;
#METER:9;
#RADARVALUES:0.549782,0.691136,1.444526,0.000000,0.059290,357.000000,223.000000,134.000000,0.000000,0.000000,0.000000,0.000000,0.000000,0.000000,0.549782,0.691136,1.444526,0.000000,0.059290,357.000000,223.000000,134.000000,0.000000,0.000000,0.000000,0.000000,0.000000,0.000000;
#CREDIT:;
#DISPLAYBPM:150.000000;
#NOTES:
000000
000000
000000
000000
,
000000
000000
000000
000000
,
000000
000000
000000
000000
,
000000
000000
000000
000000
,
000000
000000
000000
000000
,
110000
001000
100100
000000
100100
001000
110000
000000
,
001100
000000
000010
000000
010010
000000
000000
000000
010010
000000
000000
000010
001100
000001
000000
000000
,
001000
000110
001001
000000
001001
000000
001001
000000
,
001100
000010
010000
000000
010000
000010
001100
000000
,
011000
000000
000000
000000
100100
000000
011000
000000
100000
000000
000000
000100
011000
000000
000000
000000
,
000000
000000
000000
000000
,
110000
001000
100100
000000
100100
001000
110000
000000
,
001100
000000
000010
000000
010010
000000
000000
000000
010010
000000
000000
000010
001100
000001
000000
000000
,
001000
000110
001001
000000
001001
000000
001001
000000
,
001100
000010
010000
000000
010000
000010
001100
000000
,
011000
000000
000000
000000
100100
000000
011000
000000
100000
000000
000000
000100
011000
000000
000000
000000
,
000000
000000
000000
000000
,
110000
001000
100100
001000
110000
001000
100100
000000
,
001100
000000
000000
000000
010010
000000
001100
000000
010000
000000
000000
000010
001100
000000
000000
000000
,
001001
001001
000101
000010
,
001100
010010
010010
001100
,
100000
100000
100000
100000
,
010010
010010
010010
001100
,
000100
001010
000100
000000
000100
000000
000100
000000
,
000010
000000
000000
000010
000010
000010
000010
000000
,
000110
001001
001001
000110
,
010000
001100
010010
000000
010010
000000
010010
000000
,
000000
000000
000000
000000
,
011000
100100
001000
000000
001000
000000
001000
000000
,
010000
000000
010000
001100
010010
000000
010010
000000
,
001100
000000
000010
000000
010010
000000
000000
000000
010010
000000
000000
000010
001100
000001
000000
000000
,
001000
000110
001001
000000
001001
000000
001001
000000
,
010000
000000
010100
001000
011000
000100
010010
000000
,
000000
000000
000000
000000
,
100100
011000
001000
001000
,
001100
010010
010010
001100
,
001001
001001
001001
000110
,
000000
000000
000000
000000
,
001100
110000
100000
001000
110000
000000
100000
000000
,
001100
010010
010010
001100
,
001000
000011
001100
000000
001000
000000
001000
000000
,
000000
000000
000000
000000
,
100100
011000
001000
001000
,
001100
010010
010010
001100
,
001001
001001
001001
000110
,
010000
000110
011000
000000
010000
000000
010000
000000
,
000000
000000
000000
000000
,
110000
001000
100100
001000
110000
000000
100000
000000
,
010000
010000
010000
010000
,
001100
000000
000010
000000
010010
000000
000000
000000
010010
000000
000000
000010
001100
000001
000000
000000
,
001001
000110
000100
001000
,
000001
000000
000000
000001
000001
000001
000001
000000
,
010000
001100
010010
000000
010010
000000
010010
000000
,
011000
000000
100100
000000
100100
011000
000100
100000
,
011000
000000
000000
000000
,
010100
010100
010100
010100
000000
000000
010100
000000
;

//---------------dance-threepanel - ----------------
#NOTEDATA:;
#CHARTNAME:;
#STEPSTYPE:dance-threepanel;
#DESCRIPTION:;
#CHARTSTYLE:;
#DIFFICULTY:Easy;
#METER:3;
#RADARVALUES:0.231001,0.272870,0.053900,0.000000,0.000000,150.000000,145.000000,5.000000,0.000000,0.000000,0.000000,0.000000,0.000000,0.000000,0.231001,0.272870,0.053900,0.000000,0.000000,150.000000,145.000000,5.000000,0.000000,0.000000,0.000000,0.000000,0.000000,0.000000;
#CREDIT:;
#DISPLAYBPM:150.000000;
#NOTES:
000
000
000
000
,
000
000
000
000
,
000
000
000
000
,
000
000
000
000
,
000
000
000
000
,
000
000
001
010
,
000
000
100
010
,
000
000
010
010
,
000
000
010
001
,
000
000
010
100
,
001
000
100
000
,
000
000
010
010
,
000
000
010
010
,
000
000
100
010
,
000
100
001
101
,
000
000
100
010
,
000
100
010
101
,
000
000
010
001
,
000
010
010
101
,
000
000
010
010
,
101
000
101
010
,
100
000
000
010
,
100
000
000
000
,
010
000
010
000
,
100
010
001
010
,
010
001
010
000
,
010
100
010
000
,
100
010
001
001
,
010
000
010
000
,
100
001
010
000
,
010
100
010
000
,
010
000
010
000
,
100
010
001
010
,
010
100
001
001
,
010
010
010
100
,
000
000
010
001
,
000
000
010
100
,
010
001
100
100
,
010
010
010
100
,
000
000
010
010
,
001
010
100
100
,
010
000
001
000
,
010
000
100
000
,
001
010
100
010
,
010
001
010
100
,
010
000
001
000
,
010
000
100
000
,
010
100
010
001
,
010
100
000
000
,
001
010
010
001
,
100
010
010
100
,
010
010
001
010
,
100
010
000
000
,
100
010
010
100
,
001
010
010
001
,
010
010
010
100
,
001
010
000
000
;

//---------------dance-threepanel - ----------------
#NOTEDATA:;
#CHARTNAME:;
#STEPSTYPE:dance-threepanel;
#DESCRIPTION:;
#CHARTSTYLE:;
#DIFFICULTY:Medium;
#METER:5;
#RADARVALUES:0.352661,0.455794,0.075460,0.000000,0.000000,229.000000,222.000000,7.000000,0.000000,0.000000,0.000000,0.000000,0.000000,0.000000,0.352661,0.455794,0.075460,0.000000,0.000000,229.000000,222.000000,7.000000,0.000000,0.000000,0.000000,0.000000,0.000000,0.000000;
#CREDIT:;
#DISPLAYBPM:150.000000;
#NOTES:
000
000
000
000
,
000
000
000
000
,
000
000
000
000
,
000
000
000
000
,
000
000
000
000
,
001
000
010
000
000
100
001
000
,
010
000
010
000
001
100
001
000
,
100
000
010
000
000
001
100
000
,
010
000
010
000
100
001
100
000
,
010
100
010
001
,
010
010
101
000
,
000
000
010
001
,
000
000
010
100
,
010
100
001
000
100
001
010
000
,
000
000
101
101
,
010
001
010
000
100
010
100
000
,
010
010
010
010
010
000
101
000
,
000
000
000
000
010
010
010
000
,
010
100
001
010
010
000
101
000
,
000
000
000
000
010
001
010
000
,
010
001
100
010
010
000
000
000
,
000
000
010
001
010
000
000
000
,
000
000
010
100
010
000
000
000
,
010
010
010
010
100
001
010
001
,
100
010
100
010
,
010
000
001
010
000
001
010
000
,
010
000
100
010
000
100
010
000
,
101
010
001
010
,
010
001
010
100
,
010
000
100
010
000
100
010
000
,
010
000
001
010
000
001
010
000
,
101
010
100
010
,
010
100
010
001
,
001
010
100
010
,
001
100
001
000
010
000
010
010
,
000
000
010
001
,
010
100
010
001
,
100
010
001
010
,
100
001
100
000
010
000
010
010
,
000
000
010
100
,
100
010
001
010
,
100
010
100
000
000
010
010
000
,
100
010
100
000
000
010
010
000
,
010
001
010
100
,
100
010
001
010
,
010
010
010
000
000
100
100
000
,
010
010
010
000
000
001
010
000
,
010
010
000
000
100
100
000
000
,
010
010
000
000
,
001
010
001
000
000
010
100
000
,
100
010
100
000
000
010
001
000
,
001
010
001
000
000
010
100
000
,
010
000
001
010
000
000
000
000
,
001
010
001
000
000
010
100
000
,
100
010
100
000
000
010
001
000
,
001
010
001
000
000
010
100
000
,
100
000
010
010
000
000
000
000
;

//---------------dance-threepanel - ----------------
#NOTEDATA:;
#CHARTNAME:;
#STEPSTYPE:dance-threepanel;
#DESCRIPTION:;
#CHARTSTYLE:;
#DIFFICULTY:Hard;
#METER:7;
#RADARVALUES:0.406562,0.486180,0.053900,0.000000,0.000000,264.000000,259.000000,5.000000,0.000000,0.000000,0.000000,0.000000,0.000000,0.000000,0.406562,0.486180,0.053900,0.000000,0.000000,264.000000,259.000000,5.000000,0.000000,0.000000,0.000000,0.000000,0.000000,0.000000;
#CREDIT:;
#DISPLAYBPM:150.000000;
#NOTES:
000
000
000
000
,
000
000
000
000
,
000
000
000
000
,
000
000
000
000
,
000
000
000
000
,
010
000
010
010
000
010
010
000
,
001
000
100
001
000
100
001
000
,
100
000
001
100
000
001
100
000
,
010
000
010
010
000
010
010
000
,
100
000
001
100
000
001
100
000
,
001
000
100
001
000
100
001
000
,
100
010
100
010
,
001
010
001
010
,
010
010
100
000
010
010
001
000
,
010
010
100
010
010
000
101
000
,
010
100
010
000
010
001
010
000
,
010
010
100
010
010
000
101
000
,
010
010
001
000
010
001
100
000
,
100
010
010
001
100
000
010
000
,
001
100
010
010
001
100
010
000
,
010
100
010
010
010
000
000
000
,
001
100
010
000
,
010
001
010
000
,
010
100
010
010
001
010
010
100
,
110
011
010
101
,
000
010
000
001
,
000
010
010
100
,
000
001
000
001
,
000
010
010
100
,
000
001
000
010
,
000
010
010
100
,
000
001
000
010
,
000
100
001
010
,
001
000
010
000
100
010
010
000
,
100
000
010
000
001
010
010
000
,
001
000
001
000
010
010
100
000
,
010
000
100
000
010
010
001
000
,
010
000
010
000
001
010
010
000
,
100
000
010
000
100
010
010
000
,
010
000
001
000
010
010
100
000
,
001
010
010
010
,
010
100
010
100
010
100
010
100
,
010
100
010
100
010
100
010
000
,
010
001
010
001
010
001
010
001
,
010
001
010
001
010
001
010
000
,
010
100
010
100
010
100
010
010
,
001
010
001
100
010
100
010
000
,
010
001
010
001
010
001
010
010
,
100
010
100
001
010
001
010
000
,
001
000
010
001
000
010
001
000
,
100
000
010
100
000
010
100
000
,
001
000
010
001
000
010
001
000
,
100
000
010
100
000
000
000
000
,
001
000
010
010
000
010
010
000
,
100
000
010
001
000
010
100
000
,
010
000
010
010
000
010
010
000
,
100
000
010
001
000
000
000
000
;

//---------------dance-single - ----------------
#NOTEDATA:;
#CHARTNAME:;
#STEPSTYPE:dance-single;
#DESCRIPTION:;
#CHARTSTYLE:;
#DIFFICULTY:Beginner;
#METER:2;
#RADARVALUES:0.124741,0.182722,0.021560,0.000000,0.000000,81.000000,79.000000,2.000000,0.000000,0.000000,0.000000,0.000000,0.000000,0.000000,0.124741,0.182722,0.021560,0.000000,0.000000,81.000000,79.000000,2.000000,0.000000,0.000000,0.000000,0.000000,0.000000,0.000000;
#CREDIT:;
#DISPLAYBPM:150.000000;
#NOTES:
0000
0000
0000
0000
,
0000
0000
0000
0000
,
0000
0000
0000
0000
,
0000
0000
0000
0000
,
0000
0000
0000
0000
,
0010
0000
0000
0000
,
1000
1000
1000
0000
,
0100
0000
0000
0000
,
0010
0000
0000
0000
,
0001
0000
0000
0000
,
1000
1000
1000
0000
,
0010
0000
0000
0000
,
0100
0000
0000
0000
,
0001
0000
0001
0000
,
1000
0000
1000
0000
,
0010
0000
0010
0000
,
0100
0100
0100
0000
,
0001
0000
0001
0000
,
0010
0000
0010
0000
,
0100
0000
0100
0000
,
1000
1000
1000
0000
,
0001
0000
0000
0000
,
1000
0000
0000
0000
,
0001
0000
1000
0000
,
0010
0010
0010
0010
,
0000
0100
0000
0010
,
0000
0000
0000
0000
,
0000
1000
0000
0001
,
0000
0000
0000
0000
,
0000
0010
0000
0100
,
0000
0000
0000
0000
,
0000
0001
0000
1000
,
0000
0000
0000
0000
,
1001
0000
0000
0000
,
0010
0000
1000
0000
,
0100
0000
0000
0000
,
0010
0000
0001
0000
,
0100
0000
0000
0000
,
0001
0000
1000
0000
,
0010
0000
0000
0000
,
1000
1000
1000
0000
,
1001
0000
0000
0000
,
0010
0000
0000
0000
,
1000
0000
0000
0000
,
0100
0000
0000
0000
,
0010
0000
0000
0000
,
0001
0000
0000
0000
,
0100
0000
0000
0000
,
0001
0000
0000
0000
,
1000
0000
0000
0000
,
0010
0000
0000
0000
,
0100
0000
0000
0000
,
0001
0001
0001
0000
,
0010
0000
0000
0000
,
0001
0000
0000
0000
,
1000
0000
0000
0000
,
0010
0010
0010
0000
;

//---------------dance-single - ----------------
#NOTEDATA:;
#CHARTNAME:;
#STEPSTYPE:dance-single;
#DESCRIPTION:;
#CHARTSTYLE:;
#DIFFICULTY:Challenge;
#METER:13;
#RADARVALUES:0.626783,0.700433,0.258721,0.000000,0.183261,407.000000,383.000000,24.000000,0.000000,0.000000,0.000000,0.000000,0.000000,0.000000,0.626783,0.700433,0.258721,0.000000,0.183261,407.000000,383.000000,24.000000,0.000000,0.000000,0.000000,0.000000,0.000000,0.000000;
#CREDIT:;
#DISPLAYBPM:150.000000;
#NOTES:
0000
0000
0000
0000
,
0000
0000
0000
0000
,
0000
0000
0000
0000
,
0000
0000
0000
0000
,
0000
0000
0000
0000
,
0010
0000
1000
0001
0000
1000
1000
0100
,
0010
0001
0100
0010
1000
0100
0001
0010
,
0100
0000
1000
0001
0000
0010
0010
0100
,
1000
0010
0100
0010
1000
0100
0010
0001
,
0100
0000
0001
1000
0000
0001
0001
0010
,
0100
0010
0001
0100
0010
1000
0001
0100
,
0001
1000
0001
0000
0100
0000
0010
1000
0000
0010
1000
0000
0100
0000
0010
0001
,
0000
0010
0001
0000
0100
0000
0010
1000
0000
0001
0100
0000
0001
1000
0001
1000
,
0001
0000
0100
0000
1010
0000
0000
0001
0010
0000
0100
0000
1000
0000
0000
0010
,
0100
0001
0010
1000
0100
0000
0011
0000
,
0100
0100
0100
0000
0010
0010
0010
0000
,
1010
1000
1100
1000
1001
0000
0110
0000
,
0001
0000
0001
0000
0001
0000
0100
0000
0010
0000
1000
0000
1000
0000
0000
0100
,
1000
0010
0001
0100
1000
0000
0101
0000
,
0001
0001
0001
0000
1000
1000
1000
0000
,
1010
0000
1000
0000
1100
0000
1000
0000
1001
0000
0000
0000
0010
0000
0000
0100
,
0001
0000
0000
0000
0010
0000
1000
0100
1000
0000
0000
0000
0001
0000
0100
0000
,
0010
0000
1000
0100
0001
0000
0000
0010
,
0010
1000
0100
0001
0010
0001
0100
1000
,
1100
0101
1010
0101
,
1000
0010
0100
0001
1000
0100
0010
0001
,
0100
0000
0010
1000
0010
0100
0001
1000
,
0001
0010
0100
1000
0001
0100
0010
1000
,
0100
0000
0010
0001
1000
0001
0100
0010
,
1000
0001
0010
0100
1000
0001
0100
0010
,
1000
0000
0100
0010
0100
1000
0001
0100
,
0010
1000
0100
0010
0001
1000
0010
0100
,
0001
0010
0001
0100
0001
0010
0100
1000
,
1001
0000
0000
1000
0010
0000
0100
0000
0001
0000
0010
0000
0001
1000
0001
0000
,
0010
1000
0100
0010
0001
0100
0001
1000
,
0000
0000
0110
0000
1000
0001
1000
0000
0000
0000
0010
0000
0100
0001
0100
0000
,
0001
0000
1100
0000
0101
0000
0010
0000
1000
0000
0100
0000
1000
0001
1000
0001
,
1000
0000
0010
0000
0100
0000
0001
0000
0000
0010
0100
0000
1000
0000
0000
0000
,
0001
1000
0001
0010
0100
1000
0001
0100
,
0010
0000
1000
0000
0001
0100
0001
0000
0010
0000
0100
0000
1000
0001
1000
0000
,
0010
0110
1001
0000
1100
0011
1000
0001
,
0100
0010
1000
0001
0000
0010
0001
0100
,
1000
0000
0010
0000
1000
0000
0001
0000
0000
0000
1000
0000
0010
0100
0010
0100
,
0010
0100
0001
1000
0000
0100
0010
0001
,
0100
0000
1000
0000
0001
0000
0100
0000
0000
0000
0010
0000
1000
0001
1000
0001
,
1000
0000
0010
0000
0100
0000
0001
0000
0000
0000
1000
0010
1000
0000
0001
0000
,
0100
0000
0001
0000
0010
0000
0001
0000
0000
0000
1000
0000
0010
0100
0010
0100
,
0010
0000
1000
0000
1000
0100
0000
0100
0010
0000
0001
0000
0001
0100
0000
0100
,
0010
1000
0001
1000
0000
0100
0100
0010
,
0011
0000
1000
0001
0000
0010
0001
0100
,
0010
1000
0100
0010
0001
0100
0001
1000
,
0010
0000
0100
0001
0000
1000
0010
1000
,
0100
0000
1000
0001
0100
0000
0000
0000
,
1010
0000
0100
0001
0000
0010
0001
1000
,
0001
0100
0010
1000
0100
0010
0001
1000
,
0001
0000
1000
0010
0000
1000
0100
0001
,
0010
0000
0001
1000
0010
0000
0000
0000
;

//---------------dance-double - ----------------
#NOTEDATA:;
#CHARTNAME:;
#STEPSTYPE:dance-double;
#DESCRIPTION:;
#CHARTSTYLE:;
#DIFFICULTY:Hard;
#METER:10;
#RADARVALUES:0.526682,0.550591,0.258721,0.129361,0.000000,342.000000,318.000000,24.000000,12.000000,0.000000,0.000000,0.000000,0.000000,0.000000,0.526682,0.550591,0.258721,0.129361,0.000000,342.000000,318.000000,24.000000,12.000000,0.000000,0.000000,0.000000,0.000000,0.000000;
#CREDIT:;
#DISPLAYBPM:150.000000;
#NOTES:
00000000
00000000
00000000
00000000
,
00000000
00000000
00000000
00000000
,
00000000
00000000
00000000
00000000
,
00000000
00000000
00000000
00000000
,
00000000
00000000
00000000
00000000
,
10010000
00000000
10000000
00100000
00000000
10000000
01000000
00100000
,
00010000
00000000
00001000
00010000
00000010
00000000
00000100
00000001
,
00001001
00000000
00000010
00000100
00000000
00000001
00000010
00000100
,
00001000
00000000
00000010
00010000
00001000
00000000
01000000
00100000
,
10000000
00000000
00010000
00100000
00000000
00010000
10000000
00100000
,
01000000
00000000
00001000
00010000
00000010
00000000
00000100
00000000
,
00000001
00000010
00000100
00001000
00000010
00000100
00000001
00001000
,
00000100
00010000
00001000
01000000
00100000
10000000
00010000
01000000
,
00100000
10000000
02000000
00000000
03100000
00010000
02000000
00000000
,
03100000
10000000
00010000
10000000
01000000
00000000
01100000
00000000
,
00001000
00010000
00000010
00000000
00001000
00000100
00000001
00000000
,
00000010
00000001
00000100
00000010
00001000
00000000
00011000
00000000
,
00001000
00010000
00001000
00010000
00001000
01000000
00100000
00000000
,
10000000
01000000
00100000
00010000
01000000
00000000
01100000
00000000
,
10000000
00100000
00010000
00000000
01000000
00010000
00001000
00000000
,
00000100
00010000
00000010
00000100
00000001
00000000
00000011
00000000
,
00001100
00000000
00000001
00000100
00000010
00000000
00001010
00000000
,
00000101
00000000
00001000
00000100
00010000
00000000
00000000
00001000
,
00001000
00010000
00001000
00000100
00001000
00010000
01000000
00010000
,
00011000
00000110
00001001
00010010
,
00000000
00001000
00000100
00000001
00000000
00001000
00000010
00010000
,
00000000
00000000
00002000
00000000
02003000
00000000
03100000
10000000
,
00000000
01000000
10000000
00010000
00000000
00100000
00010000
01000000
,
00200000
00000000
10300000
00000000
02001000
00000000
03001000
00010000
,
00000000
00000010
00010000
00000100
00000000
00000010
00000001
00000100
,
00000000
00000000
00000002
00000000
00002003
00000000
00003100
00000010
,
00000000
00000001
00001000
00000100
00000000
00010000
00001000
01000000
,
00020000
00000000
20030000
00000000
31000000
00100000
00010000
10000000
,
00100000
00000000
01000000
00010000
10000000
00010000
00010000
00000000
,
00100000
00010000
00001000
00011000
00000000
00000000
00000010
00000100
,
00000000
00000001
00000010
00001000
00000000
00000001
00000100
00000010
,
00001000
00000100
00000110
00000000
00001001
00000010
00001000
00000001
,
00000010
00000100
00010000
00001000
00000000
01010000
00100000
00000000
,
10000000
00010000
10000000
01000000
00100000
00000000
00010000
10000000
,
00100000
01000000
00100000
00100000
10000000
01000000
00010000
00100000
,
00001000
00010000
00010010
00000000
00000101
00000010
00001000
00000001
,
00001000
00000100
00000010
00000001
00000000
00000001
00000100
00000010
,
00010000
00001000
00010000
00000010
00000000
00001000
00000100
00010000
,
00001000
01000000
00100000
10000000
00000000
01000000
10000000
00010000
,
10000000
00100000
01000000
00010000
00000000
00100000
00010000
01000000
,
00010000
00100000
00001000
00010000
00000000
00000100
00000010
00000001
,
00000100
00000001
00000010
00000100
00000000
00001000
00000001
00001000
,
00000010
00010000
00001000
00100000
00000000
00001000
00010000
01000000
,
10000000
00100000
01000000
00010000
00000000
00100000
00010000
10000000
,
10010000
00000000
01000000
00100000
00000000
10000000
00010000
10000000
,
01000000
00000000
00100000
00010000
00001000
00000100
00000001
00000000
,
00000011
00000000
00001000
00000001
00000000
00001000
00000010
00000100
,
00000001
00000000
00000010
00000100
00020000
00000000
00030000
00000000
,
00011000
00000000
00001000
01000000
00000000
00100000
10000000
01000000
,
00100000
00000000
00010000
10000000
00010000
01000000
00100000
00000000
,
01100000
00000000
01000000
00001000
00000000
00010000
00000010
00000100
,
00000001
00000000
00001000
00000010
00000200
00000000
00000300
00000000
;

//---------------dance-double - ----------------
#NOTEDATA:;
#CHARTNAME:;
#STEPSTYPE:dance-double;
#DESCRIPTION:;
#CHARTSTYLE:;
#DIFFICULTY:Challenge;
#METER:13;
#RADARVALUES:0.649883,0.734121,0.323401,0.064680,0.215601,422.000000,392.000000,30.000000,6.000000,0.000000,0.000000,0.000000,0.000000,0.000000,0.649883,0.734121,0.323401,0.064680,0.215601,422.000000,392.000000,30.000000,6.000000,0.000000,0.000000,0.000000,0.000000,0.000000;
#CREDIT:;
#DISPLAYBPM:150.000000;
#NOTES:
// measure 0
00000000
00000000
00000000
00000000
,  // measure 1
00000000
00000000
00000000
00000000
,  // measure 2
00000000
00000000
00000000
00000000
,  // measure 3
00000000
00000000
00000000
00000000
,  // measure 4
00000000
00000000
00000000
00000000
,  // measure 5
10010000
00000000
00100000
10000000
00000000
01000000
01000000
00100000
,  // measure 6
00001000
00010000
00000010
00000100
00000001
00000010
00000001
00001000
,  // measure 7
00001001
00000000
00000010
00000100
00000000
00000001
00000001
00001000
,  // measure 8
00000100
00010000
00001000
00100000
00010000
01000000
10000000
00000000
,  // measure 9
10010000
00000000
00100000
01000000
00000000
00010000
00010000
10000000
,  // measure 10
01000000
00100000
00010000
01000000
00001000
00010000
00000010
00000100
,  // measure 11
00000001
00001000
00000001
00000000
00000100
00000000
00000010
00001000
00000000
00000010
00001000
00000000
00000100
00000000
00000010
00000001
,  // measure 12
00000000
00000010
00000001
00000000
00000100
00000000
00000010
00010000
00000000
00000010
00010000
00000000
00001000
00010000
00001000
00010000
,  // measure 13
00001000
00000000
01000000
00000000
10100000
00000000
00000000
00010000
10000000
00000000
01000000
00000000
00100000
00000000
00000000
00001000
,  // measure 14
00010000
00000010
00000100
00000010
00001000
00000000
00001100
00000000
,  // measure 15
00000010
00000010
00000010
00000000
00000100
00000100
00000100
00000000
,  // measure 16
00001100
00000100
00010100
00010000
00011000
00000000
01100000
00000000
,  // measure 17
00010000
00000000
00010000
00000000
00010000
00000000
01000000
00000000
10000000
00000000
00100000
00000000
00100000
00000000
00000000
01000000
,  // measure 18
00010000
00100000
00010000
01000000
00001000
00000000
00010100
00000000
,  // measure 19
00010000
00010000
00010000
00000000
00001000
00001000
00001000
00000000
,  // measure 20
00010010
00000000
00000010
00000000
00000110
00000000
00000100
00000000
00000101
00000000
00000000
00000000
00001000
00000000
00000000
00000001
,  // measure 21
00000100
00000000
00000000
00000000
00000010
00000000
00010000
00001000
00010000
00000000
00000000
00000000
00001000
00000000
01000000
00000000
,  // measure 22
00100000
00000000
10000000
01000000
00010000
00000000
00000000
00001000
,  // measure 23
00001000
00010000
00000010
00010000
00001000
00000100
00000001
00000010
,  // measure 24
00000011
00001001
00010010
01001000
,  // measure 25
00100000
10000000
01000000
00010000
00000010
00001000
00000100
00000001
,  // measure 26
00000020
00000000
00000130
00001000
00000010
00001000
00000001
00000100
,  // measure 27
00000010
00000100
00000001
00001000
00100000
01000000
00010000
10000000
,  // measure 28
02000000
00000000
03100000
00010000
01000000
00100000
10000000
00010000
,  // measure 29
10000000
01000000
00100000
00010000
00001000
00000100
00000010
00000001
,  // measure 30
00000200
00000000
00000301
00000010
00000001
00000100
00000010
00001000
,  // measure 31
00000100
00000001
00000010
00001000
01000000
00010000
00100000
10000000
,  // measure 32
01000000
00000000
00100000
00000000
01000000
00000000
00100000
00000000
00010000
00000000
10000000
00000000
00010000
01000000
00010000
01000000
,  // measure 33
00010000
00000000
00000000
00000000
01010000
00000000
00100000
00000000
00010000
00000000
01000000
00000000
00001000
00010000
00001000
00000000
,  // measure 34
00010000
00000010
00000100
00000001
00000010
00000100
00001000
00000001
,  // measure 35
00000000
00000000
00000110
00000000
00000001
00001000
00000001
00000000
00000000
00000000
00000110
00000000
00001000
00000001
00001000
00000000
,  // measure 36
00000010
00000000
00001010
00000000
00000101
00000000
00000010
00000000
00001000
00000000
00000100
00000000
00010000
00001000
00010000
00001000
,  // measure 37
00010000
00000000
01000000
00000000
10000000
00000000
00100000
00000000
00000000
01000000
00020000
00000000
10000000
00000000
00000000
00000000
,  // measure 38
01030000
00100000
01000000
00010000
00100000
00001000
00010000
00000100
,  // measure 39
00000010
00000000
00000001
00000000
00001000
00000010
00001000
00000000
00000100
00000000
00000010
00000000
00000001
00001000
00000001
00000000
,  // measure 40
00000100
00000110
00001001
00001000
00001100
00000011
00001000
00000001
,  // measure 41
00000100
00000000
00000010
00000000
00010000
00000000
00001000
00000000
00000000
00000000
01000000
00100000
01000000
00000000
00010000
00000000
,  // measure 42
00100000
00000000
00010000
10000000
00010000
00000000
01000000
00000000
00000000
00000000
00100000
00000000
10000000
01000000
10000000
01000000
,  // measure 43
10000000
00010000
01000000
00100000
00000000
01000000
00001000
00010000
,  // measure 44
00000010
00000000
00001000
00000000
00000100
00000000
00000010
00000000
00000000
00000000
00000001
00000000
00001000
00000010
00001000
00000010
,  // measure 45
00001000
00000000
00000001
00000100
00000001
00000000
00001000
00000000
00000000
00000000
00000100
00000000
00010000
00000000
00001000
00000000
,  // measure 46
00100000
00000000
00010000
10000000
00010000
00000000
01000000
00000000
00000000
00000000
00100000
00000000
10000000
00010000
10000000
00010000
,  // measure 47
10000000
00000000
01000000
00000000
00100000
00010000
00000000
00010000
00001000
00000000
00000100
00000000
00000010
00000001
00000000
00000001
,  // measure 48
00000100
00000000
00000010
00000000
00010000
00001000
00010000
00001000
00010000
00000000
00000010
00000000
00000100
00000000
00000001
00000000
,  // measure 49
00001010
00000000
00000100
00001000
00000000
00000010
00000010
00010000
,  // measure 50
00001000
01000000
00100000
01000000
00010000
00100000
00010000
10000000
,  // measure 51
11000000
00000000
00100000
00010000
00000000
10000000
10000000
00100000
,  // measure 52
01000000
00000000
00010000
10000000
00200000
00000000
01300000
00100000
,  // measure 53
10010000
00000000
01000000
00001000
00000000
00010000
00010000
00000010
,  // measure 54
00000100
00000010
00001000
00000001
00000010
00000001
00000100
00001000
,  // measure 55
00011000
00000000
00010000
00001000
00000000
00100000
00100000
01000000
,  // measure 56
10000000
00000000
00100000
01000000
00020000
00000000
00030000
00000000
;
