#VERSION:0.83;
#TITLE:TOE JAM;
#SUBTITLE:(25th Anniversary Special);
#ARTIST:Big Idea;
#TITLETRANSLIT:;
#SUBTITLETRANSLIT:;
#ARTISTTRANSLIT:;
#GENRE:;
#ORIGIN:;
#CREDIT:;
#BANNER:TOE JAM (25th Anniversary Special)-bn.png;
#BACKGROUND:TOE JAM (25th Anniversary Special)-bg.png;
#PREVIEWVID:;
#JACKET:TOE JAM (25th Anniversary Special)-jacket.png;
#CDIMAGE:;
#DISCIMAGE:;
#LYRICSPATH:;
#CDTITLE:;
#MUSIC:TOE JAM (25th Anniversary Special).ogg;
#OFFSET:-0.100000;
#SAMPLESTART:72.170998;
#SAMPLELENGTH:20.000000;
#SELECTABLE:YES;
#DISPLAYBPM:90.000000:160.000000;
#BPMS:0.000=90.000,
9.000=111.970,
37.000=132.040,
129.500=159.950,
224.500=150.000;
#STOPS:8.333=2.000,
15.000=0.179,
15.333=0.179,
15.667=0.400,
29.500=0.250,
29.833=0.250,
30.167=0.312,
36.000=0.536,
47.000=0.227,
47.250=0.227,
47.500=0.227,
53.500=0.113,
53.750=0.113,
54.000=0.113,
54.250=0.340,
59.500=0.455,
60.000=0.250,
90.500=0.227,
90.750=0.227,
91.000=0.227,
104.500=0.455,
105.000=0.227,
129.500=0.750,
130.000=0.188,
145.000=0.094,
145.250=0.094,
145.500=0.094,
145.750=0.288,
164.000=0.188,
164.500=0.188,
167.000=0.188,
167.500=0.188,
171.500=0.046,
171.625=0.046,
171.750=0.046,
171.875=0.046,
172.000=0.046,
172.125=0.046,
172.250=0.046,
172.375=0.046,
172.500=0.046,
172.625=0.046,
172.750=0.046,
172.875=0.046,
173.000=0.046,
173.125=0.046,
173.250=0.046,
173.375=0.046,
219.500=0.188,
219.750=0.188,
220.000=0.188,
222.000=0.188,
222.250=0.188,
222.500=0.188,
224.500=0.200,
224.750=0.200,
225.000=0.200,
231.750=1.375;
#DELAYS:;
#WARPS:;
#TIMESIGNATURES:0.000=4=4;
#TICKCOUNTS:0.000=4;
#COMBOS:0.000=1;
#SPEEDS:0.000=1.000=0.000=0;
#SCROLLS:0.000=1.000;
#FAKES:;
#LABELS:0.000=Song Start;
#BGCHANGES:;
#KEYSOUNDS:;
#ATTACKS:
;

//---------------dance-single - ----------------
#NOTEDATA:;
#CHARTNAME:;
#STEPSTYPE:dance-single;
#DESCRIPTION:;
#CHARTSTYLE:;
#DIFFICULTY:Challenge;
#METER:18;
#RADARVALUES:0.929653,0.915154,0.631141,0.579967,1.236695,763.000000,689.000000,74.000000,68.000000,0.000000,0.000000,0.000000,0.000000,0.000000,0.929653,0.915154,0.631141,0.579967,1.236695,763.000000,689.000000,74.000000,68.000000,0.000000,0.000000,0.000000,0.000000,0.000000;
#CREDIT:;
#DISPLAYBPM:90.000000:160.000000;
#NOTES:
// measure 0
0000
0000
0000
0000
,  // measure 1
0000
0000
0000
0000
,  // measure 2
0000
0000
0020
0000
0030
0000
0110
0000
0000
0000
0000
0000
1001
0000
0000
0000
0000
0000
1000
0000
0100
1000
0000
0100
,  // measure 3
1000
0000
0000
0002
0000
0000
0013
0000
0000
0100
0000
0000
1000
0000
0001
1000
0000
0000
1100
0000
0101
0000
1100
0000
,  // measure 4
0011
0000
0000
1001
0000
0000
0000
0000
0000
0100
0000
0001
0100
0000
0001
0100
0000
0010
2000
0000
0000
0000
0000
0000
,  // measure 5
0001
0000
0000
3001
0000
1000
0100
0000
0000
1000
0000
0010
0001
0000
1000
0100
0000
0001
0010
0000
0100
1000
0000
0000
,  // measure 6
0000
0000
0000
1001
0000
0000
0000
0000
0000
0010
0000
1000
0010
0000
1000
0010
0000
0000
0200
0000
0000
0301
0000
0000
,  // measure 7
0010
0000
0000
0100
0000
1000
0001
0000
0000
0011
0000
1010
0000
0011
0000
1100
0000
0000
1001
0000
0000
0000
0000
0000
,  // measure 8
0001
0000
0010
0001
0000
0010
0001
0000
0100
0010
0000
0100
0010
0000
1000
0010
0000
1000
0001
0000
1000
0100
0000
0000
,  // measure 9
0011
0000
0100
0010
1000
0000
0001
0000
1000
0000
0001
0000
0010
0000
0001
1000
,  // measure 10
0000
0001
1000
0000
0020
0000
1030
0100
0010
0001
0200
0000
0301
0010
0001
0100
,  // measure 11
0001
0010
0001
1000
0200
0000
0310
0001
1000
0001
1000
0010
1010
1001
0101
0000
,  // measure 12
2000
0000
3100
0010
0001
0100
0020
0000
1030
0001
1000
0100
0020
0000
0000
0000
,  // measure 13
0001
0000
0031
0100
0010
1000
1100
0110
0011
1001
1000
0100
0001
0100
0010
0100
,  // measure 14
0001
0100
0010
0100
0001
0100
0010
0100
2000
0000
3010
0000
1010
0000
0101
0000
,  // measure 15
0110
0000
2000
0000
3001
0100
0010
1000
0002
0000
0013
0100
0010
0001
0100
0010
,  // measure 16
1000
0001
0020
0000
0130
0010
0001
1000
0010
0100
0101
0000
0000
1100
0000
0000
,  // measure 17
0012
0000
0000
0000
1003
0010
0001
0010
0100
0010
0001
0010
0100
0010
0001
0010
,  // measure 18
1000
0010
0200
0000
0000
0301
0000
0000
0101
0000
0000
1001
0000
0000
1100
0001
,  // measure 19
1000
0000
0020
0000
1030
0001
0010
0001
0200
0000
0310
1000
0010
0100
0001
0010
,  // measure 20
0001
0000
0000
1000
0000
0000
0200
0000
0000
0000
0000
0000
0310
0000
0000
0001
0000
0000
1000
0000
0000
0001
0000
0000
0010
0000
0000
0100
0000
0000
1000
0000
0000
0000
0001
0000
0100
0000
0000
0010
0000
0000
0100
0000
0000
1000
0000
0000
,  // measure 21
0100
0001
0020
0000
0130
1000
0010
0100
0002
0000
1003
0010
0001
0010
0100
1000
,  // measure 22
0100
0001
2000
0000
3100
0010
0001
0100
0010
1000
1001
1010
1100
0000
0002
0000
,  // measure 23
1003
0001
0010
0100
2000
0000
3010
0100
0001
0010
0200
0000
0000
0000
1000
0000
,  // measure 24
1300
0010
0100
0001
0011
0000
0110
0000
1100
0000
1020
0000
0000
0000
1030
0010
,  // measure 25
0001
0010
0100
0010
0001
0010
1000
0010
0001
0010
0100
0010
2000
0000
3100
0000
,  // measure 26
1100
0000
0011
0000
1001
0000
0020
0000
1030
0100
0010
0001
2000
0000
3010
0100
,  // measure 27
0010
1000
0100
0001
0100
0010
0002
0000
0103
0010
0100
0001
1000
0100
0110
0000
,  // measure 28
0000
0011
0000
0000
2010
0000
0000
0000
3001
0010
1000
0010
0100
0010
1000
0010
,  // measure 29
0001
0010
1000
0010
0100
0010
0002
0000
0000
1003
0000
0000
0101
0000
0000
0011
,  // measure 30
0000
0000
1010
0100
0001
0000
2000
0000
3010
1000
0100
0010
0002
0000
0103
0001
,  // measure 31
0010
0000
0000
0001
0000
0000
0100
0000
0000
0010
0000
0000
1000
0000
0000
0100
0000
0000
0010
0000
0000
0000
0000
0000
0001
0000
0000
0000
1000
0000
0001
0000
0000
0000
0100
0000
0010
0000
0000
0000
1000
0000
0100
0000
0000
0000
0100
0000
,  // measure 32
0010
0000
0000
0000
0010
0000
0001
0000
0000
0000
1000
0000
0010
0000
0000
0000
0000
0000
0201
0000
0000
0000
0000
0000
0320
0000
0000
0000
0000
0000
0130
0000
0000
0000
0000
0000
1001
0000
0000
0000
0000
0000
0010
0000
0000
1000
0000
0000
,  // measure 33
0010
0100
0010
0001
0020
0000
1030
0100
0001
0100
0010
0100
2000
0000
3010
1000
,  // measure 34
0001
1000
0100
0010
0011
0000
0000
1100
0000
0000
0202
0000
0003
0000
0301
0100
,  // measure 35
2000
0000
3010
1000
0010
0100
0010
1000
0100
0001
0100
0010
0100
0001
0100
1000
,  // measure 36
0010
0100
0010
0000
1010
0101
0011
1100
0001
0100
0001
0010
0001
0100
0010
0100
,  // measure 37
1000
0100
0001
0100
1000
0100
0010
0100
0010
0100
0001
0010
1000
0010
0100
0010
,  // measure 38
1000
0010
0001
1000
0010
0100
0002
0000
0013
0100
2000
0000
3010
1000
0200
0000
,  // measure 39
1300
0010
0002
0000
0103
0001
2000
0000
3100
0010
0002
0000
1003
0010
0100
0010
,  // measure 40
0001
0010
1000
0100
0010
0001
0200
0000
0301
0010
0100
0010
0001
1000
0010
0000
,  // measure 41
0110
0000
0101
0000
1000
0100
0001
0000
0010
0001
0100
0000
1010
0000
1001
0000
,  // measure 42
0010
0000
0000
0000
1000
0000
0000
0000
0100
0000
0010
0000
0001
0000
1000
0000
0010
0000
0100
0000
1000
0000
0100
0000
0001
0000
0010
0000
0001
0100
1000
0001
,  // measure 43
0010
1000
0001
0100
1000
0001
0010
1000
0001
0100
0010
1000
0001
0000
0010
0000
0000
0000
0010
0000
1000
0000
0000
0000
0001
0000
0100
0000
0000
0000
0100
0000
,  // measure 44
1000
0000
0010
1000
0100
0001
1000
0010
0000
1000
0001
0010
0001
0100
0020
0000
,  // measure 45
1030
0001
0010
0001
0200
0000
0000
0000
0301
0010
2000
0000
3100
0010
0001
0100
,  // measure 46
0010
0100
1000
0100
0001
0010
1000
0010
0100
0010
0001
0000
1000
0001
0011
0000
,  // measure 47
0110
0000
1100
0000
0202
0000
0003
0000
0310
1000
0100
0000
0010
0001
1000
0100
,  // measure 48
0010
1000
0010
0001
0100
0010
0001
0010
1000
0010
0001
0010
1000
0100
0010
1000
,  // measure 49
0010
0001
0100
0010
1000
0000
0001
0010
0001
0100
0001
1000
0001
0000
0100
0010
,  // measure 50
0100
1000
0100
0001
0010
0100
1000
0010
1000
0100
0001
0100
0010
0100
0001
0100
,  // measure 51
0010
0001
0100
1000
0100
0001
2000
0000
3010
1000
0001
0000
0200
0000
0000
0000
,  // measure 52
0301
0010
1000
0010
0100
0010
0001
0000
1000
0001
0020
0000
0000
0031
1000
0100
,  // measure 53
0001
0100
1000
0001
0220
0000
0030
0000
0301
0010
0100
0010
0001
0100
0010
0100
,  // measure 54
1000
0100
0010
0100
0001
0010
1000
0010
0100
0010
1000
0010
0001
0100
1010
0101
,  // measure 55
1100
0000
0001
0100
1000
0000
0000
0000
0011
0101
1100
0000
0020
2030
3020
0230
,  // measure 56
0302
0000
0000
0000
0000
0000
0000
0000
0000
0000
0000
0000
0003
0000
0000
0000
0000
0000
0000
0000
0000
0000
0000
0000
1010
0000
0000
0000
0000
0000
0000
0000
0000
0000
0000
0000
1100
0000
0000
0000
0000
0000
0000
0000
0000
0000
0000
0000
0022
0000
0000
0000
0000
0000
0000
0000
0000
0000
0000
0000
0000
0000
0000
0000
0000
0000
0000
0000
0000
0000
0000
0000
0000
0000
0000
0000
0000
0000
0000
0000
0000
0000
0000
0000
0000
0000
0000
0000
0000
0000
0000
0000
0000
0000
0000
0000
0000
0000
0000
0000
0000
0000
0000
0000
0000
0000
0000
0000
0000
0000
0000
0000
0000
0000
0000
0000
0000
0000
0000
0000
0000
0000
0000
0000
0000
0000
0000
0000
0000
0000
0000
0000
0000
0000
0000
0000
0030
0000
0000
0000
0000
0000
0000
0000
0000
0000
0000
0000
0000
0000
0000
0000
0000
0000
0000
0000
0000
0000
0000
0000
0000
0000
0020
0000
0000
0000
0000
0000
0000
0000
0000
0000
0000
0000
0000
0000
0000
0000
0000
0000
0000
0000
0000
0000
0003
0000
0000
0000
0000
0000
0000
0000
,  // measure 57
0000
0000
0000
0000
0000
0000
0130
0000
0000
0000
1000
0000
0000
0000
0000
0001
0000
0000
0200
0000
0000
0000
0000
0000
0000
0000
0000
0000
0000
0000
0000
0000
0000
0000
0000
0000
0301
0000
0000
0010
0000
0000
0100
0000
0000
2000
0000
3000
,  // measure 58
1001
0000
0000
0000
;
