#TITLE:TIME IN MOTION;
#ARTIST:lim's sculpture;
#BANNER:TIME IN MOTION-bn.png;
#BACKGROUND:TIME IN MOTION-bg.png;
#JACKET:TIME IN MOTION-jacket.png;
#MUSIC:TIME IN MOTION.ogg;
#SAMPLESTART:28.444;
#SAMPLELENGTH:20;
#DISPLAYBPM:135;
#BPMS:0=135;
#BGCHANGES:;

//---------------dance-single - ----------------
#NOTES:
     dance-single:
     :
     Beginner:
     1:
     :
0000
0000
0000
0000
,
0000
0000
0000
0000
,
0000
0000
0000
0000
,
0000
0000
0000
0000
,
0010
0000
0000
0000
,
0000
0000
0000
0000
,
1001
0000
0000
0000
,
0000
0000
0000
0000
,
0100
0000
0000
0000
,
0000
0000
0000
0000
,
1000
0000
0000
0000
,
0000
0000
0000
0000
,
0010
0000
0000
0000
,
0000
0000
0000
0000
,
0100
0000
0000
0000
,
0001
0000
1000
0000
,
0001
0000
0000
0000
,
0010
0000
0100
0000
,
1000
0000
0000
0000
,
0001
0000
1000
0000
,
0100
0000
0000
0000
,
0010
0000
0000
0000
,
0001
0000
0001
0000
,
1000
0000
1000
0000
,
0010
0000
0000
0000
,
1000
0000
0000
0000
,
0100
0000
0000
0000
,
0001
0000
0000
0000
,
0010
0000
0010
0000
,
0010
0000
0000
0000
,
0001
0000
0001
0000
,
1000
0000
0000
0000
,
1001
0000
0000
0000
,
0010
0000
0010
0000
,
0100
0000
0000
0000
,
0001
0000
0100
0000
,
0001
0000
0000
0000
,
0010
0000
0000
0000
,
1001
0000
0000
0000
,
1000
0000
0001
0000
,
0000
0000
0000
0000
,
1001
0000
0000
0000
,
0010
0000
0000
0000
,
0100
0000
0000
0000
,
0010
0000
0000
0000
,
1000
0000
0000
0000
,
0001
0000
0000
0000
,
0010
0000
0001
0000
,
0100
0000
1000
0000
,
0001
0000
0000
0000
;

//---------------dance-single - ----------------
#NOTES:
     dance-single:
     :
     Easy:
     5:
     :
0000
0000
0000
0000
,
0000
0000
0000
0000
,
0000
0000
0000
0000
,
0000
0000
0000
0000
,
0010
0000
0001
0000
,
1000
0000
0001
0000
,
1001
0000
0100
0000
,
0001
0001
1000
1000
,
0010
0000
1000
0000
,
0100
0000
0001
0010
,
0100
0000
1000
0000
,
0001
0000
0010
0001
,
1000
0000
0100
0000
,
1000
0000
0010
0001
,
0100
0000
0010
0000
,
1000
0100
1000
0001
,
1001
0000
0010
1000
,
0100
0000
1000
0001
,
0010
0000
0100
0010
,
0100
0000
1000
0010
,
0001
0000
1000
0000
,
0001
0000
0100
0010
,
1000
0000
0100
0000
,
0010
0001
0100
1000
,
1001
0000
0010
0000
,
1000
0000
0100
0000
,
0001
0001
0010
0010
,
0001
1000
0001
0100
,
0010
0000
1000
0000
,
0100
0000
0001
0000
,
1000
0000
0010
0000
,
1000
0100
0010
0001
,
0100
0000
0010
0000
,
1000
0001
1000
0100
,
0001
0000
0010
0000
,
1000
0100
1000
0010
,
0001
0000
1000
0000
,
0010
1000
0100
0010
,
0001
0000
1000
0000
,
0010
0000
0100
0000
,
0001
0000
0000
0000
,
1001
0000
0010
0000
,
1000
0000
0100
0010
,
0001
0000
0100
0000
,
0001
0000
0010
1000
,
0100
0000
0010
0000
,
0001
0000
0100
0000
,
1000
0001
1000
0001
,
0010
0010
0001
1000
,
0002
0000
0000
0000
,
0000
0000
0000
0000
,
0003
0000
0000
0000
;

//---------------dance-single - ----------------
#NOTES:
     dance-single:
     :
     Medium:
     9:
     :
0000
0000
0000
0000
,
0000
0000
0000
0000
,
0000
0000
0000
0000
,
0000
0000
0000
0000
,
0010
0000
0001
0100
0000
0010
1000
0100
,
0000
1000
0010
0001
0000
0100
0010
1000
,
0001
0001
0001
0001
,
1000
1000
1000
1000
,
0001
1000
0000
0100
0010
0001
0000
0100
,
0000
0010
0000
1000
0001
1000
0000
0100
,
0000
0010
0000
0001
0100
0010
0000
1000
,
0000
0100
0000
1000
0000
0010
0000
0100
,
0000
0001
0000
0010
0001
1000
0000
0100
,
0000
0010
0000
0100
1000
0001
0000
0100
,
0010
0000
1000
0100
1000
0000
0001
0000
,
0100
0000
0100
0000
0010
1000
0001
1000
,
0100
0000
0010
0001
1000
0100
0000
0010
,
0000
0001
0000
0100
0010
1000
0000
0001
,
1000
0100
0000
0010
0001
0100
0000
1000
,
0000
0010
0000
1000
0100
0010
0000
0001
,
0000
1000
0000
0010
1000
0100
0000
0001
,
0000
1000
0000
0001
0010
0100
0000
0010
,
0001
0100
0000
1000
0001
1000
0000
0010
,
0000
1000
0000
0100
0010
0001
1000
0001
,
0100
0100
0010
0010
,
1000
0100
0001
0100
,
1000
0010
1000
0010
,
1000
0100
0001
0000
1000
0100
0001
0000
,
1001
0000
0001
0010
0100
0000
1000
0000
,
0010
0000
1000
0000
0100
0000
0001
0010
,
1000
0000
0100
0010
0001
0000
0100
0001
,
1000
0000
0010
1000
0001
1000
0100
0000
,
0110
0000
0001
1000
0010
0000
1000
0001
,
0010
0000
0100
1000
0001
0000
0100
0010
,
0000
0000
1000
0100
0001
0000
0010
0001
,
0100
0000
0010
1000
0001
0000
1000
0100
,
0000
0000
0010
0001
0100
0000
1000
0001
,
0010
0000
0100
0010
0001
0000
1000
0100
,
0010
0000
0010
0001
1000
0000
0010
1000
,
0100
0000
0010
0001
1000
0000
0010
0100
,
0000
0002
2003
3002
,
0103
0000
0010
1000
0100
0010
0000
0001
,
0000
0100
0000
0001
0010
1000
0000
0100
,
0010
0001
0000
1000
0001
0100
0000
0010
,
0000
1000
0000
0100
1000
0010
0000
0001
,
0000
0010
0000
0100
1000
0001
0000
0010
,
0000
1000
0000
0100
1000
0001
0000
0100
,
0010
0000
1000
0100
0001
0000
0010
0000
,
0011
0000
1100
0000
0010
1000
0100
1000
,
0002
0000
0000
0000
,
0000
0000
0000
0000
,
0003
0000
0000
0000
;

//---------------dance-single - ----------------
#NOTES:
     dance-single:
     :
     Hard:
     14:
     :
0000
0000
0000
0000
,
0000
0000
0000
0000
,
0000
0000
0000
0000
,
0000
0000
0000
0000
,
0010
0001
0000
0000
0100
0000
0010
0000
0000
1000
0000
0000
0100
0000
1000
0000
,
0000
0001
0000
0000
0010
0000
0100
0000
0000
1000
0000
0001
0000
0000
0100
0000
,
1001
0000
0010
1000
0000
0100
0001
0100
,
0000
0010
1000
0001
0000
0010
0001
0100
,
0110
0000
0000
0000
1000
0100
0000
0010
0000
0000
0001
0000
0000
0100
0010
0000
,
1000
0000
0001
0000
0010
0001
0000
0100
0000
0000
1000
0000
0010
0000
1000
0001
,
1000
0000
0100
0000
0010
0001
0000
0100
0000
0000
0010
0000
0000
0000
1000
0100
,
1000
0000
0001
0000
0000
0010
0100
0010
0000
0001
1000
0000
0100
0000
1000
0010
,
0000
0000
0100
0000
0000
0010
1000
0010
0000
0100
0001
0000
0010
0000
0001
1000
,
0000
0000
0100
0000
0010
0001
0010
0001
0000
0000
1000
0000
0010
0000
0001
1000
,
0001
0000
0100
0000
0000
1000
0001
1000
0000
0000
0010
0000
0000
0100
0001
0100
,
0001
0000
0000
0000
0000
0010
0100
0010
0100
0000
1000
0000
1000
0000
0001
0100
,
0001
0000
1000
0000
0000
0010
0000
0010
0000
0000
0100
0000
0000
0001
1000
0001
,
0000
0000
0010
0000
0000
0001
0000
0001
0000
0000
0100
0000
0000
0000
1000
0010
,
1000
0000
0100
0000
0000
0010
0000
0001
0000
0000
0100
0000
0010
0000
1000
0100
,
0000
0000
0010
0000
0000
0001
1000
0001
0000
0100
0010
0000
0000
1000
0100
1000
,
0000
0000
0001
0000
0000
0010
0100
0010
0000
0001
1000
0000
0000
0010
0100
0010
,
0100
0000
0010
0000
0000
1000
0100
1000
0000
0010
0001
0000
0000
0100
0001
0100
,
0001
0000
1000
0000
0000
0010
1000
0010
0000
0000
0100
0000
0000
0001
0010
0001
,
0010
0000
0000
0000
0100
1000
0100
1000
0100
0000
0010
0000
0001
0000
1000
0010
,
1000
0100
0001
0000
1010
0000
0101
0000
,
0011
0110
1100
0101
,
0001
0010
1000
0010
0100
0010
0001
1000
,
0100
0010
0100
1000
0010
0100
0001
1000
,
0100
0010
0001
0100
0001
0000
0010
1000
,
0100
0000
0010
0001
1000
0000
0001
0100
,
1000
0000
0010
1000
0100
0000
0001
0010
,
1000
0000
0100
0000
1000
0000
0010
0000
1000
0000
0001
0000
0010
0100
0010
0100
,
0010
0000
0000
0000
0001
0000
0100
0010
0000
0000
1000
0000
1000
0000
0100
0010
,
0000
0010
0001
0000
0100
0000
0001
1000
0000
0010
0000
0000
1000
0100
1000
0100
,
0000
0000
0010
0000
0001
0000
1000
0001
0000
0000
0000
0000
0100
0010
0100
0010
,
0000
0010
0000
0000
1000
0001
1000
0001
0000
0000
0000
0000
0010
0001
0010
0001
,
0010
0000
0100
0000
1000
0000
0010
0000
1000
0000
0001
0000
0100
0001
0100
0001
,
0000
1000
0000
0000
0010
0100
0010
0100
0000
0001
0000
0000
1000
0100
1000
0100
,
1000
0000
0000
0000
0001
0000
0100
0010
1000
0000
0000
0000
0001
0010
0100
1000
,
0000
0000
0000
0000
1000
0010
0100
0001
0000
0000
0000
0000
1000
0001
0100
0010
,
0000
0000
1000
0100
1000
0100
1000
0100
,
1001
0000
0000
0000
0010
0100
0000
0001
0000
0000
1000
0000
0000
0100
1000
0010
,
0000
0000
0010
0000
0000
0100
0001
1000
0000
0000
0010
0000
0000
0000
1000
0100
,
0010
0000
0001
0000
0000
1000
0001
0100
0000
0000
0010
0000
0000
0100
0001
1000
,
0000
0000
0100
0000
0010
0001
1000
0010
0000
0100
0001
0000
0000
1000
0100
1000
,
0000
0000
0001
0000
0010
0100
0000
1000
0000
0000
0010
0000
0000
1000
0001
0010
,
0000
0000
0100
0000
0000
0010
0001
0100
0000
0000
1000
0000
0000
0100
1000
0010
,
0100
0000
0001
0000
0010
0100
0010
0100
1000
0000
0001
0000
1000
0010
0100
0001
,
1000
0000
0100
0000
0010
0001
0100
0000
0010
1000
0100
0000
0010
0000
0001
1000
,
0002
0000
0000
0000
,
0000
0000
0000
0000
,
0003
0000
0000
0000
;
