#TITLE:THERE YOU'LL BE;
#ARTIST:DJ SPEEDO feat. ANGELICA;
#BANNER:THERE YOU'LL BE.png;
#BACKGROUND:THERE YOU'LL BE-bg.png;
#JACKET:THERE YOU'LL BE-jacket.png;
#DISCIMAGE:THERE YOU'LL BE-original.png;
#MUSIC:THERE YOU'LL BE.ogg;
#SAMPLESTART:46.06;
#SAMPLELENGTH:20;
#DISPLAYBPM:172;
#BPMS:0=172.009;
#BGCHANGES:0=THERE YOU'LL BE.mp4=1=0=0=0,
;

//---------------dance-single - ----------------
#NOTES:
     dance-single:
     :
     Beginner:
     4:
     :
0000
0000
0000
0000
,
0000
0000
0000
0000
,
0000
0000
0000
0000
,
0001
0000
0001
0000
,
0001
0000
0000
0000
,
1000
0000
0000
0000
,
1000
0000
0000
0000
,
1000
0000
0000
0000
,
0010
0000
0000
0000
,
0100
0000
0000
0000
,
0100
0000
0000
0000
,
0010
0000
0000
0000
,
0010
0000
0000
0000
,
0001
0000
0000
0000
,
1000
0000
0000
0000
,
0010
0000
0000
0000
,
0100
0000
0000
0000
,
0001
0000
0000
0000
,
0100
0000
0000
0000
,
1000
0000
0000
0000
,
0100
0000
0000
0000
,
0010
0000
0010
0000
,
0100
0000
0100
0000
,
0001
0000
1000
0000
,
0001
0000
1000
0000
,
1000
0000
0100
0000
,
0001
0000
0100
0000
,
1000
0000
0100
0000
,
0001
0000
0100
0000
,
1000
0000
1000
0000
,
0001
0001
0001
0000
,
1000
0000
1000
0000
,
0001
0000
1000
0000
,
0001
0000
0000
0000
,
0001
0000
0000
0000
,
0100
0000
0000
0000
,
0100
0000
0100
0000
,
0001
0000
0000
0000
,
1000
0000
0000
0000
,
0010
0000
0010
0000
,
1000
1000
1000
0000
,
0001
0000
0000
0000
,
1000
0000
0000
0000
,
0001
0000
0001
0000
,
0100
0000
0010
0000
,
1000
0000
0000
0000
,
1000
0000
0000
0000
,
0100
0000
0000
0000
,
0100
0000
0000
0000
,
0001
0000
1000
0000
,
0001
0000
1000
0000
,
0001
0000
0001
0000
,
1000
0000
1000
0000
,
1000
0000
1000
0000
,
0100
0100
0000
0000
,
0010
0010
0000
0000
,
0001
0001
0000
0000
,
1000
1000
0000
0000
,
0010
0010
0000
0000
,
0100
0100
0000
0000
,
0001
0001
0000
0000
,
1000
1000
0000
0000
,
1001
0000
0000
0000
;

//---------------dance-single - ----------------
#NOTES:
     dance-single:
     :
     Easy:
     6:
     :
0000
0000
0000
0000
,
0000
0000
0000
0000
,
0000
0000
0000
0000
,
0001
0000
1000
0000
,
0200
0000
0000
0300
,
0010
0000
0000
0000
,
0100
0000
0000
0000
,
1000
0000
0001
0000
,
0010
0001
1000
0100
,
0001
0000
0100
0000
,
1000
0000
0100
0000
,
0010
0000
0100
0000
,
0001
0100
1000
0100
,
1001
0000
0000
0000
,
0010
0000
0000
0000
,
0100
0000
0000
0000
,
2002
0000
0000
3003
,
0001
0000
0001
0000
,
1000
0000
1000
0000
,
0001
0000
0100
0000
,
1000
0000
0010
0000
,
0001
0000
0010
0000
,
1000
0000
0100
0000
,
0001
0000
1000
0000
,
2002
0000
0000
3003
,
1000
0000
0100
0000
,
0001
0000
0010
0000
,
0001
0001
1000
1000
,
0010
0010
0100
0100
,
0001
0100
1000
0100
,
0001
0010
1000
0100
,
0002
0003
2000
3000
,
1001
0000
0110
0000
,
2002
0000
0000
3003
,
0001
0000
1000
0000
,
0010
0001
1000
0100
,
2002
0000
0000
3003
,
0001
0000
1000
0000
,
0010
0000
0100
0000
,
0010
1000
0100
0001
,
2002
0000
0000
3003
,
0001
0001
1000
1000
,
0001
0001
1000
1000
,
0001
0100
1000
0100
,
0001
0100
1000
0100
,
0010
0010
0100
0100
,
0010
0010
0100
0100
,
0220
0000
0000
0000
,
0000
0000
0000
0330
,
0001
0010
1000
0100
,
0001
0010
1000
0100
,
2002
0000
0000
0000
,
0000
0000
0000
3003
,
1000
0001
1000
0001
,
1000
1000
0100
0000
,
0001
0001
0100
0000
,
0001
0100
1000
0010
,
0010
1000
0100
0001
,
0010
0010
1000
0000
,
0100
0100
0001
0000
,
0010
1000
0100
0001
,
1000
0000
0001
0000
,
1001
0000
0000
0000
,
0000
0000
0000
0000
;

//---------------dance-single - ----------------
#NOTES:
     dance-single:
     :
     Medium:
     9:
     :
0000
0000
0000
0000
,
0000
0000
0000
0000
,
0000
0000
0000
0000
,
1000
0000
0001
0000
,
0200
0000
0000
0300
,
0010
0000
0000
0000
,
0100
0000
0000
0000
0000
0000
0000
0010
,
0001
0000
1000
0000
,
0010
1000
0001
0100
,
1002
0010
0100
0003
,
2001
0100
0001
3000
,
1000
0100
0001
0010
,
0010
0001
1000
0100
,
0001
0010
0000
1000
0000
1010
0000
0001
,
0000
1001
0000
0100
0000
1001
0000
0010
,
0000
0101
0000
0001
0000
1100
0000
0001
,
2002
0000
0000
3003
,
0001
0100
1000
0010
,
0001
0000
0100
0000
1000
0100
1000
0000
,
0010
0001
0100
1000
,
0100
0000
0001
0000
0100
0001
0100
0000
,
0010
0001
0010
0000
0100
1000
0100
0000
,
0010
1000
0010
0000
0100
0001
0100
0000
,
0010
0001
0100
1000
,
0220
0000
0000
0330
,
1000
0100
0001
0010
,
1000
0000
0100
0000
0001
0100
0001
0000
,
0010
1000
0100
0001
,
0100
0000
1000
0000
0100
1000
0100
0000
,
0010
1000
0010
0000
0100
0001
0100
0000
,
0010
0001
0010
0000
0100
1000
0100
0000
,
0010
1000
0100
0001
,
1000
0001
0000
0000
0001
1000
0000
0000
,
1001
0000
0000
0000
0010
1000
0100
0000
,
1000
0001
0100
0000
0010
1000
0001
0000
,
0100
1000
0100
0001
,
0010
1000
0010
0001
,
1100
0000
0100
0100
,
0002
0000
2000
3003
,
0001
0001
1000
1000
,
0110
0000
0001
0010
,
1100
0000
0100
0100
,
1000
0100
1000
0000
0010
0001
0010
0000
,
0100
1000
0100
0000
0001
0010
0001
0000
,
0200
0000
0020
0330
,
0001
0100
1000
0010
,
0001
0100
1000
0010
,
0001
0100
0000
0101
0000
1000
0000
1010
,
0000
0001
0000
0101
0000
0100
0000
1000
,
0010
0000
0100
0000
,
1001
0010
0100
0000
,
1000
0100
0000
0001
0000
0001
0000
0001
,
0100
1000
1000
1000
,
1000
0100
0000
0001
1000
0001
1000
0001
,
2000
0010
0001
3000
,
0002
0010
0100
0003
,
1000
0100
0001
0010
,
0010
0001
0100
1000
,
0020
0100
1000
0030
,
0200
0010
0001
0300
,
0010
0001
0100
1000
,
0100
0001
0001
1000
,
2002
0000
0000
0000
,
0000
0000
3003
0000
,
0000
0000
0000
0000
;

//---------------dance-single - ----------------
#NOTES:
     dance-single:
     :
     Hard:
     11:
     :
0000
0000
0000
0000
,
0000
0000
0000
0000
,
0000
0000
0000
0000
,
0001
0010
0000
0000
1000
0100
0000
0000
,
0220
0000
0000
0330
,
0010
1000
0000
0000
0000
0000
0000
0000
,
0100
0001
0000
0000
0000
0000
0000
0010
,
1000
0000
0001
0001
,
0010
0001
1000
0100
1000
0010
0100
0001
,
0100
0010
1000
0000
1000
0100
0001
0000
,
0010
1000
0100
0000
0010
0001
0100
0000
,
0010
0001
0100
1000
,
0010
1000
0001
0100
0001
1000
0100
0000
,
1000
0100
0010
0001
1000
0100
0010
0001
,
0000
0001
0100
0010
1000
0001
0100
0010
,
1000
0001
1000
0001
1000
0001
1000
0000
,
2200
0000
0000
3300
,
0001
0010
0001
0000
1000
0100
1000
0000
,
0001
0000
1000
0000
0001
0100
1000
0000
,
1000
0100
1000
0000
0001
0100
0001
0000
,
1000
0000
0001
0000
1000
0100
0001
0000
,
0010
1000
0001
0100
0010
1000
0100
0000
,
0010
0001
1000
0100
0010
0001
1000
0000
,
0010
1000
0100
0000
0010
0001
0100
0000
,
2002
0000
0000
3003
,
0010
0001
0010
0000
1000
0100
1000
0000
,
1000
0000
0001
0000
1000
0100
0001
0000
,
0100
0001
0100
0000
0010
1000
0010
0000
,
1000
0000
0001
0000
0001
0100
1000
0000
,
0010
0001
1000
0100
0010
0001
0100
0000
,
0010
1000
0001
0100
0010
1000
0001
0000
,
0010
0001
0100
0000
0010
1000
0100
0000
,
0001
1000
0000
0000
1000
0001
0000
0000
,
2002
0000
3003
0000
1000
0100
0001
0100
,
1000
0000
0000
0000
0001
0100
1000
0100
,
0002
0100
2003
0100
,
3002
2000
0000
3003
,
0001
0100
1000
0100
0001
1000
0001
0000
,
1000
0100
0001
0100
1000
0000
1001
0000
,
0010
1000
0001
0100
0001
1000
0010
0000
,
0022
0033
2200
3300
,
2002
0000
0000
3003
,
0001
1000
0010
0100
0001
0000
1001
0000
,
1000
0100
0001
0100
1000
0000
0110
0000
,
0001
0100
1000
0100
0001
0000
1001
0000
,
0010
0001
1000
0010
0001
0000
0110
0000
,
0010
1000
0001
1000
0100
0010
0001
1000
,
0000
0001
0000
1001
1000
0001
1000
0001
,
0100
0010
0100
0010
1000
0010
1000
0010
,
0001
0000
1000
0000
0001
0001
1000
0000
,
0001
0100
1000
0000
1000
0100
0001
0000
,
0001
0100
0000
1002
0000
1000
0000
1003
,
1000
0100
0000
2001
0000
0001
0000
3001
,
0001
0100
0000
1000
0001
1000
0001
1000
,
0010
1000
0001
0000
0010
0001
1000
0000
,
0010
1000
0100
1000
0001
1000
0100
0000
,
0100
1000
0010
1000
0001
1000
0100
0010
,
0001
1000
0100
0010
0001
1000
0001
0000
,
0010
0001
1000
0000
0010
1000
0001
0000
,
0010
0001
0100
0001
1000
0001
0100
0000
,
0100
0001
0010
0001
1000
0001
0100
0010
,
1000
0001
0100
0010
1000
0001
1000
0000
,
2002
0003
0200
0000
,
0000
0000
3300
0000
,
0000
0000
0000
0000
;

//---------------dance-single - ----------------
#NOTES:
     dance-single:
     :
     Challenge:
     13:
     :
0000
0000
0000
0000
,
0000
0000
0000
0000
,
0000
0000
0000
0000
,
0010
0000
1000
0100
0000
0001
0100
0000
,
0010
1000
0001
0000
0010
0100
0010
0100
,
1000
0001
0000
0001
0100
0010
1000
0010
,
0100
0001
1000
0001
0010
0100
1000
0000
,
1100
0000
0010
0100
0001
0000
0010
0001
,
0010
0100
1000
0010
1000
0100
0001
0000
,
0011
0000
0100
0000
1000
0000
0001
0000
0000
0000
0100
0010
0100
0000
0001
0000
,
0000
0000
0010
0000
0001
0000
1000
0000
0000
0000
0010
0100
0010
0000
1000
0000
,
0001
0000
1000
0000
0010
0000
0100
0000
0001
0000
1000
0100
1000
0000
0010
0000
,
0101
1010
1001
0110
,
0001
0000
0010
0000
0001
0000
0100
0000
0010
0000
1000
0001
1000
0000
0100
0000
,
0001
0000
0100
0000
1000
0000
0010
0000
0100
0000
0001
0010
0001
0000
1000
0000
,
0010
0000
1000
0000
0100
0000
0010
0000
0001
0000
0100
0010
0100
0000
0001
0000
,
0010
0000
1000
0000
0010
0000
0001
0000
1000
0100
1000
0100
1000
0000
0001
0000
,
0010
0001
0100
0010
1000
0100
0001
0100
,
1000
0010
0100
0010
1000
0001
1000
0100
,
0001
0100
0010
0100
1000
0010
0100
1000
,
0100
0001
0010
0001
0010
0100
1000
0001
,
0010
0100
0001
0100
1000
0001
1000
0010
,
0100
1000
0100
0001
0100
0010
0100
0001
,
0010
0100
1000
0010
1000
0100
0001
0000
,
0010
0000
0001
0000
0100
0000
0010
0000
1000
0000
0001
0100
0001
0000
1000
0000
,
0010
1000
0010
0100
0010
1000
0100
0001
,
0100
0010
0100
1000
0010
0100
0010
1000
,
0001
0010
0001
0100
1000
0100
0010
0100
,
1000
0100
0001
0010
0001
0100
0010
1000
,
0100
0010
0001
1000
0001
0100
0010
1000
,
0100
0010
0001
0100
0010
1000
0100
1000
,
0001
0000
0010
0000
0100
0000
1000
0000
0001
0100
0001
0000
1000
0100
1000
0000
,
1001
1100
0000
0000
1001
0101
0000
0000
,
0010
1000
0010
0100
0001
0010
0001
1000
,
0010
1000
0000
0000
1000
0100
0000
0000
0100
0001
0000
0000
0001
0010
0000
0000
,
1010
0000
0001
0101
0000
1000
1100
0000
,
0010
0100
0001
0000
1000
1000
0001
0001
,
0100
0010
0100
0001
0010
1000
0010
0001
,
0100
0010
0100
1000
0100
0001
0010
0100
,
1000
0010
1000
0001
0100
0010
0100
1000
,
0100
0000
0001
0000
0010
0000
1000
0000
0010
0000
0001
0000
0100
0010
0100
0010
,
0100
0001
0010
0001
0100
0010
1000
0100
,
0001
0100
0010
0100
1000
0010
1000
0001
,
0100
0010
0100
0001
0010
1000
0100
1000
,
0001
0100
0010
1000
0100
0010
0001
0200
,
0010
0000
0301
2000
0100
0000
3010
0100
,
0001
0011
0110
1100
,
0001
1000
0000
0000
1000
0100
0000
0000
0100
0010
0000
0000
0010
0001
0000
0000
,
0001
0100
0000
0000
0100
0010
0000
0000
0010
1000
0000
0000
1000
0000
0002
0000
,
0100
0000
1003
0020
0001
0000
0130
0010
,
1000
1001
1010
1100
,
0001
0010
0100
0010
0001
0100
0010
1000
,
1002
1000
1000
1003
,
1100
0101
1100
0101
,
0010
0000
1000
0000
0100
0000
0010
0000
0000
0000
0001
1000
0001
0000
0100
0000
,
0000
0000
0010
0000
1000
0000
0001
0000
0000
0000
1000
0100
1000
0000
0001
0000
,
0010
0000
0001
0000
0100
0000
1000
0000
0100
0000
0001
0010
0001
0000
1000
0000
,
0010
0000
1000
0000
0001
0000
0100
0000
0001
0010
0001
0010
0001
0000
1000
0000
,
0010
0000
1000
0000
0100
0000
1000
0000
0000
0000
0001
0100
0001
0000
0010
0000
,
0000
0000
0001
0000
1000
0000
0010
0000
0000
0000
0100
0001
0100
0000
0010
0000
,
1000
0000
0100
0000
0001
0000
0100
0000
1000
0000
0010
0100
0010
0000
1000
0000
,
0001
0000
0100
0000
0010
0000
1000
0000
0100
0010
0100
0010
0100
0000
1000
0000
,
0002
0000
0000
0000
,
0000
0000
0000
0000
,
0000
0000
0000
0003
;

//---------------dance-double - ----------------
#NOTES:
     dance-double:
     :
     Easy:
     5:
     :
00000000
00000000
00000000
00000000
,
00000000
00000000
00000000
00000000
,
00000000
00000000
00000000
00000000
,
00000000
00000000
00000000
00000000
,
00000000
00000000
00000000
00000000
,
00001000
00000000
00000000
00000000
,
00000010
00000000
00000000
00000000
,
00000001
00000000
00000000
00000000
,
00000010
00000000
00001000
00000000
,
00100000
00000000
00010000
00000000
,
00000010
00000000
00001000
00000000
,
01000000
00000000
00010000
00000000
,
00000100
00000000
00001000
00000000
,
00110000
00000000
00010000
00000000
,
00001010
00000000
00001000
00000000
,
00110000
00000000
00001000
00000000
,
00001010
00000000
00010000
00000000
,
00100000
00000000
00000000
01000000
,
00000000
00000000
00000000
00000000
,
00000100
00000000
00000000
00000010
,
00000000
00000000
00000000
00000000
,
00011000
00000000
00000000
00000000
,
01100000
00000000
00000000
00000000
,
00011000
00000000
00000110
00000000
,
00001000
00000000
00000100
00000000
,
00000001
00000000
00000000
00000100
,
00000000
00000000
00001000
00000000
,
00010000
00000000
00100000
00000000
,
01000000
00000000
10000000
00000000
,
00010000
00000000
00001000
00000000
,
00000001
00000000
00000010
00000000
,
00000100
00000000
00001000
00000000
,
00011000
00000000
00011000
00000000
,
10000000
00000000
01000000
00000000
,
00100000
00000000
00010000
00000000
,
00001000
00000000
00000100
00000000
,
00000010
00000000
00000001
00000000
,
00011000
00000000
10000000
00000000
,
00100000
00000000
01000000
00000000
,
00010000
00000000
00001000
00000000
,
00000010
00000000
00000100
00000000
,
00001001
00000000
00000010
00000000
,
00011000
00000000
01000000
00000000
,
10010000
00000000
00011000
00000000
,
00001001
00000000
00000000
00000000
,
00000110
00000000
00001000
00000000
,
01100000
00000000
00010000
00000000
,
00000010
00000000
00010000
00000000
,
00001000
00000000
00100000
00000000
,
10010000
00000000
01000000
00000000
,
00011000
00000000
00000010
00000000
,
00000011
00000000
00000000
00000000
,
11000000
00000000
00000000
00000000
,
00011000
00011000
00011000
00011000
,
00100000
00000000
00010000
00000000
,
00000010
00000000
00001000
00000000
,
01000000
00000000
00010000
00000000
,
00000100
00000000
00001000
00000000
,
00110000
00000000
00001000
00000000
,
00001010
00000000
00010000
00000000
,
00110000
00000000
00001000
00000000
,
00001010
00000000
00010000
00000000
,
00011000
00000000
00000000
00000000
,
00000000
00000000
00000000
00000000
;

//---------------dance-double - ----------------
#NOTES:
     dance-double:
     :
     Medium:
     8:
     :
00000000
00000000
00000000
00000000
,
00000000
00000000
00000000
00000000
,
00000000
00000000
00000000
00000000
,
00000000
00000000
00000000
00000000
,
00000000
00000000
00000000
00000000
,
00002000
00000000
00013000
00000000
,
00000020
00000000
00000130
00000000
,
00002000
00000000
00013000
00000000
,
01100000
00000000
00011000
00000000
,
00001100
00000000
00000100
00000000
,
00000101
00000000
00000001
00000000
,
00000011
00000000
00000010
00000000
,
00001010
00000000
00001000
00000000
,
00010000
00000000
00100000
00000000
01000000
00000000
10000000
00010000
,
10000000
01000000
00100000
00010000
,
00001000
00000000
00000100
00000000
00000010
00000000
00000001
00001000
,
00000001
00000010
00000100
00001000
,
01010000
00000000
00000000
10000000
00000000
00000000
01000000
00000000
,
00000000
00100000
00001000
00010000
,
00001010
00000000
00000000
00000001
00000000
00000000
00000100
00000000
,
00000000
00001000
00010000
00000100
,
00101000
00000000
00010000
00000000
,
01001000
00000000
00010000
00000000
,
00001001
00000000
00000110
00001001
,
00000000
00000000
00000000
00000000
,
00000011
00000000
00000000
00000100
00000000
00000000
00001000
00000000
,
00000000
00000000
00200000
00000000
,
20300000
00000000
30100000
01000000
,
00010000
00000000
00000000
00000000
,
01100000
00000000
00010000
00000000
,
00001100
00000000
00000010
00000000
,
00001010
00000000
00110000
00000000
,
00010000
00001000
00000000
00000000
00010000
00001000
00000000
00000000
,
01010000
00100000
10000000
01000000
,
10000000
00000000
00100000
00000000
00010000
00000000
00001000
00000010
,
00000001
00000100
00000001
00000010
,
00001000
00000000
00010000
00000000
00001000
00000000
01000000
00010000
,
10000000
00100000
10000000
01000000
,
00010000
00000000
00001000
00000000
00000100
00000000
00000001
00000010
,
00000001
00000100
00001000
00010000
,
10100000
00010000
00110000
00001000
,
00012000
00000000
00000010
00000000
,
00023000
00000000
01030000
00000000
,
00010000
00011000
00000110
00000000
,
00000010
00001000
00010000
00000000
01100000
00000000
00000000
00000000
,
00020000
00000000
00032000
00000000
,
00203000
00000000
00320000
00000000
,
00130000
00001000
01000000
00010000
,
00100000
00001000
01000000
00010000
,
01200000
00000000
00302000
00000000
,
00023000
00000000
00030020
00000030
,
00001010
00000000
00011000
00000000
00100000
01000000
00000000
00000000
,
11000000
01010000
00001000
00010000
,
00001010
00011000
01010000
00011000
,
00100000
00000000
00010000
00000000
10000000
01000000
00010000
00000000
,
00001000
00000000
00010000
00000000
00001000
00000010
00000001
00000000
,
00001000
00000000
00000001
00000000
00000100
00001000
00010000
00000000
,
00100000
00000000
00010000
00000000
00001000
00010000
00001000
00010000
,
00000010
00000000
00001000
00000000
00000001
00000100
00001000
00000000
,
00010000
00000000
00001000
00000000
00010000
00100000
10000000
00000000
,
00010000
00000000
10000000
00000000
01000000
00010000
00001000
00000000
,
00000010
00000000
00001000
00000000
00010000
00001000
00010000
00000000
,
00011000
00000000
00000000
00000000
,
00000000
00000000
00000000
00000000
;

//---------------dance-double - ----------------
#NOTES:
     dance-double:
     :
     Hard:
     11:
     :
00000000
00000000
00000000
00000000
,
00000000
00000000
00000000
00000000
,
00000000
00000000
00000000
00000000
,
00000000
00000000
00000000
00000000
,
00000000
00000000
00000000
00000000
,
00011000
00000000
00000010
00000000
,
00000110
00000000
00001000
00000000
,
00011000
00000000
01000000
00000000
,
01100000
00000000
00011000
00000000
,
00000010
00000001
00001000
00000001
00000100
00001000
00010000
00000000
,
00100000
10000000
00010000
10000000
01000000
00010000
00001000
00000000
,
00000010
00000001
00000100
00000010
00000100
00001000
00010000
00000000
,
00100000
10000000
01000000
00100000
01000000
00010000
00001000
00000000
,
00010000
00100000
10000000
00010000
10000000
01000000
00010000
00001000
,
00000010
00000001
00001000
00000001
00000100
00001000
00010000
00000000
,
00001000
00000010
00000001
00000100
00001000
00010000
01000000
10000000
,
00100000
00010000
00001000
00000100
00001000
00010000
00001000
00000000
,
00011000
00000000
00100000
00000000
01000000
00010000
00002000
00000000
,
00000000
00010000
00003000
00010000
,
00011000
00000000
00000010
00000000
00000100
00001000
00020000
00000000
,
00000000
00000000
00001000
00000000
00000000
00030000
00001000
00010000
,
00100000
10000000
01000000
00000000
00100000
01000000
00010000
00000000
,
00001000
00000100
00000001
00000010
00001000
00010000
00001000
00000100
,
00000001
00000010
00001000
00010000
00001000
00000000
00012000
00000000
,
00010000
00000000
00010000
00000000
00013000
00000000
00010000
00001000
,
00100000
00000000
00010000
00000000
00100000
01000000
00020000
00000000
,
00000000
00031000
00001010
00000101
,
00000010
00000001
00000100
00001000
00000000
00000000
00010000
00000000
,
00002000
00010000
00010000
00013000
,
00100000
01000000
10000000
00000000
00110000
00000000
01001000
00000000
,
00220000
00000000
00000000
00330000
,
00022000
00033000
00002020
00003030
,
00010000
00000100
00000000
00000000
00001000
00000001
00000000
00000000
,
00000010
00000000
00000010
00000000
00000001
00000100
00001000
00000000
,
00010000
00000000
00010000
00000000
00100000
10000000
01000000
00000000
,
00100000
00010000
01000000
00000000
00100000
00010000
00001000
00000000
,
00000100
00000000
00000010
00000000
00000100
00000001
00001000
00000000
,
00000110
00000000
00001001
00000000
00000100
00001000
00010000
00000000
,
01100000
00000000
10010000
00000000
00100000
00010000
00001000
00000000
,
00010000
00001000
00000100
00000000
00001000
00010000
00100000
00000000
,
00110000
00011000
00001100
00000110
,
00001001
00000100
00001010
00000100
,
00011000
00100000
01010000
00100000
,
10000000
01000000
00010000
00000000
00001000
00000100
00000001
00000000
,
00000010
00000001
00000100
00001000
00010000
01000000
10000000
00000000
,
10000000
01010000
00100000
00011000
,
00000010
00000101
00001000
00000110
,
00000010
00001000
00010000
00000000
00100000
00010000
00001000
00000000
,
00000100
00001000
00010000
00000000
01000000
00010000
00001000
00000000
,
00000100
00000011
00001000
00010100
,
00001000
01010000
00100000
11000000
,
10100000
00000000
01000000
00000000
00010000
00001000
00000100
00000010
,
00000100
00010000
00001000
00010000
,
01010000
00101000
00010100
00001010
,
00000100
00001000
00000001
00000100
00001000
00010000
00100000
00000000
,
01000000
00010000
10000000
01000000
00010000
00001000
00000010
00000000
,
00001000
00010000
01000000
00000000
00010000
00001000
00000100
00000000
,
00001000
00010000
00100000
00010000
00001000
00000010
00000001
00000000
,
00000100
00000001
00000100
00001000
00010000
01000000
10000000
00000000
,
01000000
10000000
01000000
00010000
00001000
00000100
00000001
00000000
,
00000100
00001000
00010000
00000000
01000000
00010000
00001000
00000000
,
00000010
00001000
00010000
00100000
00010000
00001000
00000100
00000000
,
00011000
00000000
00000000
00000000
,
00000000
00000000
00000000
00000000
;
