#TITLE:THE WHISTLE SONG (Blow My Whistle Baby);
#ARTIST:DJ ALIGATOR PROJECT;
#BANNER:THE WHISTLE SONG (Blow My Whistle Baby)-bn.png;
#BACKGROUND:THE WHISTLE SONG (Blow My Whistle Baby)-bg.png;
#JACKET:THE WHISTLE SONG (Blow My Whistle Baby)-jacket.png;
#MUSIC:THE WHISTLE SONG (Blow My Whistle Baby).ogg;
#SAMPLESTART:16.44;
#SAMPLELENGTH:20;
#DISPLAYBPM:140;
#BPMS:0=138.438,4=139.998;
#STOPS:36=0.857,170=0.857;
#BGCHANGES:2=THE WHISTLE SONG (Blow My Whistle Baby).mp4=1=1=0=0=StretchNoLoop==CrossFade==,
;

//---------------dance-single - ----------------
#NOTES:
     dance-single:
     :
     Beginner:
     4:
     :
0000
0000
0000
0000
,
0000
0000
0000
0000
,
0000
0000
0000
0000
,
0000
0010
0000
0010
,
0000
0100
0000
0100
,
0000
0001
0000
0001
,
0000
1000
0000
1000
,
0000
0010
0000
0100
,
0000
0001
0000
1000
,
0000
0000
0001
0001
,
0000
1000
0000
1000
,
0000
0000
1000
1000
,
0000
0001
0000
0001
,
0000
0000
0010
0010
,
0000
0100
0000
1000
,
0000
0000
0010
0010
,
0000
0100
0000
0001
,
0000
0000
1001
0000
,
0000
0000
0000
0010
,
0000
0010
0000
1000
,
0000
0001
0000
0010
,
0000
0010
0000
0001
,
0000
1000
0000
0010
,
0000
0100
0000
0001
,
0000
0100
0000
0010
,
0000
0100
0000
1000
,
0000
0100
0000
0010
,
0000
1000
0000
0001
,
0000
0010
0000
0100
,
0000
1000
0000
0001
,
0000
0001
0000
1000
,
0000
0010
0000
0010
,
0000
1000
0000
0001
,
0000
0010
0000
0010
,
0000
0010
0000
0001
,
0000
0001
0000
1000
,
0000
0001
0000
0010
,
0000
0100
0000
0010
,
0000
0001
0000
0001
,
0000
1000
0000
0010
,
0000
0100
0000
0010
,
0000
0100
0000
1000
,
0000
0001
0000
0000
,
1000
0000
0001
0000
,
0010
0000
1000
0000
,
0010
0000
0100
0000
,
0010
0000
0100
0000
,
0010
0000
0001
0000
,
1000
0000
0001
0000
,
0100
0000
0100
0000
,
1000
0000
0010
0000
,
1001
0000
0000
0000
;

//---------------dance-single - ----------------
#NOTES:
     dance-single:
     :
     Easy:
     4:
     :
0000
0000
0000
0000
,
0000
0000
0000
0000
,
0000
0000
0000
0000
,
0000
0010
0000
0000
,
0000
0100
0000
0100
,
0000
0001
0000
0001
,
0000
1000
0000
1000
,
0000
0010
0000
0100
,
0000
0001
0000
1000
,
0000
0000
0001
0001
,
1000
1000
0001
1000
,
0100
0000
1000
1000
,
0001
0001
1000
0001
,
0100
0000
0010
0010
,
0100
0100
0010
1000
,
0100
0000
0010
0010
,
0100
0100
0010
0001
,
0100
0000
2002
0000
,
0000
3003
0000
0010
,
0000
0010
0000
1000
,
0100
0001
0000
0010
,
0000
0010
0000
0001
,
0100
1000
0000
0010
,
0000
0100
0000
0001
,
1000
0100
0000
0010
,
0000
0100
0000
1000
,
0001
0100
0010
0010
,
0000
1000
0000
0001
,
0000
0010
0100
0100
,
0000
1000
0000
0001
,
0000
0001
1000
1000
,
0000
0010
0000
0010
,
0000
1000
0001
0001
,
0000
0010
0000
0010
,
0000
0010
0000
0001
,
0000
0001
0000
1000
,
0010
0001
0000
0010
,
0000
0100
0000
0010
,
1000
0001
0000
0001
,
0000
1000
0000
0010
,
1000
0100
0000
0010
,
0000
0100
0000
1000
,
0100
0001
0000
0000
,
1000
0000
0001
0000
,
0010
0001
1000
0000
,
0010
0000
0100
0000
,
0010
1000
0100
0000
,
0010
0000
0001
0000
,
1000
0100
0001
0000
,
0100
0000
0100
0000
,
1000
0001
0010
0000
,
2002
0000
0000
3003
;

//---------------dance-single - ----------------
#NOTES:
     dance-single:
     :
     Medium:
     7:
     :
0000
0000
0000
0000
,
0000
0000
0000
0000
,
0000
0000
0000
0000
,
0010
0010
0010
0000
,
0100
1001
0100
1001
,
1000
0010
0100
0001
,
0100
0010
1000
0100
,
0010
0001
1000
0100
,
0010
0100
1000
0010
,
1001
0000
0001
1000
,
0010
0100
1001
0110
,
0001
1000
0010
1000
,
0010
0001
0110
1001
,
0010
1000
0010
1000
,
0100
0001
0110
1001
,
1000
0001
0100
1000
,
0010
0001
1001
0110
,
1001
0110
2002
0000
,
0000
3003
0010
0100
,
0010
0100
0001
0010
,
0100
1000
0001
1000
,
0001
1000
0100
0001
,
0010
1000
0010
0100
,
0010
0100
0001
1000
,
0010
0001
0010
1000
,
0100
0001
0100
1000
,
0110
1001
0110
0110
,
0001
1000
0100
0010
,
1000
0001
0110
0110
,
0001
0010
1000
0100
,
0001
0010
0110
0110
,
1000
0001
0100
0010
,
1000
0001
0110
0110
,
1000
0010
0001
0100
,
1000
0010
1001
0100
,
0010
0100
0001
0100
,
1000
0100
0110
0110
,
0001
0000
1000
0000
0100
0000
0010
0001
,
0010
0100
1000
0000
0110
0000
0110
0000
,
1000
1000
0001
0010
,
0010
0100
0001
0000
0110
0000
0110
0000
,
0001
0000
0010
0000
0100
0000
1000
0001
,
0010
0100
1000
0000
2002
0000
3003
0000
,
0001
0001
1000
1000
,
0001
0000
1000
0000
0001
1000
0100
0000
,
0010
0010
0100
0100
,
0010
0000
0100
1000
0001
0100
0010
0000
,
0010
1000
0100
0001
,
1001
0000
0110
0000
1000
0100
0001
0000
,
0010
0001
0100
1000
,
0010
0000
0001
0010
1000
0010
0001
0000
,
2002
0000
0000
3003
,
0000
0000
0000
0000
;

//---------------dance-single - ----------------
#NOTES:
     dance-single:
     :
     Hard:
     10:
     :
0000
0000
0000
0000
,
0000
0000
0000
0000
,
0000
0000
0000
0000
,
1001
0000
0010
0100
0001
0100
0000
0000
,
0000
0001
1000
0010
0101
0000
0101
0000
,
0110
0000
0001
1000
0010
0100
0000
0000
,
0000
0001
0010
1000
0100
0010
1000
0000
,
0011
0000
0100
1000
0001
0100
0000
0000
,
0100
0001
0010
1000
0010
0001
0100
1000
,
0100
0000
0000
0000
1001
0000
1010
0100
,
0001
1000
0000
0110
0000
0001
0010
0001
,
1000
0100
0001
0000
0110
0000
1001
0010
,
0100
0001
0000
0011
0000
1100
0001
0100
,
0010
1000
0100
0000
1001
0000
0110
0001
,
1000
0100
0000
1010
0000
0101
1000
0100
,
0010
0001
0100
0000
0110
0000
1001
0010
,
0100
0010
0000
1001
0000
0110
1000
0100
,
1001
0000
1001
0000
0010
1000
0001
0100
,
0010
0000
1000
0000
0001
0000
0100
0000
0001
0000
0000
0100
0010
0000
0010
0000
,
0010
0000
0000
1000
0100
0000
0100
0000
0100
0000
0000
0010
0001
0000
0001
0000
,
1000
0000
0100
0000
0010
0000
0001
0000
1000
0000
0000
0001
0010
0000
0010
0000
,
0010
0000
0000
0100
1000
0000
1000
0000
1000
0000
0000
0001
0100
0000
0100
0000
,
0001
0000
0010
0000
0100
0000
1000
0000
0001
0000
0000
1000
0100
0000
0100
0000
,
1000
0000
0000
0001
0100
0000
0100
0000
0010
0000
0000
1000
0001
0000
1000
0000
,
0010
0000
0100
0000
0010
0000
0100
0000
0001
0000
0000
1000
0010
0000
0010
0000
,
1000
0000
0000
0001
0010
0000
0010
0000
0100
0000
0000
1000
0001
0000
1000
0000
,
0001
1000
0010
0100
0001
0010
0100
1000
,
0011
1100
0101
1010
,
1001
0000
0110
0000
1000
0100
0010
0001
,
1100
0011
1010
0101
,
0110
0000
1001
0000
1000
0010
0100
0001
,
1010
0101
0011
1100
,
0110
0000
0110
0000
0001
0100
0010
1000
,
0101
1010
1100
0011
,
1001
0000
0000
0000
1001
0000
0000
0000
0001
0000
1000
0000
0100
0000
0010
0100
,
0000
0000
1000
0000
0001
0000
0100
0001
0000
0000
0100
0000
0010
0000
1000
0010
,
0000
0000
0100
0000
0001
0000
1000
0100
0000
0000
0010
0000
0001
0000
1000
0100
,
0000
0000
0010
0000
0001
0000
0100
1000
0000
0000
0100
0000
0001
0000
0010
0100
,
0000
0000
1000
0000
0001
0000
0100
0010
0000
0000
1000
0000
0100
0000
0010
0001
,
0000
0000
0100
0000
0010
0000
1000
0001
0000
0000
0100
0000
0010
0000
1000
0100
,
0000
0000
0010
0000
0001
0000
1000
0001
0000
0000
0010
0000
0100
0000
1000
0100
,
0000
0000
1000
0000
0010
0000
0100
0001
0000
0000
0100
0000
0000
0000
0100
0000
,
0000
0100
0000
0100
0001
1000
0100
0010
,
0100
0000
1000
0001
0100
0010
0000
1001
,
0000
0010
1000
0100
0010
0001
0100
0000
,
0011
0000
1000
0100
0010
0001
0000
1010
,
0000
0001
0100
0010
1000
0010
0100
0000
,
0101
0000
0010
1000
0001
0100
0000
1100
,
0000
0010
0001
0010
0100
1000
0100
0000
,
0110
0000
0001
0010
1000
0010
0000
0001
,
1000
0100
0010
0100
0101
0000
1100
0000
,
2002
0000
0000
3003
;

//---------------dance-single - ----------------
#NOTES:
     dance-single:
     :
     Challenge:
     14:
     :
0000
0000
0000
0000
,
0000
0000
0000
0000
,
0000
0000
0000
0000
,
0002
0000
0000
0000
1003
0000
0100
0000
1000
0000
1000
0000
0000
0000
0010
0100
,
0000
0000
0001
0000
0001
0000
0100
0000
0010
0000
0010
0000
1000
0000
0001
0100
,
0002
0000
0000
0000
0013
0000
0001
0000
1000
0000
1000
0000
0010
0000
1000
0100
,
0000
0010
0010
0001
0100
0100
0200
0000
,
0320
0000
1000
0000
1030
0000
0100
0000
0001
0000
0001
0000
0010
0000
0001
1000
,
0001
0000
0100
0000
0010
0000
1000
0000
0100
0000
0100
0000
0100
0000
1000
0001
,
1000
1010
0000
0101
1001
0010
1000
1000
,
1000
0000
0100
0000
1000
0000
0001
0200
0000
0000
0010
0000
0310
0000
1000
0000
,
1010
0000
1010
0000
1100
0000
0001
1000
0002
0000
0000
0103
0010
0000
0010
0000
,
1000
0001
0010
0002
0000
1000
1003
0010
,
0110
0000
0110
0000
1001
0000
0000
0100
2000
0000
0000
3001
0100
0000
0100
0000
,
0100
0000
0010
0000
1000
0000
0001
0020
0000
0000
0100
0000
0130
0000
0010
0000
,
0011
0000
0011
0000
1001
0000
0010
1000
0020
0000
0000
0130
0001
0000
0001
0000
,
1000
0000
1000
0000
0010
0000
1000
0000
0100
0000
1000
0001
1000
0000
0010
0000
,
2000
0100
3002
0100
1003
0010
1000
0010
,
0100
0001
0100
0001
0100
0000
0010
0000
1010
0000
0000
0100
1000
0000
1000
0000
,
1100
0000
0000
0001
0100
0000
0100
0000
0110
0000
0000
0010
1000
0000
1000
0000
,
0002
0000
0100
0000
2003
0000
0100
0000
3001
0000
0000
0010
0100
0000
0100
0000
,
1100
0000
0000
0010
0100
0000
0100
0000
0101
0000
0000
0001
1000
0000
1000
0000
,
2000
0000
0010
0000
3002
0000
0010
0000
1003
0000
0000
0010
1000
0000
1000
0000
,
1001
0000
0000
0001
0010
0000
0010
0000
0011
0000
0000
1000
0001
0000
0001
0000
,
0002
0000
0010
0000
2003
0000
0010
0000
3001
0000
0000
0100
0010
0000
0010
0000
,
0110
0000
0000
1000
0001
0000
0001
0000
0101
0000
0000
1000
0100
0000
0100
0000
,
0010
0000
0001
1000
0010
0100
0001
0000
1001
0000
0100
0000
1001
0000
0100
0000
,
0010
0000
1000
0000
0010
0000
0100
0001
0000
0000
0010
0000
0001
0000
0100
0000
,
0001
0010
1000
0100
0110
0001
0110
0001
,
1000
0000
0010
0000
1000
0000
0001
0100
0000
0000
0010
0000
1000
0000
1000
0000
,
0001
0001
0100
0010
1010
0100
1010
0100
,
0001
0000
0010
0000
1000
0000
0010
0100
0000
0000
1000
0000
0010
0000
0100
0000
,
0001
0010
0001
1000
0101
0010
0101
0010
,
1000
0100
0001
0100
1100
0000
0101
0000
,
1100
0000
0101
0000
1001
0010
1000
0100
,
0001
0000
0100
0000
1000
0000
0010
0100
0001
0000
1000
0000
1000
0000
0010
0000
,
1000
0000
0100
0010
0001
1000
0010
0000
0110
0000
0001
0000
0110
0000
0001
0000
,
0010
0000
1000
0000
0001
0000
1000
0100
0010
0000
0001
0000
0100
0000
0100
0000
,
0010
0010
1000
0001
0011
1000
0011
1000
,
0010
0000
1000
0000
0100
0000
0010
0001
1000
0000
0010
0000
0100
0000
0001
0010
,
0001
0000
1000
0000
0010
0000
0100
0000
1010
0000
0100
0000
1010
0000
0100
0001
,
1000
0000
0010
0000
1000
0000
0100
0010
0001
0000
1000
0000
0010
0000
0010
0000
,
1000
0000
1000
0000
0001
0000
0100
0010
1000
0000
1001
0000
0110
0000
0000
0000
,
1001
0000
0010
0000
1000
0000
1000
0000
1000
0000
0001
0000
0010
0000
0001
0100
,
0001
1000
1000
0010
1010
0110
1010
0001
,
0010
0000
0001
0100
0010
0000
0010
0000
1000
0000
1000
0000
0100
0000
1000
0001
,
0010
0100
0100
1000
1001
0101
1001
0010
,
1000
0000
0100
1000
0001
0000
0001
0000
0001
0000
0010
0001
0100
0000
0010
0000
,
1000
0000
0100
1000
0001
0000
0001
0000
0011
0000
0110
0000
1100
0000
0010
0100
,
0001
0000
1000
0100
1000
0000
0001
0000
0100
0000
0100
0010
1000
0000
0001
0000
,
0010
0000
0001
0100
0001
0000
1000
0000
0001
0100
0010
0000
1000
0100
0010
0000
,
0001
0100
1000
0010
1001
0110
0000
0000
;

//---------------dance-double - ----------------
#NOTES:
     dance-double:
     :
     Easy:
     4:
     :
00000000
00000000
00000000
00000000
,
00000000
00000000
00000000
00000000
,
00000000
00000000
00000000
00000000
,
00000000
00001001
00000000
00000000
,
00000000
10010000
00000000
00011000
,
00000000
00000001
00000000
00000010
,
00000000
00000100
00000000
00001000
,
00000000
00010000
00000000
00100000
,
00000000
01000000
00000000
10000000
,
00000000
00000000
00000000
10000000
,
00000000
00010000
00000000
10000000
,
00000000
01000000
00000000
00010000
,
00000000
00001000
00000000
00000100
,
00000001
00000010
00000000
00000001
,
00000000
00001000
00000000
00000001
,
00000000
00000100
00000000
00001000
,
00000000
00010000
00000000
01000000
,
10000000
00100000
02000000
00000000
,
00000000
03000000
00010000
00000000
,
10000000
00000000
00100000
00010000
,
00001000
00000000
00000010
00000000
,
00000100
00000000
00000010
00000001
,
00000100
00000000
00000010
00000000
,
00000100
00000000
00001000
00010000
,
01000000
00000000
00100000
00000000
,
01000000
00000000
00100000
00010000
,
01000000
00000000
00001000
00010000
,
00000000
00000100
00000000
00000010
,
00000000
00001000
00010000
00001000
,
00000000
00100000
00000000
01000000
,
00000000
00010000
00001000
00010000
,
00000000
00001001
00000000
00000100
,
00000000
00001000
00010000
00001000
,
00000000
10010000
00000000
00100000
,
00000000
01000000
01000000
00000000
,
00010000
00000000
10000000
01000000
,
00010000
00000000
00001000
00000000
,
00000100
00000000
00000010
00000100
,
00001000
00000000
00010000
00000000
,
00010000
00000000
00100000
10000000
,
01000000
00000000
00010000
00000000
,
00010000
00000000
00001000
00000010
,
00000100
00000000
00011000
00000000
,
00000000
00000010
00000000
00000100
,
00000000
00000001
00000000
00001000
,
00000000
00000100
00000000
00000010
,
00000000
00001000
00000000
00010000
,
00000000
00100000
00000000
10000000
,
00000000
01000000
00000000
00100000
,
00000000
00010000
00000000
10000000
,
00000000
01000000
00000000
00010000
,
00002000
00000000
00000000
00003000
,
00000000
00000000
00000000
00000000
;

//---------------dance-double - ----------------
#NOTES:
     dance-double:
     :
     Medium:
     6:
     :
00000000
00000000
00000000
00000000
,
00000000
00000000
00000000
00000000
,
00000000
00000000
00000000
00000000
,
00100000
10000000
01000000
00010000
,
00001000
00000100
00000001
00000010
,
00000010
00000001
00000100
00001000
,
00010000
00100000
10000000
01000000
,
01000000
10000000
00100000
00010000
,
00001000
00000010
00000001
00000100
,
00011000
00000000
00100000
10000000
,
00010000
01000000
00100000
10000000
,
01000000
00010000
00001000
00000100
,
00000010
00001000
00000001
00000010
,
00001000
00010000
00100000
10000000
,
01000000
10000000
00010000
01000000
,
00100000
00010000
00001000
00000010
,
00000100
00000010
00000001
00001000
,
00000100
00000010
00002002
00000000
,
00000000
00003003
00001000
00000100
,
00010000
00001000
00100000
00010000
,
10000000
01000000
00010000
00001000
,
00010000
00000010
00010000
00001000
,
00000100
00000001
00000100
00001000
,
00100000
01000000
00010000
00001000
,
01000000
00010000
00000100
00001000
,
00100000
00010000
00000010
00001000
,
00010000
00001000
01001000
00011000
,
00000010
00001000
00000010
00000100
,
00000010
00001000
00010100
00011000
,
00100000
01000000
00010000
10000000
,
00100000
00010000
00101000
00011000
,
00100000
00010000
00001000
00000100
,
00001000
00010000
00010100
00011000
,
00000100
00001000
00000001
00001000
,
00000010
00000100
00001000
00010000
00100000
00000000
00100000
00000000
,
10000000
01000000
00100000
00010000
,
01000000
00010000
00101000
00010010
,
00000100
00000010
00001000
00000100
,
00001000
00000010
00010100
01001000
,
00010000
00001000
00000010
00001000
,
00010000
01000000
01001000
00010100
,
00000010
00000000
00000100
00000000
00000010
00000000
00000100
00000010
,
00001000
00010000
01000000
00000000
20020000
00000000
30030000
00000000
,
01100000
00110000
00001000
00000100
,
00000001
00000100
00000110
00001001
,
00000110
00001001
00000100
00001000
,
00010000
00100000
11000000
01010000
,
01100000
10010000
01000000
00010000
,
00001000
00000100
00001001
00000110
,
00000101
00001100
00000010
00000001
,
00000100
00001000
01010000
11000000
,
20020000
00000000
00000000
30030000
,
00000000
00000000
00000000
00000000
;

//---------------dance-double - ----------------
#NOTES:
     dance-double:
     :
     Hard:
     10:
     :
00000000
00000000
00000000
00000000
,
00000000
00000000
00000000
00000000
,
00000000
00000000
00000000
00000000
,
10010000
00000000
00100000
10000000
01000000
00010000
00000000
00000000
,
00000000
00001000
00000100
00000001
00001001
00000000
00000110
00000000
,
00001001
00000000
00000010
00000001
00000100
00001000
00000000
00000000
,
00000000
00010000
01000000
10000000
00100000
00010000
00001000
00000000
,
10010000
00000000
00100000
10000000
01000000
00010000
00000000
00000000
,
00001000
00000100
00000001
00000010
00001000
00010000
00100000
10000000
,
01000000
00000000
00000000
00000000
10010000
00000000
00100000
00010000
,
00001000
00000010
00000000
00001001
00000000
00000010
00001000
00000100
,
00000010
00000001
00000100
00000000
00001001
00000000
00000010
00001000
,
00010000
00100000
00000000
10010000
00000000
00100000
00010000
10000000
,
01000000
00100000
01000000
00000000
10010000
00000000
01000000
00010000
,
00001000
00000100
00000000
00001001
00000000
00000010
00001000
00000010
,
00000100
00000001
00000100
00000000
00001001
00000000
00000100
00001000
,
00010000
01000000
00000000
10010000
00000000
00100000
10000000
00010000
,
10010000
00000000
01100000
00000000
10000000
00010000
01000000
00100000
,
00010000
00000000
00001000
00000000
00000010
00000000
00000100
00000000
00001000
00000000
00000000
00000001
00000100
00000000
00000100
00000000
,
00000100
00000000
00000000
00000010
00001000
00000000
00001000
00000000
00001000
00000000
00000000
00000100
00000010
00000000
00000010
00000000
,
00000010
00000000
00001000
00000000
00010000
00000000
00100000
00000000
10000000
00000000
00000000
00010000
01000000
00000000
01000000
00000000
,
01000000
00000000
00000000
00010000
00100000
00000000
00100000
00000000
00100000
00000000
00000000
01000000
10000000
00000000
10000000
00000000
,
10000000
00000000
00010000
00000000
01000000
00000000
00000000
00000000
00100000
00000000
00000000
10000000
01000000
00000000
00010000
00000000
,
00001000
00000000
00000000
00000100
00000010
00000000
00001000
00000000
00000100
00000000
00000000
00000010
00000001
00000000
00000100
00000000
,
00001000
00000000
00010000
00000000
00001000
00000000
00000010
00000000
00000001
00000000
00000000
00000100
00001000
00000000
00010000
00000000
,
00100000
00000000
00000000
10000000
01000000
00000000
00100000
00000000
00010000
00000000
00000000
10000000
01000000
00000000
00010000
00000000
,
00001000
00000100
00000010
00001000
00000001
00000000
00000001
00000000
,
00001000
00000001
00000100
00000000
00000010
00000100
00001000
00010000
,
01000000
00100000
00010000
00000000
10000000
00000000
10000000
00000000
,
00100000
10000000
01000000
00000000
10000000
01000000
00010000
00001000
,
00000100
00000000
00000010
00001000
00000001
00000000
00000001
00000000
,
00001000
00000100
00000010
00000000
00000001
00000100
00001000
00010000
,
00100000
10000000
01000000
00000000
10000000
00000000
10000000
00000000
,
00100000
01000000
00001000
00010000
00000000
00011000
00000000
00000110
,
00000000
00010010
00000000
00101000
00010000
10000000
01000000
00000000
,
00100000
01000000
00010000
00000000
00001000
00000100
00000001
00000010
,
00000100
00001000
00000001
00000000
00001000
00000100
00000010
00000000
,
00000001
00000100
00001000
00000000
00010000
00100000
10000000
01000000
,
00100000
00010000
10000000
00000000
10010000
00000000
10010000
00000000
,
00100000
01000000
00010000
00000000
00001000
00000100
00000010
00001000
,
00000001
00000100
00000010
00000000
00001001
00000000
00001001
00000000
,
00000010
00001000
00000001
00000100
00000000
00010100
00000000
01001000
,
00000000
01100000
00000000
01000000
10000000
00000000
00000001
00000000
,
00001100
00000000
00000010
00000001
00000100
00001000
00000000
00110000
,
00000000
01000000
10000000
00100000
10000000
00010000
01000000
00000000
,
10100000
00000000
01000000
10000000
00100000
00010000
00000000
00001100
,
00000000
00000010
00000001
00001000
00000001
00000100
00000010
00000000
,
00001001
00000000
00000100
00001000
00000001
00000100
00000000
00011000
,
00000000
00100000
10000000
01000000
00100000
00010000
01000000
00000000
,
10010000
00000000
00100000
10000000
00100000
00010000
00000000
00011000
,
00000000
00000010
00001000
00000100
00010100
00000000
01001000
00000000
,
20000000
00000000
00000000
30000000
,
00000000
00000000
00000000
00000000
;
