#TITLE:THE TWIST (Double Pump MIX);
#ARTIST:LIBERTY ALL STAZ;
#BANNER:THE TWIST (Double Pump MIX).png;
#BACKGROUND:THE TWIST (Double Pump MIX)-bg.png;
#JACKET:THE TWIST (Double Pump MIX)-jacket.png;
#MUSIC:THE TWIST (Double Pump MIX).ogg;
#OFFSET:-0.005;
#SAMPLESTART:6.881;
#SAMPLELENGTH:20;
#DISPLAYBPM:157;
#BPMS:0=156.608;
#BGCHANGES:;

//---------------dance-single - ----------------
#NOTES:
     dance-single:
     :
     Beginner:
     3:
     :
0000
0000
0000
0000
,
0000
0000
0000
0000
,
0000
0000
0000
0000
,
0010
0000
0010
0000
,
1001
0000
0000
0000
,
2000
0000
0000
3000
,
1000
0000
1000
0000
,
0002
0000
0000
0003
,
0001
0000
0001
0000
,
0020
0000
0000
0030
,
0010
0000
0010
0000
,
0002
0000
0000
0003
,
0001
0000
0001
0000
,
0200
0000
0300
0000
,
0110
0000
0000
0000
,
1000
0000
0001
0000
,
0100
0000
0010
0000
,
1000
0000
0001
0000
,
1000
0000
0000
0000
,
0001
0000
0100
0000
,
0001
0000
0000
0000
,
0010
0000
0100
0000
,
0010
0000
0000
0000
,
0001
0000
1000
0000
,
0001
0001
0001
0000
,
0100
0000
0010
0000
,
1000
0000
0000
0000
,
0100
0000
1000
0000
,
0001
0000
0000
0000
,
0010
0000
0001
0000
,
0100
0000
0000
0000
,
0010
0000
1000
0000
,
1001
0000
0000
0000
,
0020
0000
0000
0030
,
0010
0000
0010
0000
,
0200
0000
0000
0300
,
0100
0000
0100
0000
,
0002
0000
0000
0003
,
0001
0000
0001
0000
,
2000
0000
0000
3000
,
1000
0000
1000
0000
,
0002
0000
0003
0000
,
1001
0000
0000
0000
,
0010
0000
1000
0000
,
0110
0000
0000
0000
,
0002
0000
0000
0003
,
0001
0001
0001
0000
,
0200
0000
0000
0300
,
0100
0100
0100
0000
,
0020
0000
0000
0030
,
0010
0010
0010
0000
,
2000
0000
0000
3000
,
1000
1000
1000
0000
,
0002
0000
0003
0000
,
0200
0000
0300
0000
,
0010
0000
1000
0000
,
1001
0000
0000
0000
;

//---------------dance-single - ----------------
#NOTES:
     dance-single:
     :
     Easy:
     5:
     :
0000
0000
0000
0000
,
0000
0000
0000
0000
,
0000
0000
0000
0000
,
0001
0001
0001
0000
,
0100
0000
0000
0000
,
1000
1000
0001
0001
,
0100
0000
0000
0000
,
0010
0010
1000
1000
,
0100
0000
0000
0000
,
0010
0010
0001
0001
,
0100
0000
0000
0000
,
1000
1000
0001
0001
,
0100
0000
0000
0000
,
0010
0000
0000
0000
,
1001
0000
0000
0000
,
0010
0010
0010
0010
,
0100
0000
0100
0000
,
0100
0001
0100
0000
,
1000
0100
1000
0000
,
0010
1000
0010
0000
,
0001
0010
0001
0000
,
1000
0100
1000
0000
,
0001
0100
0001
0000
,
0010
0001
0010
0000
,
0100
0000
1001
0000
,
1000
0100
1000
0000
,
0010
0001
0010
0000
,
0100
1000
0100
0000
,
0001
0100
0001
0000
,
1000
0010
1000
0000
,
0100
0010
0100
0000
,
1000
0001
1000
0000
,
1001
0000
0000
0000
,
0010
0010
0100
0100
,
0001
0000
0000
0000
,
1000
1000
0100
0100
,
0010
0000
0000
0000
,
0001
0001
0100
0100
,
0010
0000
0000
0000
,
1000
1000
0001
0001
,
0100
0000
0000
0000
,
0010
0000
0000
0000
,
1001
0000
0000
0000
,
0010
0010
0010
0010
,
0100
0000
0100
0000
,
0100
0001
0100
0001
,
0100
0001
0100
0000
,
1000
0100
1000
0100
,
1000
0100
1000
0000
,
0001
0010
0001
0010
,
0001
0010
0001
0000
,
1000
0010
1000
0010
,
1000
0010
1000
0000
,
0001
0100
0001
0100
,
1001
0000
0000
0000
,
0010
0010
0010
0010
,
0100
0000
0000
0000
;

//---------------dance-single - ----------------
#NOTES:
     dance-single:
     :
     Medium:
     8:
     :
0000
0000
0000
0000
,
0000
0000
0000
0000
,
0000
0000
0000
0000
,
1000
0000
1000
0000
0001
0100
0010
0000
,
1000
0000
0000
0000
,
0001
0000
0001
0000
0010
0100
0010
0000
,
0001
0000
0000
0001
0000
0000
0000
0000
,
1000
0000
1000
0000
0010
0100
0010
0000
,
1000
0000
0000
1000
0000
0000
0000
0000
,
0100
0000
0100
0000
0010
0001
0010
0000
,
0100
0000
0000
0100
0000
0000
0000
0000
,
1000
0000
1000
0000
0001
0100
0001
0000
,
0010
0000
0000
0010
0000
0000
0000
0000
,
0100
0000
0100
0000
1000
0001
0100
0000
,
1100
0000
0000
0000
,
0001
0010
1000
0100
,
0010
0000
0000
0010
0000
0000
0010
0000
,
0001
0000
1000
0100
0000
0001
0100
0000
,
0010
0000
1000
0100
0000
0010
0001
0000
,
1000
0000
0010
0100
0000
0001
0100
0000
,
0010
0000
1000
0100
0000
0001
0010
0000
,
0100
0000
1000
0010
0000
0100
0001
0000
,
1000
0000
0100
0010
0000
0001
1000
0000
,
0010
0000
0100
0001
0000
1000
0100
0000
,
1001
0110
1001
0000
,
0100
0000
0010
0001
0000
0100
0010
0000
,
1000
0000
0001
0010
0000
0100
1000
0000
,
0001
0000
0100
0010
0000
1000
0001
0000
,
0010
0000
0100
1000
0000
0001
0100
0000
,
0010
0000
1000
0001
0000
0010
0100
0000
,
1000
0000
0010
0100
0000
0001
0010
0000
,
0100
0000
1000
0010
0000
0100
0001
0000
,
1001
0000
0000
0000
,
0010
0000
0010
0000
0100
0001
0010
0000
,
1100
0000
0000
1100
0000
0000
0000
0000
,
0001
0000
0001
0000
0100
0010
1000
0000
,
0011
0000
0000
0011
0000
0000
0000
0000
,
0100
0000
0100
0000
1000
0010
0100
0000
,
1001
0000
0000
1001
0000
0000
0000
0000
,
0010
0000
0010
0000
0100
0001
1000
0000
,
0110
0000
0000
0110
0000
0000
0000
0000
,
1000
0000
0100
0000
0010
0001
0100
0000
,
1100
0000
0000
0000
,
0001
0010
1000
0100
,
0010
0000
0000
0010
0000
0000
0010
0000
,
0001
0000
0001
0000
0100
0010
1000
0000
,
0001
0000
0010
0100
1000
0000
0000
0000
,
0010
0000
0010
0000
0100
0001
0010
0000
,
0100
0000
1000
0001
0100
0000
0000
0000
,
0010
0000
0010
0000
0010
0000
1000
0001
,
0010
0000
0100
1000
0001
0000
0000
0000
,
0100
0000
0100
0000
0010
1000
0100
0000
,
0010
0000
0001
0100
0010
0000
0000
0000
,
1000
0000
0100
0000
0010
0001
0100
0000
,
1100
0000
0000
0000
,
0001
0010
1000
0100
,
0010
0000
0000
0010
0000
0000
0010
0000
;

//---------------dance-single - ----------------
#NOTES:
     dance-single:
     :
     Hard:
     11:
     :
0000
0000
0000
0000
,
0000
0000
0000
0000
,
0000
0000
0000
0000
,
1000
0100
0001
0100
1000
0010
0100
0001
,
1000
0000
0000
0000
,
0100
1000
0001
1000
0100
1000
0001
1000
,
0100
0000
0000
0100
0000
0010
0001
0100
,
0010
1000
0001
1000
0010
1000
0001
1000
,
0010
0000
0000
0010
0000
0100
0001
0010
,
0100
1000
0001
1000
0100
1000
0001
1000
,
0100
0000
0000
0100
0000
0010
0001
1000
,
0100
0010
0001
0010
0100
0010
0001
0010
,
0100
0000
0000
0100
0000
1000
0001
0100
,
0010
1000
0100
0010
0001
0100
0010
1000
,
0001
0000
0000
0000
,
1000
0010
0001
0010
1000
0010
0001
0010
,
1000
0000
0001
0010
0000
0100
1000
0000
,
0001
0100
0010
0100
0001
0100
0010
0100
,
0001
0000
1000
0100
0000
0010
0001
0000
,
1000
0010
0100
0010
1000
0010
0100
0010
,
1000
0000
0100
0010
0000
0001
0100
0000
,
0010
1000
0001
1000
0010
1000
0001
1000
,
0010
0000
0100
0001
0000
1000
0100
0000
,
0010
0001
0100
0001
0010
0001
0100
0000
,
1100
0011
0101
0000
,
0010
1000
0001
1000
0010
1000
0001
1000
,
0010
0000
0100
0001
0000
1000
0100
0000
,
0010
0001
1000
0001
0010
0001
1000
0001
,
0010
0000
0100
1000
0000
0010
0100
0000
,
0001
1000
0100
1000
0001
1000
0100
1000
,
0001
0000
0010
0100
0000
1000
0010
0000
,
0100
0001
1000
0001
0100
0001
1000
0000
,
0110
0000
0000
0000
,
0001
1000
0100
1000
0001
1000
0100
1000
,
0001
0000
0000
0100
0000
0010
1000
0100
,
0010
0001
1000
0001
0010
0001
1000
0001
,
0010
0000
0000
0100
0000
1000
0010
0100
,
0001
0010
0100
0010
0001
0010
0100
0010
,
0001
0000
0000
1000
0000
0010
0100
0001
,
1000
0100
0010
0100
1000
0100
0010
0100
,
1000
0000
0000
0001
0000
0100
0010
1000
,
0100
0010
0001
1000
0010
0100
0001
0000
,
1100
0000
0000
0000
,
0001
0010
1000
0010
0001
0010
1000
0010
,
0001
0000
0100
0010
0000
1000
0001
0000
,
0010
0100
1000
0100
0010
0100
1000
0100
,
0010
0100
1000
0100
0010
0100
1000
0000
,
0001
0100
0010
0100
0001
0100
0010
0100
,
0001
0100
0010
0100
0001
0100
0010
0000
,
1000
0100
0010
0100
1000
0100
0010
0100
,
1000
0100
0010
0100
1000
0100
0010
0000
,
0001
1000
0010
1000
0001
1000
0010
1000
,
0001
1000
0010
1000
0001
1000
0010
0000
,
0100
0001
0010
0100
1000
0001
0100
0000
,
1100
0000
0000
0000
,
0001
0010
1000
0010
0001
0010
1000
0010
,
0001
0000
0100
0010
0000
1000
0001
0000
;

//---------------dance-single - ----------------
#NOTES:
     dance-single:
     :
     Challenge:
     13:
     :
0000
0000
0000
0000
,
0000
0000
0000
0000
,
0000
0000
0000
0000
,
0010
0000
0001
0000
0100
0000
0010
1000
0010
0000
1000
0100
1000
0000
0001
0100
,
0001
1000
0000
0110
0000
0000
0000
0000
,
1000
0010
0001
0010
1000
0010
0001
0010
,
1000
0100
0010
0001
0100
0010
1000
0000
,
0001
0100
1000
0100
0001
0100
1000
0100
,
0001
0010
0001
0100
0010
1000
0001
0000
,
0010
0001
1000
0001
0010
1000
0010
0001
,
0100
0010
0100
1000
0100
0001
1000
0000
,
0010
0001
0010
1000
0100
0010
1000
0010
,
0001
0000
0100
0000
0010
0000
1000
0000
0100
0000
1000
0000
0001
0100
0001
0000
,
0010
0001
0100
1000
0100
0001
0010
0100
,
1100
0000
0000
0000
0001
0000
0200
0000
0000
0000
0301
1000
0001
0000
0000
0000
,
1000
0100
0001
1000
0010
0001
1000
0100
,
0001
0000
0010
0000
1000
0000
1000
0000
0000
0000
0100
0010
0100
0000
1000
0000
,
0001
0100
0010
0100
1000
0100
0001
0010
,
0100
1000
0001
1000
0000
1010
1010
0100
,
0001
0010
0100
0001
0100
1000
0010
0100
,
0001
0010
0100
1000
0000
0101
0101
0010
,
1000
0100
0001
0100
0010
1000
0010
0001
,
0100
0010
2000
0000
3001
0011
0011
0100
,
1000
0010
0100
0001
0010
0100
1000
0001
,
0100
0010
1001
0000
0110
0001
1000
0000
,
0001
0100
0010
1000
0000
0100
0010
0001
,
0100
0001
0010
0100
0000
1100
1100
0001
,
1000
0010
1000
0001
0000
0100
0010
1000
,
0100
0010
0001
0100
0000
0101
0101
1000
,
0100
0001
0100
1000
0000
0010
0100
0001
,
1000
0010
0100
0001
0000
0011
0011
0100
,
1000
0010
0001
0100
0000
0010
0010
0100
,
0001
0010
0100
1000
0010
0110
0110
0000
,
0001
0010
1000
0010
0100
0010
1000
0010
,
0001
0100
0010
0001
0010
1000
0001
0000
,
0100
0010
0100
1000
0100
0001
0100
0010
,
0100
1000
0100
0001
0010
1000
0100
0010
,
0001
0100
0001
0010
0001
1000
0100
0001
,
0100
1000
0010
0100
0010
1000
0001
0000
,
1000
0100
0001
0100
0010
0100
1000
0010
,
0001
0000
0010
0000
1000
0000
0100
0000
0010
0000
0001
0000
1000
0010
1000
0000
,
0001
0100
0010
1000
0100
0001
0100
1000
,
1001
0000
0000
0000
0010
0000
0200
0000
0000
0000
0301
1000
0001
0000
0000
0000
,
0010
0001
0100
1000
0010
0001
0100
1000
,
1010
0000
0100
0000
0000
0000
0011
0000
0000
0000
1000
0001
1000
0000
0000
0000
,
0001
0000
0100
0000
0010
0000
0100
0000
1000
0000
0100
0000
0001
1000
0001
0000
,
0010
0100
1000
0010
0100
1000
0001
0000
,
0010
0000
1000
0000
0100
0000
0010
0000
1000
0000
0001
0000
0100
0010
0100
0000
,
0001
0010
1000
0100
1000
0001
0100
0000
,
0001
0000
0010
0000
1000
0000
0100
0000
1000
0000
0010
0000
0100
0001
0100
0000
,
0010
1000
0100
0001
1000
0010
0002
0000
,
1003
0000
0001
0000
0010
0000
0100
0000
1000
0000
0010
0000
0001
0100
0001
0000
,
1000
0001
0010
0001
0100
0010
1000
0000
,
0100
1000
0010
1000
0100
0010
0001
0100
,
1002
0000
0200
0000
0000
0000
0000
0000
0303
0000
0001
1000
0001
0000
0010
0000
,
1000
0100
0010
0100
0001
0100
1000
0010
,
0101
0000
1000
0000
0000
0000
1100
0000
0000
0000
0001
1000
0001
0000
0000
0000
;

//---------------dance-double - ----------------
#NOTES:
     dance-double:
     :
     Easy:
     5:
     :
00000000
00000000
00000000
00000000
,
00000000
00000000
00000000
00000000
,
00000000
00000000
00000000
00000000
,
00010000
00000000
00000100
00000000
,
00001001
00000000
00000000
00000000
,
00000001
00000000
00000100
00000000
,
00001000
00000000
00010000
00000000
,
01000000
00000000
10000000
00000000
,
00100000
00000000
00010000
00000000
,
00001000
00000000
00000010
00000000
,
00000001
00000000
00000100
00000000
,
00001000
00000000
00010000
00000000
,
00100000
00000000
10000000
00000000
,
01000000
00000000
00010000
00000000
,
00011000
00000000
00000000
00000000
,
00000010
00000000
00000100
00000000
,
00000001
00000000
00001000
00000000
,
00000100
00000000
00000100
00000000
,
00000010
00001000
00000010
00000000
,
00000001
00000000
00000001
00000000
,
00001000
00000100
00001000
00000000
,
00000010
00000000
00000010
00000000
,
00010000
00001000
00010000
00000000
,
00001000
00000000
00001000
00000000
,
00100000
00010000
00100000
00000000
,
00010000
00000000
00010000
00000000
,
10000000
00000000
10000000
00000000
,
01000000
00000000
01000000
00000000
,
00100000
00010000
00100000
00000000
,
00001000
00000000
00001000
00000000
,
00010000
00000000
00010000
00000000
,
00000010
00000000
00000010
00000000
,
00001001
00000000
00000000
00000000
,
00000010
00000100
00001000
00000000
,
00010000
00000000
00010000
00000000
,
00100000
10000000
01000000
00000000
,
00010000
00000000
00010000
00000000
,
00001000
00000100
00000010
00000000
,
00001000
00000000
00001000
00000000
,
00000001
00000010
00000100
00000000
,
00010000
00000000
00010000
00000000
,
00001000
00100000
01000000
00000000
,
10010000
00000000
00000000
00000000
,
01000000
00000000
00001000
00000000
,
10010000
00000000
00000000
00000000
,
00100000
10000000
00100000
10000000
,
00100000
10000000
00100000
00000000
,
00001000
00010000
00001000
00010000
,
00001000
00010000
00001000
00000000
,
00010000
01000000
00010000
01000000
,
00010000
01000000
00010000
00000000
,
00000010
00001000
00000010
00001000
,
00000010
00001000
00000010
00000000
,
00001000
00010000
00001000
00010000
,
00011000
00000000
00000000
00000000
,
00100000
00000000
01000000
00000000
,
10010000
00000000
00000000
00000000
;

//---------------dance-double - ----------------
#NOTES:
     dance-double:
     :
     Medium:
     8:
     :
00000000
00000000
00000000
00000000
,
00000000
00000000
00000000
00000000
,
00000000
00000000
00000000
00000000
,
00010000
00000000
00001000
00000000
00100000
00010000
01000000
00000000
,
11000000
00000000
00000000
00000000
,
00100000
00000000
00010000
00000000
01000000
00001000
00010000
00000000
,
00000010
00000000
00000100
00000000
00000001
00000010
00000001
00000000
,
00001000
00000000
00000100
00000000
00010000
00001000
00100000
00000000
,
00010000
00000000
01000000
00000000
00100000
10000000
01000000
00000000
,
00100000
00000000
00010000
00000000
01000000
00100000
10000000
00000000
,
00010000
00000000
00100000
00000000
00001000
00010000
00000100
00000000
,
00000010
00000000
00000001
00000000
00000100
00000010
00001000
00000000
,
00000001
00000000
00000010
00000000
00000100
00001000
00000010
00000000
,
00010000
00001000
00100000
00010000
,
11000000
00000000
00000000
00000000
,
00100000
00000000
00010000
01000000
00001000
00000000
00010000
00000010
,
00001000
00000001
00000010
00000100
,
00001000
00000000
00000001
00000100
00000001
00000000
00001000
00000000
,
00000010
00000000
00010000
00001000
00010000
00000000
00000010
00000000
,
00001000
00000000
00000100
00010000
00000100
00000000
00001000
00000000
,
00000010
00000000
00000100
00001000
00000100
00000000
00000010
00000000
,
00010000
00000000
00001000
00100000
00001000
00000000
00010000
00000000
,
00100000
00000000
10000000
01000000
10000000
00000000
00100000
00000000
,
01000000
00000000
00010000
00100000
00010000
00000000
01000000
00000000
,
00100000
10010000
01100000
00000000
,
10000000
00000000
01000000
00100000
01000000
00000000
10000000
00000000
,
00010000
00000000
01000000
00100000
01000000
00000000
00010000
00000000
,
00100000
00000000
00001000
00010000
00001000
00000000
00100000
00000000
,
01000000
00000000
10000000
00100000
10000000
00000000
01000000
00000000
,
00010000
00000000
00001000
00100000
00001000
00000000
00010000
00000000
,
00000010
00000000
00001000
00000100
00001000
00000000
00000010
00000000
,
00000100
00000000
00000001
00000010
00000001
00000000
00000100
00000000
,
00001100
00000000
00000000
00000000
,
00000010
00000000
00000001
00000000
00000100
00000010
00001000
00000000
,
00000100
00000000
00010000
00000000
00001000
00000010
00000001
00000000
,
00001000
00000000
00000010
00000000
00000100
00001000
00010000
00000000
,
01000000
00000000
10000000
00000000
00010000
01000000
00100000
00000000
,
10000000
00000000
01000000
00000000
00100000
00010000
10000000
00000000
,
01000000
00000000
00100000
00000000
00001000
00010000
00001000
00000000
,
00000100
00000000
00000001
00000000
00000010
00000100
00001000
00000000
,
00000010
00000000
00010000
00000000
00001000
01000000
00010000
00000000
,
00100000
00000000
01000000
00000000
10000000
00010000
01000000
00000000
,
11000000
00000000
00000000
00000000
,
00100000
00000000
00010000
01000000
00001000
00000000
00010000
00000010
,
00000001
00000010
00001000
00000100
,
00000101
00001100
00000101
00001100
,
00000101
00001100
00000101
00001000
,
00011000
00001010
00011000
00001010
,
00011000
00001010
00011000
00100000
,
10010000
10100000
10010000
10100000
,
10010000
10100000
10010000
01000000
,
11000000
01010000
11000000
01010000
,
11000000
01010000
11000000
00000000
,
00010000
00000000
00100000
00000000
01000000
00010000
00001000
00000000
,
00110000
00000000
00000000
00000000
,
00100000
00000000
01000000
00010000
00001000
00000000
00000100
00000001
,
00000010
00000100
00001000
00000001
;

//---------------dance-double - ----------------
#NOTES:
     dance-double:
     :
     Hard:
     11:
     :
00000000
00000000
00000000
00000000
,
00000000
00000000
00000000
00000000
,
00000000
00000000
00000000
00000000
,
00010000
00001000
00100000
00010000
10000000
01000000
00100000
00000000
,
10010000
00000000
00000000
00000000
,
00100000
00000000
00001000
00010000
00000000
00000100
00001000
00000000
,
00000010
00000000
00000100
00000001
00000000
00000010
00001000
00000100
,
00000001
00000000
00000100
00000010
00000000
00001000
00000100
00000000
,
00010000
00000000
00001000
00100000
00000000
00010000
10000000
01000000
,
00100000
00000000
00001000
00010000
00000000
00000010
00001000
00000000
,
00000001
00000000
00000010
00000100
00000000
00001000
00000001
00000100
,
00000010
00000000
00001000
00000100
00000000
00010000
00001000
00000000
,
00100000
00000000
00010000
10000000
00000000
01000000
00100000
00010000
,
01000000
00000000
00001000
00010000
00100000
10000000
01000000
00010000
,
00001000
00000000
00000000
00000000
,
00000010
00000100
00000001
00000010
00000100
00001000
00000001
00000100
,
00000010
00000000
00001000
00000100
00000000
00010000
00001000
00000000
,
00100000
00000000
00010000
01000000
00010000
00100000
00010000
00000000
,
10000000
00000000
01000000
00100000
00000000
00010000
00010000
00000000
,
01000000
00000000
00001000
00010000
00001000
00100000
00001000
00000000
,
00010000
00000000
00000100
00001000
00000000
00000001
00000001
00000000
,
00000010
00000000
00000100
00001000
00000100
00010000
00000100
00000000
,
00001000
00000000
00000010
00000100
00000000
00001000
00001000
00000000
,
00010000
00000000
00100000
10000000
00100000
01000000
00100000
00000000
,
10010000
01100000
10010000
00000000
,
00001000
00000000
00010000
00000100
00010000
00001000
00010000
00000000
,
00000010
00000000
00001000
00000100
00000000
00000010
00000010
00000000
,
00000001
00000000
00000100
00000010
00000100
00001000
00000100
00000000
,
00000001
00000000
00001000
00000100
00000000
00010000
00010000
00000000
,
00001000
00000000
00100000
01000000
00100000
10000000
00100000
00000000
,
00010000
00000000
01000000
00100000
00000000
10000000
10000000
00000000
,
00010000
00000000
00100000
00001000
00100000
00010000
00100000
00000000
,
00011000
00000000
00000000
00000000
,
00000010
00000000
00000100
00000001
00000000
00000010
00000100
00001000
,
00000010
00000000
00000100
00001000
00000000
00010000
01000000
10000000
,
00010000
00000000
01000000
00100000
00000000
10000000
01000000
00010000
,
00001000
00000000
00100000
01000000
00000000
10000000
00010000
01000000
,
00100000
00000000
00010000
00001000
00000000
00000010
00000001
00000100
,
00000010
00000000
00001000
00000100
00000000
00010000
00001000
00100000
,
00010000
00000000
10000000
01000000
00000000
00100000
00010000
01000000
,
00001000
00000000
00010000
00000010
00000000
00001000
00000001
00000010
,
00000100
00010000
00001000
00100000
00010000
10000000
01000000
00100000
,
00010000
00000000
00000000
00000000
,
00001000
00010000
00000010
00010000
00001000
01000000
00001000
00010000
,
00000010
00000000
00000100
00000001
00000000
00000010
00000100
00000000
,
00001000
00000001
00000100
00000010
00001000
00000001
00000100
00000010
,
00001000
00000001
00000100
00000010
00001000
00000000
00000000
00000000
,
00000100
00010000
00001000
00100000
00010000
10000000
00100000
01000000
,
00010000
00100000
00001000
00010000
00000100
00000000
00000000
00000000
,
00000001
00000100
00001000
00000010
00000001
00000010
00001000
00000100
,
00000001
00000100
00001000
00000010
00000100
00000000
00000000
00000000
,
00001000
00010000
01000000
10000000
00010000
01000000
00001000
00010000
,
00100000
10000000
01000000
00010000
00001000
00000000
00000000
00000000
,
00000010
00000001
00000100
00000010
00001000
00000100
00010000
00001000
,
00100000
00000000
00000000
00000000
,
01000000
10000000
00010000
01000000
00100000
10000000
00010000
01000000
,
00001000
00000000
00010000
00000010
00000000
00001000
00000001
00000000
;
