#TITLE:THE OCEAN AND YOU;
#ARTIST:Motoaki Furukawa;
#BANNER:THE OCEAN AND YOU-bn.png;
#BACKGROUND:THE OCEAN AND YOU-bg.png;
#JACKET:THE OCEAN AND YOU-jacket.png;
#MUSIC:THE OCEAN AND YOU.ogg;
#OFFSET:1.2;
#SAMPLESTART:11.934;
#SAMPLELENGTH:20;
#LASTBEATHINT:0.41;
#DISPLAYBPM:128;
#BPMS:0=128;
#BGCHANGES:;

//---------------dance-single - ----------------
#NOTES:
     dance-single:
     :
     Beginner:
     4:
     :
0000
0000
0000
0000
,
0000
0000
0000
0000
,
0000
0000
0000
0000
,
0000
0000
0000
0000
,
2000
0000
3000
0000
,
1000
0000
0001
0000
,
1001
0000
0000
0000
,
0010
0000
1000
0000
,
0100
0000
0001
0000
,
0000
0000
0010
0000
,
0001
0000
1000
0000
,
0010
0010
0010
0000
,
1000
1000
1000
0000
,
0100
0000
0010
0000
,
0001
0000
1000
0000
,
1001
0000
0000
0000
,
0100
0100
0100
0000
,
0001
0001
0001
0000
,
1000
0000
0001
0000
,
1001
0000
0100
0100
,
0100
0000
0010
0000
,
0001
0000
0001
0000
,
1000
0000
0002
0000
,
0003
0000
0000
0000
,
0010
0000
0001
0000
,
0100
1000
1000
0000
,
0010
0000
1000
0000
,
0001
0100
0100
0000
,
0110
0000
1000
0001
,
0200
0000
0300
0000
,
0010
0000
1000
0000
,
0002
0000
0003
0000
,
1000
1000
1000
1000
,
0001
0000
0100
0010
,
2000
0000
3000
0000
,
0100
1000
0001
0000
,
0010
0000
0001
0100
,
0001
0000
1000
0000
,
0100
0000
0010
0010
,
0001
0100
1000
0000
,
1001
0000
0100
0000
,
0010
0000
0000
0001
,
0001
0000
0000
0000
,
1000
0010
0100
0000
,
0001
0000
1000
0000
,
1001
0000
0000
0000
,
0020
0000
0000
0000
,
0000
0000
0000
0000
,
0000
0000
0000
0000
,
0000
0000
0030
0000
;

//---------------dance-single - ----------------
#NOTES:
     dance-single:
     :
     Easy:
     8:
     :
0000
0000
0000
0000
,
0000
0000
0000
0000
,
0000
0000
0000
0000
,
0000
0000
0000
0000
,
1000
0000
0010
0100
0000
0000
0000
0000
,
0202
0303
2200
3300
,
2002
0000
0003
0000
0010
0000
3010
0100
,
0001
0000
0010
0000
1000
0100
1000
0000
,
0001
0000
1000
0000
0010
0100
0010
0000
,
0110
0000
0001
0000
1000
0010
1000
0000
,
0100
0000
0010
0000
0001
1000
0001
0000
,
0010
0000
0001
0000
1000
0010
1000
0000
,
0100
0000
1000
0000
0001
0100
0001
0000
,
0020
0000
0030
0001
2000
0000
3000
0000
,
0020
0000
0030
1000
0002
0000
0003
0000
,
1200
0001
1000
0001
,
1300
0000
0010
0100
0000
0002
0000
0000
,
0013
0000
0001
1000
0000
0020
0000
0000
,
0230
0000
0000
0001
0000
0310
0000
0000
,
0110
0000
0000
0000
1000
0100
1000
0000
,
1001
0000
0000
0000
0001
0010
0001
0000
,
0101
0010
1000
0100
,
2000
0000
3000
0001
0200
0000
0300
0000
,
0000
0010
0100
0010
0000
1000
0001
0000
,
0011
0000
0100
0000
1000
0001
0100
0000
,
0001
0000
0010
0000
0001
0100
0010
1000
,
0100
0000
1000
0000
0001
0010
0001
0000
,
1001
0000
0100
0000
0010
1000
0001
0000
,
1010
0000
1000
0000
0001
0010
0100
1000
,
0020
0000
0000
0030
,
2000
0000
0000
3002
0000
0000
0203
0000
,
0302
0000
0010
0000
1003
0001
0100
0010
,
0000
1000
0100
0000
1100
0000
0101
0000
,
0010
1000
0100
0001
,
0000
0010
0001
0000
0011
0000
1010
0000
,
0100
1000
0002
0003
,
0010
0001
1000
0000
1001
0000
0110
0000
,
1000
0100
0001
0000
0011
0000
1100
0000
,
0001
0100
0010
0000
1010
0000
0101
0000
,
0010
1000
0100
0010
0002
0000
0003
0000
,
0010
0000
0001
2000
0000
3002
0000
0203
,
0000
0000
0000
0000
0000
0000
0310
1000
,
0100
0000
0001
0000
0000
1000
0001
0000
,
0110
0000
0002
2000
0000
0000
3003
0000
,
2200
3300
0202
0303
,
2002
0000
3000
0000
0010
0000
0013
0100
,
2000
0000
0001
3100
,
1000
0100
0010
0001
0000
2000
0002
0000
,
0000
0000
0000
0000
,
0000
0000
3003
0000
;

//---------------dance-single - ----------------
#NOTES:
     dance-single:
     :
     Medium:
     12:
     :
0000
0000
0000
0000
,
0000
0000
0000
0000
,
0000
0000
0000
0000
,
0000
0000
0000
0000
,
1000
0100
0000
0000
0001
0100
0000
0000
1000
0010
0000
0000
0001
0010
0000
0000
,
2200
3300
0202
0303
,
2002
0000
0000
0000
3003
0000
0000
0000
0010
0100
0010
0100
0010
0000
0100
0000
,
0110
0000
0000
0000
0000
0000
0001
0000
0010
0000
0100
0000
1000
0001
2000
0000
,
0000
3200
0000
0320
0000
0032
0000
0003
,
1001
0000
0000
0000
0000
0000
0010
0000
1000
0000
0001
0000
0100
0010
0200
0000
,
0000
0000
0302
0000
0000
0000
2003
0000
0000
0000
3020
0000
0130
0010
0000
0000
,
1000
0001
1000
0020
0000
0230
0000
0300
,
0001
0010
0001
2000
0000
3200
0000
0300
,
2200
0000
0000
0000
3300
0000
0001
1000
0002
0000
0000
0000
0003
0000
0000
0000
,
2000
0000
0010
0000
3010
0000
0100
0001
0200
0000
0010
0000
0310
1000
0010
0000
,
0101
0000
1000
0100
0001
0100
1000
0000
,
0001
0010
0001
1000
0010
1000
0100
0000
,
0110
0001
1000
0010
1000
0001
0100
0000
,
0002
0010
0013
2000
0000
3200
0310
0000
,
0011
0000
0001
0100
0010
0001
0010
1000
,
0010
0100
0010
2000
0000
3001
1000
0100
,
1001
0000
0010
0100
0000
0001
1000
0000
,
2020
0000
0000
0000
3030
0000
0010
0100
0020
0000
0000
0000
0030
0000
0000
0000
,
1000
0100
0010
0100
0010
0001
0100
0000
,
0101
0000
1000
0010
1000
0001
0010
0100
,
1000
0010
0100
0002
0000
0013
0001
0100
,
1010
0000
1000
0001
1000
0010
0100
0001
,
0010
0000
0100
0000
1000
0001
2000
0000
0000
0000
3010
0100
0010
0000
0000
0000
,
1001
1000
0010
0100
0001
0010
1000
0100
,
0020
0000
0000
0000
0001
0000
0100
0000
0130
0000
1000
0001
1000
0000
0000
0000
,
0020
0000
0000
0000
1030
0000
0001
0000
1000
0000
0000
0100
0010
0000
0000
0000
,
0001
0000
0100
0000
0001
0000
0010
0000
1000
0100
0000
0010
0000
0001
0100
0000
,
0000
0000
0010
1000
0010
0000
0100
0000
0001
0000
0010
0000
0001
0000
2000
0000
,
0000
0000
0000
0000
0000
0000
3010
0000
0100
0000
0001
0000
0100
0000
0000
0010
0000
0000
1000
0000
0000
0100
0000
0000
,
0002
0000
0010
0000
0010
0000
1000
0000
1003
0000
0000
0001
0000
0000
0100
0010
,
0100
0000
0000
0000
0000
0000
0000
0000
0001
0000
0000
0000
0010
0000
0000
0000
0000
0000
0000
0000
1000
0000
0000
0000
0010
0000
0000
0000
0000
0000
0000
0000
0000
0100
0000
0000
0001
0000
0000
0000
0000
0000
1000
0000
0000
0000
0000
0000
,
0000
0000
1100
0000
1100
0000
0000
0000
0001
1000
0000
0010
0000
1000
0100
0000
,
0010
0000
0010
0000
0010
0000
0000
0000
0001
1000
0000
0001
1000
0000
0100
0000
,
0000
0000
0011
0000
0011
0000
0000
0000
0100
1000
0000
0100
1000
0000
0001
0000
,
0100
0000
0010
0000
1000
0000
0100
0000
0010
0001
0000
0001
0000
1000
0001
0000
,
1001
0000
0100
0020
0000
2030
0000
3002
,
0100
0000
0000
0000
0010
0000
0000
0000
1003
0000
0001
0000
1000
0010
1000
0000
,
0210
0000
0001
0000
1000
1000
0301
0000
,
0100
0000
0010
0000
1000
0000
0001
0000
0010
0100
0010
0100
0010
0100
0010
0000
,
0002
0000
2000
3003
,
0202
0000
0000
0000
0303
0000
0000
0000
1000
0001
1000
0001
1000
0000
0001
0000
,
2020
0000
3000
0000
0100
0000
0130
0001
,
1000
0000
0000
0000
0100
0000
0000
0000
0010
0000
0000
0000
0001
0000
0000
0000
0000
0000
0000
0000
0100
0000
0000
0000
0000
0000
0000
0000
0000
0000
0010
0000
0000
2000
0000
0000
0002
0000
0000
0000
0000
0000
0000
0000
0000
0000
0000
0000
,
0000
0000
0000
0000
,
0000
0000
3003
0000
;

//---------------dance-single - ----------------
#NOTES:
     dance-single:
     :
     Hard:
     15:
     :
0000
0000
0000
0000
,
0000
0000
0000
0000
,
0000
0000
0000
0000
,
0000
0000
0000
0000
,
1000
0100
0010
0100
1000
0000
0001
0100
0010
1000
0001
1000
0100
0010
0001
0000
,
0202
0303
2200
3300
,
0022
0000
0000
0000
0033
0000
0000
0000
1000
0001
1000
0010
0100
0001
0010
0000
,
0100
0000
1000
0000
0010
0000
1000
0000
0100
0000
0010
0000
0001
1000
0100
0000
,
0010
1000
0001
0010
0001
0100
1000
0010
,
1001
0000
0100
0000
0010
0000
1000
0000
0100
0000
0010
0000
0001
0100
1000
0000
,
0001
0000
0010
0000
0100
0000
1000
0000
0010
0000
0100
0000
0001
1000
0001
0010
,
0100
1000
0010
1000
0001
0010
0001
0100
,
0010
0000
1000
0000
0100
0010
0001
0000
1000
0000
0001
0000
1000
0010
0100
0000
,
0002
0000
0000
0010
0000
0000
0013
0000
0000
1000
0001
1000
0002
0000
0000
0100
0000
0000
0103
0000
0000
0010
0000
0000
,
1000
0100
0010
0100
1000
0001
0010
0001
0010
0100
1000
0010
0100
0001
1000
0000
,
0100
1000
0001
0000
0110
0000
0010
0000
1000
0100
0001
0000
0011
0000
0100
0000
,
1000
0000
0010
1000
0001
0000
0100
0000
0010
0000
1000
0000
0101
0000
0001
0000
,
0010
0001
0100
0000
1010
0000
0100
0000
0001
1000
0100
0000
1100
0000
0010
0000
,
0002
0000
1000
0000
1003
0000
0010
0000
1000
0000
0201
0000
0301
0100
0010
0000
,
1001
0100
0001
0010
1000
0001
1000
0100
,
0110
0000
0010
0000
0001
0000
0100
0000
1000
0010
1000
0000
0001
0000
0100
0000
,
1010
0001
1000
0100
1000
0001
0010
0100
,
2100
0000
0001
0000
3001
0000
0100
0010
1000
0010
1000
0001
0010
0100
1000
0001
,
0010
0001
0010
0100
1000
0010
0001
0010
1000
0100
0010
0100
1000
0001
0100
0000
,
0002
0000
0010
0000
1003
0000
0100
0000
1000
0000
0010
0100
0001
0000
1000
0000
,
0110
0000
0001
0000
1000
0100
0010
0000
0001
0100
0010
1000
0000
1000
0100
0010
,
0002
0000
0100
0000
0013
0000
1000
0000
0100
0000
1000
0001
0010
0000
0100
0000
,
1000
0000
0010
0000
0001
0000
1000
0100
1000
0000
0001
0100
0001
0000
0010
0000
,
0011
0000
0100
0000
1000
0000
0010
0000
1000
0100
0010
0001
0010
0100
1000
0001
,
0200
0000
0010
0000
0010
0000
1000
0000
0301
0000
0100
0010
1000
0001
0100
0000
,
0002
0000
0010
0000
1003
0000
0100
0000
1000
0000
0010
1000
0100
0000
0001
0000
,
0010
0001
1000
0001
0100
0000
0010
0000
1000
0100
1000
0010
0100
0001
1000
0010
,
0100
0000
0001
0010
0100
0000
1000
0000
0010
1000
0001
1000
0010
0000
0100
0000
,
1001
0000
0010
1000
0010
0100
0001
0000
1000
0001
0010
0001
0100
0010
1000
0000
,
0001
0000
0010
0000
1000
0000
0100
0000
0010
0001
0000
0001
0100
0000
0010
1000
,
0001
0000
0000
0000
0010
0000
0000
0000
0100
0000
0000
0000
1000
0000
0000
0000
0001
0000
0000
0000
1000
0000
0000
0000
0010
0000
0000
0100
0000
0000
0000
0000
0000
0001
0000
0000
1000
0000
0000
0001
0000
0000
0100
0000
0000
0000
0000
0000
,
0110
0000
1001
0000
1001
0000
0010
1000
0100
0010
0001
0100
0001
0010
1000
0000
,
0100
0000
0000
0000
1000
0000
0000
0000
0001
0000
0000
0000
1000
0000
0000
0000
0010
0000
0000
0000
0100
0000
0000
0000
0001
0000
0000
0010
0000
0000
0001
0000
0000
1000
0000
0000
0100
0000
0000
0010
0000
0000
0001
0000
0000
0000
0000
0000
,
0100
0000
1010
0000
1010
0000
0001
0000
1000
0100
0010
0001
0100
0010
1000
0001
,
0010
0100
1000
0010
0100
0000
0001
0000
1000
0010
1000
0001
0010
0001
1000
0100
,
0010
0001
0100
0010
1000
0100
1000
0001
,
1100
0000
0010
0000
1000
0000
0100
0000
0010
0000
0001
0000
0100
0010
1000
0000
,
0101
0000
0001
0000
0010
0000
1000
0000
0100
0000
0010
0000
0001
1000
0001
0000
,
1000
0010
1000
0100
0010
0001
0100
0001
0010
0100
1000
0010
1000
0001
0100
0000
,
0002
2000
0000
0000
3003
0000
0000
0000
2200
0000
0000
0000
3300
0000
0000
0000
,
0022
0000
0000
0000
0033
0000
0000
0000
1000
0001
0010
0100
1000
0001
0100
0000
,
2020
0000
0000
0000
3000
0000
0000
0000
0130
0002
0000
0000
0013
0100
1000
0001
,
0100
0000
0000
0000
0010
0000
0000
0000
1000
0000
0000
0000
0001
0000
0000
0000
0000
0000
0000
0000
1000
0000
0000
0000
0000
0000
0000
0000
0000
0100
0000
0000
0000
0010
0000
0000
0000
0001
0000
0000
0000
1000
0000
0000
0000
0100
0000
0000
,
1000
0100
1000
0100
1000
0100
1000
0100
1000
0100
1000
0100
1000
0100
1000
0100
,
2000
0000
0000
0100
0000
0000
0000
0000
3000
0000
0000
0000
0000
0000
0000
0000
;
