#VERSION:0.83;
#TITLE:THE FALLEN;
#SUBTITLE:;
#ARTIST:L.E.D.-G;
#TITLETRANSLIT:;
#SUBTITLETRANSLIT:;
#ARTISTTRANSLIT:;
#GENRE:;
#ORIGIN:;
#CREDIT:;
#BANNER:THE FALLEN-bn.png;
#BACKGROUND:THE FALLEN-bg.png;
#PREVIEWVID:;
#JACKET:THE FALLEN-jacket.png;
#CDIMAGE:;
#DISCIMAGE:;
#LYRICSPATH:;
#CDTITLE:;
#MUSIC:THE FALLEN.ogg;
#OFFSET:0.100000;
#SAMPLESTART:15.708000;
#SAMPLELENGTH:20.000000;
#SELECTABLE:YES;
#DISPLAYBPM:167.000000;
#BPMS:0.000=167.000;
#STOPS:;
#DELAYS:;
#WARPS:;
#TIMESIGNATURES:0.000=4=4;
#TICKCOUNTS:0.000=4;
#COMBOS:0.000=1;
#SPEEDS:0.000=1.000=0.000=0;
#SCROLLS:0.000=1.000;
#FAKES:;
#LABELS:0.000=Song Start;
#BGCHANGES:;
#KEYSOUNDS:;
#ATTACKS:
;

//---------------dance-single - ----------------
#NOTEDATA:;
#CHARTNAME:;
#STEPSTYPE:dance-single;
#DESCRIPTION:;
#CHARTSTYLE:;
#DIFFICULTY:Hard;
#METER:14;
#RADARVALUES:0.595244,0.726743,0.333336,0.148150,0.805563,450.000000,414.000000,36.000000,16.000000,0.000000,0.000000,0.000000,0.000000,0.000000,0.595244,0.726743,0.333336,0.148150,0.805563,450.000000,414.000000,36.000000,16.000000,0.000000,0.000000,0.000000,0.000000,0.000000;
#CREDIT:;
#DISPLAYBPM:167.000000;
#NOTES:
0000
0000
0000
0000
,
0000
0000
0000
0000
,
0000
0000
0000
0000
,
0000
0000
0000
0000
,
0000
0000
0000
0000
,
0001
0001
1000
1000
,
0001
0010
0100
1000
,
0001
0000
0100
0001
0000
1000
0010
0000
0010
0100
0000
0000
,
0001
0010
0001
0010
0000
0000
0100
1000
0100
1000
0000
0000
,
1001
0000
0000
0000
,
0000
0000
0000
0000
,
0010
0000
0000
0100
0000
0000
0010
0000
0000
1000
0000
1000
,
0001
0000
0000
0010
0000
0000
0001
0000
0000
0100
0000
0100
,
0010
0000
0000
1000
0000
0000
0101
0000
0001
1000
0010
0100
,
0001
0000
0000
0010
0000
0010
0100
0000
0000
1000
0000
0001
,
0100
0000
0000
0110
0000
0000
0001
0000
0001
1000
0000
1000
,
0100
0000
0000
0010
0000
0010
0001
0000
0000
1000
0000
0001
,
1000
0000
0000
1100
0000
0000
1000
0000
0010
0100
0000
0010
,
0100
0000
0000
0101
0000
0000
1100
0000
0000
0001
0010
0100
,
1000
0000
0000
0001
0000
0000
1000
0000
0000
0100
0000
0100
,
0010
0000
0000
0001
0000
0000
0100
0000
0000
0010
0000
1000
,
0001
0000
0000
1000
0000
0000
0101
0000
0100
0010
1000
0001
,
0100
0000
0000
0001
0000
0001
0010
0000
0010
0100
0000
0100
,
1000
0000
0000
1010
0000
0000
1000
0000
0010
0100
0000
0001
,
0010
0000
0000
0001
0000
0000
1000
0000
0000
0001
0000
0100
,
0001
0000
0000
1000
0000
0010
0100
0000
0100
0001
0000
0001
,
1000
0000
0100
0010
0000
0000
1001
0000
0000
0001
1000
0010
,
0100
0000
0100
0001
0000
0001
0100
0000
0100
1000
0000
1000
,
0200
0302
2003
3200
,
0310
0000
0000
0011
0000
0000
1100
0000
0000
0001
0000
1000
,
0001
0000
0000
1000
0010
0100
0002
0000
0000
0003
0000
1000
,
0001
0000
0000
1000
0000
1000
0100
0000
0000
0010
0000
0010
,
0001
0000
0000
0100
0000
0000
0001
0000
0000
1010
0000
1000
,
0001
0000
0000
0010
0000
0100
1000
0000
1000
0001
0000
0001
,
1000
0000
0000
0001
0000
0001
0010
0000
0001
1000
0000
0001
,
1000
0000
1000
0100
0000
0100
0001
0000
0001
0100
0000
0100
,
2000
3020
0230
0302
,
0013
0000
0000
0001
0000
0000
0100
0000
0000
0010
0000
1000
,
0001
0000
0000
1000
0001
0010
0200
0000
0000
1300
0000
0001
,
1000
0000
0000
0110
0000
0001
1000
0000
0000
1001
0000
0100
,
0010
0000
0010
1000
0000
1000
0001
0000
0001
1000
0000
0000
,
0100
0000
0010
0100
0000
1000
0001
0000
1000
0010
0100
0001
,
1000
0000
0001
0010
0100
0010
0001
0000
1000
0010
0000
0100
,
0001
0000
0000
0000
0000
0010
0000
0000
0100
0000
0000
1000
,
0000
0000
0010
0000
0000
1000
0000
0000
0001
0000
0000
0100
,
0000
0000
0001
0000
0000
0010
0000
0000
0100
0000
0000
1000
,
0000
0000
0010
0000
0000
0100
0000
0000
0001
0000
0000
1000
,
0001
0000
0001
0010
0000
0010
0100
0000
0100
1000
0000
0000
,
0010
0000
0010
1000
0000
1000
0001
0000
0001
0100
0000
0000
,
0010
1000
0010
1000
0000
0000
0001
0100
0001
0100
0000
0000
,
0001
0010
0100
1000
0000
1000
0000
0000
0010
1000
0001
0100
,
0010
0000
0000
1001
0000
0001
1000
0000
0010
0100
0000
0001
,
0010
0100
1000
0002
0000
0000
0103
0010
1000
0002
0000
0000
,
0013
0000
0000
0001
0000
0001
1000
0000
1000
0010
0000
1000
,
0100
0010
0100
2000
0000
0000
3001
0100
0010
1000
0000
0001
,
0010
0000
0000
0001
0100
0001
0100
0000
0010
1000
0000
1000
,
0001
0000
0001
1000
0000
1000
0010
0100
0010
1000
0000
0001
,
0010
0000
0000
0001
1000
0001
0100
0000
0010
0000
1000
0001
,
1000
0000
0100
0010
0000
0001
0100
0000
0010
1000
0100
0010
,
0001
0000
0000
0101
0000
0000
0101
0000
1000
0100
0000
0000
,
1100
0000
0000
1100
0000
0010
0001
0000
0000
1001
0000
0000
,
1000
0010
0100
0001
0000
0000
0011
0000
0000
1100
0000
0001
,
1000
0000
0000
1010
0000
0000
0101
0000
0100
0010
0000
0000
,
0110
0000
0000
1001
0000
0100
0001
0000
0000
0011
0000
0000
,
0101
0000
1000
0001
0000
1000
0100
0000
0000
1000
0010
0100
,
0001
0000
0000
1010
0000
0000
0011
0000
0100
1000
0000
0000
,
1100
0000
0000
0101
0000
0001
1000
0000
0000
0110
0000
0000
,
0001
0010
0100
1000
0000
0010
0200
0000
0000
0301
0000
1000
,
0001
0000
0010
0100
0000
0100
1000
0010
0100
0001
0000
0000
,
0011
0000
0000
1001
0000
0100
0001
0010
0100
0010
0001
1000
,
0010
0100
0010
1000
0000
0000
1100
0000
0000
1000
0100
0020
,
0002
0000
0000
0000
,
0030
0000
0000
0000
,
0000
0000
0000
0000
,
0000
0000
0000
0003
;

//---------------dance-single - ----------------
#NOTEDATA:;
#CHARTNAME:;
#STEPSTYPE:dance-single;
#DESCRIPTION:;
#CHARTSTYLE:;
#DIFFICULTY:Medium;
#METER:11;
#RADARVALUES:0.486777,0.588316,0.314818,0.222224,0.467597,368.000000,334.000000,34.000000,24.000000,0.000000,0.000000,0.000000,0.000000,0.000000,0.486777,0.588316,0.314818,0.222224,0.467597,368.000000,334.000000,34.000000,24.000000,0.000000,0.000000,0.000000,0.000000,0.000000;
#CREDIT:;
#DISPLAYBPM:167.000000;
#NOTES:
0000
0000
0000
0000
,
0000
0000
0000
0000
,
0000
0000
0000
0000
,
0000
0000
0000
0000
,
0000
0000
0000
0000
,
0001
0001
1000
1000
,
0001
0010
0100
1000
,
0010
0010
0100
0100
,
0010
1000
0100
0001
,
1001
0000
0000
0000
,
0000
0000
0000
0000
,
0010
0000
0000
0100
0000
0000
0010
0000
0000
1000
0000
1000
,
0001
0000
0000
0010
0000
0000
0001
0000
0000
0100
0000
0100
,
0010
0000
0000
1000
0000
0000
0101
0000
0000
1000
0000
0001
,
0100
0000
0000
0010
0000
0010
1000
0000
0000
0001
0000
1000
,
0100
0000
0000
0010
0000
0000
0001
0000
1000
0001
0000
1000
,
0001
0000
0000
0100
0000
0000
0010
0000
0000
1000
0000
1000
,
0100
0000
0000
0010
0000
0000
0001
0000
0001
1000
0000
0000
,
0110
0000
0000
1001
0000
0000
0110
0000
0000
1000
0000
0010
,
0100
0000
0000
0001
0000
0000
1000
0000
0000
0001
0000
0010
,
0100
0000
0000
1000
0000
0000
0001
0000
0000
1000
0000
0010
,
0100
0000
0000
0001
0000
0000
1010
0000
0000
0100
0000
0010
,
1000
0000
0000
0001
0000
0001
0010
0000
0000
0001
0000
1000
,
0100
0000
0000
0010
0000
0000
0001
0000
1000
0001
0000
1000
,
0001
0000
0000
0100
0000
0000
0100
0000
0000
0010
0000
1000
,
0010
0000
0000
0100
0000
0000
0001
0000
1000
0100
0000
0000
,
1100
0000
0000
0110
0000
0000
0011
0000
0000
1000
0000
0001
,
0100
0000
0100
0001
0000
0000
1000
0000
1000
0100
0000
0000
,
2000
3020
0230
0302
,
0013
0010
1001
0110
,
1001
0000
0000
1000
0001
1000
0002
0000
0000
0003
0000
0000
,
0101
0000
0000
0010
0000
1000
0010
0000
0000
0100
0000
0100
,
0002
0023
0230
2300
,
3010
0000
0000
0100
0000
0100
0001
0000
0000
1000
0000
0001
,
1000
0000
0000
1010
0000
0000
1000
0000
0001
1000
0000
0100
,
0010
0000
0000
0001
0000
0001
1000
0000
0000
0010
0000
0010
,
0200
0320
2030
3002
,
0103
0100
0101
1100
,
0101
0000
0000
0100
0010
0100
0020
0000
0000
0030
0000
0000
,
1001
0000
0000
1000
0000
0001
1000
0000
0000
0010
0000
0100
,
0002
2003
3200
0320
,
0130
0000
0100
1000
0000
1000
0001
0000
0001
1000
0000
1000
,
0010
0000
0100
0001
0000
0100
0010
0000
1000
0001
0000
1000
,
0100
0000
0000
0000
0000
0000
0000
0000
0000
0000
0000
0010
,
0000
0000
0001
0000
0000
0100
0000
0000
0010
0000
0000
1000
,
0000
0000
0100
0000
0000
1000
0000
0000
0001
0000
0000
1000
,
0000
0000
0010
0000
0000
0100
0000
0000
0001
0000
0000
1000
,
0001
0000
0000
0000
0000
1000
0000
0000
0010
0000
0000
0100
,
0000
0000
0001
0000
0000
0010
0000
0000
0100
0000
0000
1000
,
0010
0000
0010
0100
0000
0100
0010
0000
0010
0100
0000
0100
,
0001
0000
0000
1000
0000
1000
0000
0000
0010
1000
0000
0001
,
0100
0000
0000
0110
0000
0000
1001
0000
0000
1000
0100
1000
,
0100
0000
0000
0010
0000
0000
0001
0000
0001
1000
0000
0010
,
0100
0000
0000
0101
0000
0000
1010
0000
0000
0001
1000
0001
,
1000
0000
0000
0010
0000
0100
0001
0000
1000
0001
0000
0001
,
0100
0000
0000
0101
0000
0000
1100
0000
0000
0001
0000
1000
,
0100
0000
0000
0011
0000
0000
1100
0000
0000
1000
0000
0001
,
0010
0000
0000
0001
0000
0001
1000
0000
0000
0010
0000
1000
,
0200
0000
0000
2300
0000
0000
3002
0000
0000
1003
0010
1000
,
0010
0010
0010
1001
,
0100
0000
0000
0100
0000
0001
1000
0000
0000
0001
0000
0000
,
1000
0000
0010
0100
0000
0000
0100
0000
0000
0001
0000
1000
,
0100
0010
0010
0011
,
1000
0000
0000
0001
0000
1000
0100
0000
0000
0010
0000
0000
,
0001
0000
0001
1000
0000
0000
1010
0000
0000
1100
0000
0000
,
1001
0010
0100
0110
,
1000
0000
0000
0001
0000
0001
0010
0000
0000
0001
0000
0000
,
1000
0000
1000
0010
0000
0010
0200
0000
0000
0301
0000
1000
,
0100
0000
0000
0010
0000
0000
0001
0000
1000
0001
0000
0000
,
0101
0000
0000
1100
0000
0000
1000
0000
1000
0001
0000
0001
,
1000
0000
1000
0100
0000
0000
0100
0000
0000
1000
0001
2000
,
0002
0000
0000
0000
,
3000
0000
0000
0000
,
0000
0000
0000
0000
,
0000
0000
0000
0003
;

//---------------dance-single - ----------------
#NOTEDATA:;
#CHARTNAME:;
#STEPSTYPE:dance-single;
#DESCRIPTION:;
#CHARTSTYLE:;
#DIFFICULTY:Easy;
#METER:7;
#RADARVALUES:0.394184,0.473153,0.462967,0.240743,0.000000,298.000000,248.000000,50.000000,26.000000,0.000000,0.000000,0.000000,0.000000,0.000000,0.394184,0.473153,0.462967,0.240743,0.000000,298.000000,248.000000,50.000000,26.000000,0.000000,0.000000,0.000000,0.000000,0.000000;
#CREDIT:;
#DISPLAYBPM:167.000000;
#NOTES:
0000
0000
0000
0000
,
0000
0000
0000
0000
,
0000
0000
0000
0000
,
0000
0000
0000
0000
,
0000
0000
0000
0000
,
0001
0001
0001
0001
,
1000
1000
1000
1000
,
0010
0010
0100
0100
,
0010
1000
0100
0001
,
1001
0000
0000
0000
,
0000
0000
0000
0000
,
0010
0100
0010
1000
,
0001
0010
0100
1000
,
0010
1000
0001
1000
,
0100
0010
0001
0100
,
0110
1000
0001
1000
,
0010
0010
0100
0001
,
0100
0001
0010
0100
,
0110
1001
0110
2000
,
3001
0010
0001
0100
,
0010
1000
0100
0010
,
0001
0001
1000
1000
,
0010
1000
0100
0010
,
0110
0001
0100
1000
,
0010
0010
0100
0001
,
1001
1000
0010
0100
,
1001
0110
1001
0110
,
0001
0010
0100
1000
,
0010
0010
0100
0010
,
1000
0100
0010
0001
,
0101
1100
0202
0300
,
1003
0001
1000
0001
,
0010
0010
0001
0100
,
1000
0010
0100
0001
,
0110
1001
0200
0320
,
0130
0010
0100
0001
,
1000
0010
1000
0001
,
0010
0010
0001
1000
,
1100
0101
2200
3000
,
1300
0001
1000
0010
,
1001
0100
0001
0010
,
0200
0320
0230
2300
,
3020
0230
0320
2030
,
3001
0000
0010
0000
,
0001
0000
0100
0000
,
0010
0000
1000
0000
,
0100
0000
0010
0000
,
0011
1000
0100
0001
,
1010
0001
0100
1000
,
0010
1000
0010
0100
,
0101
1100
0002
2003
,
3010
1001
0100
0001
,
2000
3010
0002
0103
,
1000
0001
1000
0100
,
0020
0031
0200
1300
,
0110
0001
0100
1000
,
1001
0010
1000
0100
,
0110
0001
1000
0010
,
2000
3200
0320
0032
,
0103
0010
0100
0101
,
1000
0001
1010
1000
,
0100
0110
1001
0110
,
1001
0100
0100
1010
,
0001
1000
0101
1000
,
0100
0011
0110
1100
,
1001
0100
0001
0011
,
0100
1000
0110
0010
,
0001
0101
1100
0101
,
1010
0001
1000
0110
,
0010
0100
0101
1100
,
0011
1000
0010
0100
,
0002
0000
0000
0000
,
0000
0000
0000
0000
,
0003
0000
0000
0000
;

//---------------dance-single - ----------------
#NOTEDATA:;
#CHARTNAME:;
#STEPSTYPE:dance-single;
#DESCRIPTION:;
#CHARTSTYLE:;
#DIFFICULTY:Beginner;
#METER:3;
#RADARVALUES:0.173282,0.262965,0.092593,0.000000,0.000000,131.000000,121.000000,10.000000,0.000000,0.000000,0.000000,0.000000,0.000000,0.000000,0.173282,0.262965,0.092593,0.000000,0.000000,131.000000,121.000000,10.000000,0.000000,0.000000,0.000000,0.000000,0.000000,0.000000;
#CREDIT:;
#DISPLAYBPM:167.000000;
#NOTES:
// measure 0
0000
0000
0000
0000
,  // measure 1
0000
0000
0000
0000
,  // measure 2
0000
0000
0000
0000
,  // measure 3
0000
0000
0000
0000
,  // measure 4
0000
0000
0000
0000
,  // measure 5
0001
0000
0001
0000
,  // measure 6
1000
0000
1000
0000
,  // measure 7
0010
0000
0010
0000
,  // measure 8
0100
0000
0100
0000
,  // measure 9
1001
0000
0000
0000
,  // measure 10
0000
0000
0000
0000
,  // measure 11
0010
0000
0000
0000
,  // measure 12
1000
0000
0000
0000
,  // measure 13
0001
0000
0001
0000
,  // measure 14
1000
0000
1000
0000
,  // measure 15
1001
0000
0000
0000
,  // measure 16
0010
0000
0100
0000
,  // measure 17
0010
0000
1000
0000
,  // measure 18
0001
0001
0001
0000
,  // measure 19
0100
0000
0000
0000
,  // measure 20
0010
0000
0000
0000
,  // measure 21
0100
0000
0001
0000
,  // measure 22
1000
0000
1000
0000
,  // measure 23
1001
0000
0000
0000
,  // measure 24
0100
0000
0001
0000
,  // measure 25
1001
0000
0000
0000
,  // measure 26
0010
0010
0010
0000
,  // measure 27
1000
0000
1000
0000
,  // measure 28
0001
0000
0001
0000
,  // measure 29
1000
0000
0100
0000
,  // measure 30
0010
0010
0010
0000
,  // measure 31
0001
0000
0001
0000
,  // measure 32
0100
0000
0100
0000
,  // measure 33
0010
0000
1000
0000
,  // measure 34
0100
0100
0100
0000
,  // measure 35
1000
0000
1000
0000
,  // measure 36
0001
0000
0001
0000
,  // measure 37
1000
0000
0100
0000
,  // measure 38
0010
0010
0010
0000
,  // measure 39
0001
0000
0100
0000
,  // measure 40
0001
0000
1000
0000
,  // measure 41
0010
0010
0010
0010
,  // measure 42
0010
0010
0010
0000
,  // measure 43
0100
0000
0000
0000
,  // measure 44
0000
0000
0000
0000
,  // measure 45
0000
0000
0000
0000
,  // measure 46
0000
0000
0000
0000
,  // measure 47
1001
0000
0000
0000
,  // measure 48
1001
0000
0000
0000
,  // measure 49
0100
0000
0010
0000
,  // measure 50
1000
1000
0000
0001
,  // measure 51
0000
1001
0000
0000
,  // measure 52
1000
0000
0001
0000
,  // measure 53
1000
0000
0010
0000
,  // measure 54
0100
0000
0001
0000
,  // measure 55
1001
0000
0100
0000
,  // measure 56
1001
0000
0010
0000
,  // measure 57
1001
0000
0000
0000
,  // measure 58
1000
1000
1000
1000
,  // measure 59
1000
0000
0000
0001
,  // measure 60
0000
0000
0010
0000
,  // measure 61
0000
0100
0100
0100
,  // measure 62
0100
0000
0000
0010
,  // measure 63
0000
0000
0100
0000
,  // measure 64
0000
1000
1000
1000
,  // measure 65
1000
0000
0000
0010
,  // measure 66
0000
0000
0100
0000
,  // measure 67
0000
0001
0001
0001
,  // measure 68
0001
0000
0000
1000
,  // measure 69
0000
0000
0010
0000
,  // measure 70
0000
0100
0000
0000
,  // measure 71
0001
0000
0000
0000
;
