#TITLE:THE DETONATOR;
#SUBTITLE:;
#ARTIST:teranoid vs. L.E.D.-G;
#TITLETRANSLIT:;
#SUBTITLETRANSLIT:;
#ARTISTTRANSLIT:;
#GENRE:;
#CREDIT:;
#BANNER:THE DETONATOR-bn.png;
#BACKGROUND:THE DETONATOR-bg.png;
#LYRICSPATH:;
#CDTITLE:;
#MUSIC:THE DETONATOR.ogg;
#OFFSET:0.000000;
#SAMPLESTART:24.971001;
#SAMPLELENGTH:20.000000;
#SELECTABLE:YES;
#DISPLAYBPM:173.000000;
#BPMS:0.000000=173.000000
;
#STOPS:
;
#BGCHANGES:;
#KEYSOUNDS:;
#ATTACKS:;

//---------------dance-single - ----------------
#NOTES:
     dance-single:
     :
     Hard:
     16:
     0.730473,1.003144,0.351672,0.126602,0.383322,727.000000,677.000000,50.000000,18.000000,0.000000,0.000000,0.730473,1.003144,0.351672,0.126602,0.383322,727.000000,677.000000,50.000000,18.000000,0.000000,0.000000:
0000
0000
0000
0000
,
0000
0000
0000
0000
,
1001
0000
0000
0000
,
0000
0000
0000
0000
,
0000
0000
0000
0000
,
0000
0000
0000
0000
0000
0100
0010
1000
,
1100
0000
0010
0001
0101
0000
1100
0000
,
0010
0001
0100
0001
1000
0000
0000
0000
,
0001
0010
0001
0100
1000
0010
0001
0000
,
0100
0000
0100
0000
1001
0000
0000
0010
,
1000
0100
1000
0001
0000
0000
0000
0010
,
0100
1000
0001
0000
0011
0000
1100
0000
,
0010
0001
0100
0001
1000
0100
0010
0000
,
0001
0100
0001
0000
1000
0100
1000
0000
,
0001
0000
0100
0000
0010
0000
1000
0000
0000
0100
0000
0000
0010
0000
0000
0001
0000
0000
1000
0000
0000
0000
0000
0000
,
0110
0000
0001
0000
1000
0000
0010
0000
1000
0100
1000
0000
0001
0000
0100
0000
,
0010
0000
1000
0000
0001
0000
0010
0000
0100
1000
0100
1000
0100
0010
0001
1000
,
0000
0000
0000
0010
0000
1000
0000
0100
0000
1000
0000
0001
0000
0000
0000
0000
,
1001
1000
0100
0100
0010
0010
0001
0001
,
0100
0100
0010
0010
1000
1000
0001
0001
,
0010
0010
0001
0001
0100
0100
1000
1000
,
0001
0000
0001
0000
1000
0000
1000
0000
0001
0010
0100
0000
1000
0010
0100
0000
,
0001
0001
0010
0010
0100
0100
1000
1000
,
0001
0000
0000
0001
0000
0000
0100
0000
0000
0100
0000
0000
0001
0000
1000
0000
0010
0000
1000
0000
0000
0100
0000
0000
,
0010
0000
0000
0010
0000
0000
0001
0000
0000
0001
0000
0000
1000
0000
0010
0000
1000
0000
0100
0000
0010
0000
0001
0000
,
0010
0000
0000
0010
0000
0000
0100
0000
0000
0100
0000
0000
0110
0000
0000
0000
1000
0000
0100
0000
0010
0000
0001
0000
,
0100
0100
0001
0001
0010
0010
0100
0100
,
1000
1000
0001
0001
1000
1000
0010
0010
,
1000
1000
0100
0100
0001
0001
0010
0010
,
0100
0000
0100
0000
0010
0000
0010
0000
0001
1000
0010
1000
0100
0010
0001
1000
,
0001
0100
0001
0010
1000
0010
0001
0100
,
0010
0100
0001
0010
1000
0100
1000
0001
,
0010
1000
0010
0100
0001
0100
1000
0001
,
0010
0000
0010
0000
0010
0000
0010
0000
0000
0000
0000
0000
,
0011
0000
0100
0000
1000
0010
1000
0000
0100
0000
0010
0000
0001
1000
0001
0000
,
0100
0000
1000
0000
0100
0010
0100
0000
0001
0000
1000
0000
0001
0000
0010
0000
,
0100
0000
1000
0000
0010
1000
0010
0000
0100
0000
0001
0000
1000
0100
1000
0000
,
0001
0000
0100
0010
1000
0000
0000
0000
0001
0010
0001
0010
0100
1000
0001
0000
,
1000
0000
0001
0000
0010
0100
0010
0000
0001
0000
0100
0000
0010
1000
0010
0000
,
0100
0000
0001
0000
1000
0100
1000
0000
0010
0000
0100
0001
1000
0000
0100
0000
,
0010
0000
0001
0000
1000
0001
1000
0000
0010
0100
0010
1000
0001
0000
0000
0000
,
1100
0000
0000
0101
0000
0000
1100
0000
0000
0001
0010
0100
,
1000
0000
0000
0001
1000
0000
0100
0000
0010
0001
1000
0000
0110
0000
0000
0000
,
1001
0000
0100
0000
0001
0010
0100
0000
1000
0000
0001
0100
0001
0000
1000
0000
,
0001
0000
0010
0000
0001
0100
0010
0000
1000
0000
0100
0000
1000
0001
0100
0000
,
0001
0000
1000
0100
0010
0000
0000
0000
0001
0000
0100
0000
0001
0000
1000
0000
,
0010
0000
1000
0000
0100
0010
0001
0000
1000
0000
0010
0000
0100
0001
1000
0000
,
0001
0000
1000
0000
0010
1000
0100
0000
0010
0000
0001
1000
0001
0000
0100
0000
,
0001
0000
0010
0000
0001
0100
0001
0000
1000
0000
0010
0000
0100
0001
1000
0000
,
1010
0000
0000
0000
0101
0000
0000
0000
1000
0100
0010
0001
0100
0010
1000
0000
,
0001
0001
1000
1000
0001
0001
0010
0010
,
0100
0100
1000
1000
0001
0001
0100
0100
,
0001
0001
0010
0010
0001
0001
1000
1000
,
0100
0100
0010
0010
0001
0100
0010
1000
,
0100
0100
0010
0010
0011
1000
1010
0000
,
0001
0100
0010
0100
0001
0000
1000
0100
0010
0100
1000
0000
0001
1000
0100
1000
,
0010
0000
0100
0000
0010
0000
1000
0000
0100
0010
0001
0100
0010
1000
0001
1000
,
0100
0010
0100
0010
0100
0010
0100
0010
0001
0000
1000
0000
0100
0000
0000
0000
,
0011
0011
1100
1100
,
0101
0101
1100
0101
,
1001
1001
0110
0110
,
1000
0001
1000
0001
1000
0001
1000
0001
0100
0010
0100
0010
0100
0010
0100
0010
,
1000
1000
0001
0001
,
0010
0010
0100
0100
,
1000
0010
1000
0001
,
0010
0100
1000
1000
,
1001
0000
0000
0000
,
0000
0000
0000
0000
,
0000
0000
0000
0000
,
0000
0000
0000
0000
,
0000
0000
0000
0000
,
0000
0000
0000
0000
,
0000
0000
0000
0000
,
0000
0000
0000
0000
0000
0000
0000
0011
,
1100
0000
0000
0000
0000
0000
0000
1010
,
0101
0000
0000
0000
0000
0000
0000
0000
0000
0000
0000
0000
1000
0001
1000
0001
,
1000
0000
0000
0000
0000
0000
0000
0010
,
1010
0000
0001
0000
0101
0000
1000
0000
1100
0000
0000
0000
0000
0000
0001
1000
,
0001
0100
0001
0100
1000
0100
1000
0100
,
0001
0010
0001
0010
1000
0010
1000
0010
,
0001
1000
0001
1000
0100
1000
0100
1000
0100
0010
0100
0010
0001
0010
0001
0010
,
0100
0000
0000
2000
3000
0002
0003
2000
,
3010
2000
3100
0020
0031
2000
3001
0200
,
0310
0002
0013
2000
3010
0002
0013
0200
,
0301
0020
1030
0020
0031
2000
3010
0200
,
1300
0000
0200
0000
0310
0000
0200
0000
0301
1000
0010
0100
0001
0000
1000
0000
,
0100
0010
0001
0000
0110
0001
1000
0100
,
0010
0001
1000
0000
1001
0100
0010
1000
,
0001
0010
0001
0100
1000
0010
1000
0001
,
0100
0010
0100
0001
1000
0000
0100
0000
0010
0001
1000
0001
1000
0000
0100
0000
,
0110
0001
1000
0010
1000
0100
0010
0001
,
1001
0100
0010
1000
0100
1000
0001
0100
,
1010
0001
1000
0010
1000
0100
0010
0001
,
0011
0100
0010
1000
0100
1000
0001
0100
,
0110
0001
0010
1000
0100
0010
0001
0100
,
0010
1000
0010
1000
0001
0000
0010
0000
0100
1000
0010
1000
0001
0000
0100
0000
,
0001
0010
0100
1000
0010
0100
0001
0000
0101
0000
0000
0000
1100
0000
0000
0000
,
0001
1000
0010
1000
0000
0000
0110
0000
,
0000
0000
1000
0002
0000
0000
0000
0000
,
0000
0000
0000
0000
,
0000
0000
0000
0000
,
0000
0000
0000
0000
0000
0000
0000
0003
;

//---------------dance-single - ----------------
#NOTES:
     dance-single:
     :
     Medium:
     12:
     0.490331,0.644878,0.337605,0.225070,0.028134,488.000000,440.000000,48.000000,32.000000,0.000000,0.000000,0.490331,0.644878,0.337605,0.225070,0.028134,488.000000,440.000000,48.000000,32.000000,0.000000,0.000000:
0000
0000
0000
0000
,
0000
0000
0000
0000
,
1001
0000
0000
0000
,
0000
0000
0000
0000
,
0000
0000
0000
0000
,
0000
0000
0000
0000
0000
0100
0010
1000
,
0001
0000
0010
0001
0100
0000
1001
0000
,
0001
0010
0001
0100
1000
0000
0000
0000
,
0001
1000
0010
1000
0100
0010
0001
0000
,
0000
0000
0000
0000
0110
0000
0000
0001
,
1000
0010
1000
0100
0000
0000
0000
1000
,
0010
0100
0001
0000
0000
0000
0000
0000
,
1000
0001
1000
0001
0100
0001
0010
0000
,
0001
0001
1000
1000
,
0001
0100
0001
0010
1000
0000
0000
0000
,
0110
0000
1000
0001
0000
0000
0000
0001
,
0010
0000
0100
0000
1000
0000
0010
0000
0000
1000
0000
0000
0001
0000
0000
0000
,
0000
0000
0000
0010
0000
1000
0000
0100
0000
1000
0000
0001
0000
0000
0000
0000
,
1001
0100
0001
1000
,
0001
0000
0010
0000
0001
0100
0010
1000
,
0100
0000
0010
0000
0001
0100
1000
0000
,
0001
0010
0001
0000
1000
0010
1000
0001
,
1000
0000
0100
0000
0010
0001
1000
0000
,
0001
0100
0001
0000
0010
0100
1000
0000
,
0001
0100
0010
1000
0001
0000
0000
1000
,
0010
1000
0000
0200
0000
0300
0110
0000
,
0001
0010
0001
0000
1000
0100
1000
0000
,
0001
0100
0001
0000
1000
0010
1000
0001
,
0100
0000
0101
0000
0001
0000
1000
0100
,
1000
0000
1010
0000
0001
0010
0001
1000
,
0100
0000
0010
0001
1000
0000
0001
0000
,
1000
0100
1000
0000
0010
0000
0110
0000
,
0001
0000
0010
0000
1000
0100
0001
0000
,
0010
0000
0010
0000
0010
0000
0010
0000
0000
0000
0000
0000
,
0000
0001
1000
0100
0000
0010
0001
0100
,
0000
0001
0010
0001
1000
0100
1000
0001
,
0000
0100
0001
1000
0000
0100
0010
0000
,
1001
0100
0010
0000
2000
0000
3001
1000
,
0000
0100
1000
0001
0000
0010
0001
0100
,
0000
0001
0010
0001
1000
0010
1000
0100
,
0000
0010
0001
0000
1000
0100
0001
0000
,
0020
0230
2300
3002
,
0103
0000
0001
0200
0000
0000
0310
0000
,
0110
0001
1000
0000
0010
1000
0100
0010
,
0000
0001
0010
1000
0000
0100
0010
0000
,
0110
0001
1000
0000
0020
0000
1030
0001
,
0000
0100
0010
1000
0000
0100
0010
0001
,
0000
1000
0010
1000
0001
0010
0001
1000
,
0000
0001
0100
0010
0000
1000
0100
0000
,
2000
3002
0203
0320
,
1030
0100
0010
0000
0001
0000
1000
0001
,
0100
0000
0010
0000
1000
0010
1000
0001
,
0010
0000
0100
0010
0100
0000
1000
0010
,
0001
0000
0100
0000
0001
0010
0100
1000
,
0010
0000
0100
0000
0001
0010
1000
0000
,
1100
0000
0000
0101
0000
0000
1100
0000
,
0001
0010
0001
0000
1000
0010
0100
0001
,
0010
0100
1000
0010
1000
0100
0001
0000
,
0011
0011
1100
1100
,
0101
0101
1100
0101
,
1010
1010
1001
1001
,
0100
0001
0100
0001
1000
0100
1000
0001
,
1001
0010
1000
0010
,
1000
1000
0100
0100
,
0010
0001
0100
0001
,
1000
1000
0001
1000
,
1001
0000
0000
0000
,
0000
0000
0000
0000
,
0000
0000
0000
0000
,
0000
0000
0000
0000
,
0000
0000
0000
0000
,
0000
0000
0000
0000
,
0000
0000
0000
0000
,
0000
0000
0000
0000
0000
0000
0000
0010
,
0110
0000
0000
0000
0000
0000
0000
1000
,
1001
0000
0000
0000
0000
0000
0001
0010
,
1000
0000
0000
0000
0000
0000
0000
0100
,
1100
0000
0101
0000
1100
0000
0000
0001
,
1000
0010
1000
0100
0010
0001
0100
0000
,
0001
0010
0001
0100
0010
1000
0001
0000
,
1000
0001
1000
0010
1000
0100
0010
0001
,
0100
0000
0000
0020
0030
2000
3000
0002
,
0003
2000
3000
0200
0300
0020
0030
0002
,
0003
0200
0300
0002
0003
0020
0030
2000
,
3000
0002
0003
2000
3000
0020
0030
0200
,
0300
0002
0003
0020
0030
0001
0100
1000
,
0000
0001
1000
0000
0001
0010
0000
0100
,
0000
1000
0010
0000
1000
0001
0000
0100
,
0000
0001
0010
0000
0001
0100
0000
1000
,
0010
1000
0100
0010
0001
0100
1000
0000
,
1010
0001
0000
0011
0000
1100
0000
0000
,
0101
0010
0000
0110
0000
1001
0000
0100
,
0110
0001
0000
0011
0000
1100
0000
0000
,
1001
0100
0010
0000
1000
0001
1000
0100
,
0000
0001
0010
0000
0001
0100
0000
1000
,
0010
1000
0100
0000
1001
0000
0101
0000
,
1000
0010
1000
0000
1200
0000
0320
0000
,
0031
0100
0010
1000
0000
0000
0110
0000
,
0000
0000
1000
0002
0000
0000
0000
0000
,
0000
0000
0000
0000
,
0000
0000
0000
0000
,
0000
0000
0000
0000
0000
0000
0000
0003
;

//---------------dance-single - ----------------
#NOTES:
     dance-single:
     :
     Easy:
     8:
     0.368753,0.516958,0.407939,0.028134,0.000000,367.000000,309.000000,58.000000,4.000000,0.000000,0.000000,0.368753,0.516958,0.407939,0.028134,0.000000,367.000000,309.000000,58.000000,4.000000,0.000000,0.000000:
0000
0000
0000
0000
,
0000
0000
0000
0000
,
1001
0000
0000
0000
,
0000
0000
0000
0000
,
0000
0000
0000
0000
,
0000
0000
0000
0000
,
1000
0010
1000
0001
,
0010
0100
0100
0000
,
1000
1000
0001
0010
,
0001
0100
1000
0000
,
0010
1000
0100
1000
,
0001
0001
0100
0000
,
0001
1000
0001
0010
,
0100
1000
0010
0000
,
0110
0001
1000
0000
,
0110
1000
0001
0000
,
1000
0001
0010
0100
,
0000
0000
0000
1100
0000
0101
0000
0000
,
1001
0010
1000
0010
,
0100
0001
0010
0100
,
1000
0001
1000
0100
,
0010
0001
0101
1100
,
0001
0010
0001
0100
,
1000
0010
0100
0001
,
0010
0010
0001
0000
,
1000
0000
0000
0100
0000
0000
0000
0000
,
0010
0001
0010
1000
,
0100
0010
0100
0001
,
1000
0010
0100
0001
,
0010
0001
0101
1100
,
0001
0010
0001
0100
,
0010
1000
0100
0001
,
1000
0010
1000
0001
,
0010
0010
0010
0000
,
1010
0001
1100
0001
,
1010
0001
0100
0100
,
0101
1000
0011
1000
,
0101
0010
1000
1000
,
0110
0001
0110
1000
,
0110
0001
0010
0010
,
1001
0100
1001
0010
,
1000
0100
0010
0001
,
0100
0000
0000
0100
0000
0000
0100
0000
,
0110
0001
0010
0010
,
0011
1000
0101
1000
,
1100
0001
0100
0100
,
0101
0010
1010
0100
,
0110
0001
1000
1000
,
1100
0001
0101
1000
,
0010
0010
0100
0100
,
0001
0001
1000
1000
,
0001
0001
0010
0010
,
0100
0100
1000
1000
,
0010
0100
0101
1100
,
0001
0010
1001
0110
,
1000
0000
0000
0001
0000
0000
1000
0000
,
0001
0010
0001
0100
,
1000
0000
1000
0000
0010
0100
0010
0000
,
1000
1100
0001
0101
,
1000
1010
0001
0011
,
0100
0110
0010
1001
,
0100
0010
0100
0000
1001
0000
0110
0000
,
0001
0000
0001
0000
,
1000
0000
1000
0000
,
0010
0000
0010
0000
,
0100
0000
0100
0000
,
1001
0000
0000
0000
,
0000
0000
0000
0000
,
0000
0000
0000
0000
,
0000
0000
0000
0000
,
0000
0000
0000
0000
,
0000
0000
0000
0000
,
0000
0000
0000
0000
,
0000
0000
0000
0000
0000
0000
0000
0001
,
1000
0000
0000
0000
0000
0000
0000
0010
,
0100
0000
0000
0101
,
1100
0000
0000
0000
,
1001
0110
1001
0000
,
0010
0010
1000
1000
,
0100
0100
0001
0001
,
0100
0001
0010
1000
,
0002
0000
0000
1000
0000
1003
0000
0000
,
0010
1000
0010
0100
,
0001
0010
0001
1000
,
0100
0010
0100
0001
,
0010
1000
0001
0100
,
0001
0010
0001
1000
,
0010
1000
0100
0010
,
0001
0100
0001
1000
,
1001
0100
0010
1000
,
2100
0000
0000
0001
0000
3001
0000
0000
,
0102
0000
0000
0010
0000
0013
0000
0000
,
2001
0000
0000
0100
0000
3100
0000
0000
,
1000
0001
1000
0000
0011
0000
1100
0000
,
0001
0010
0001
0100
,
1000
0010
1000
0000
1010
0000
0101
0000
,
0010
0001
0100
1000
,
0001
0001
0000
0110
,
1001
0000
0000
0000
;

//---------------dance-single - ----------------
#NOTES:
     dance-single:
     :
     Beginner:
     4:
     0.184879,0.275711,0.168802,0.000000,0.000000,184.000000,160.000000,24.000000,0.000000,0.000000,0.000000,0.184879,0.275711,0.168802,0.000000,0.000000,184.000000,160.000000,24.000000,0.000000,0.000000,0.000000:
// measure 0
0000
0000
0000
0000
,  // measure 1
0000
0000
0000
0000
,  // measure 2
1001
0000
0000
0000
,  // measure 3
0000
0000
0000
0000
,  // measure 4
0000
0000
0000
0000
,  // measure 5
0000
0000
0000
0000
,  // measure 6
0010
0000
0010
0000
,  // measure 7
1000
0000
1000
0000
,  // measure 8
0001
0001
0001
0001
,  // measure 9
0000
0000
1001
0000
,  // measure 10
0010
0000
0000
0000
,  // measure 11
0100
0000
0000
0000
,  // measure 12
0010
0010
0010
0010
,  // measure 13
0000
0000
0000
0000
,  // measure 14
0110
0000
0000
0000
,  // measure 15
0110
0000
0000
0000
,  // measure 16
0001
0000
1000
0000
,  // measure 17
1001
0000
0000
0000
,  // measure 18
0001
0000
0010
0000
,  // measure 19
0001
0000
0100
0000
,  // measure 20
0010
0000
1000
0000
,  // measure 21
0100
0000
0001
0000
,  // measure 22
1000
0000
0001
0000
,  // measure 23
1000
0000
0010
0000
,  // measure 24
0100
0100
0100
0000
,  // measure 25
0001
0000
0000
0000
,  // measure 26
0010
0010
0010
0000
,  // measure 27
0100
0000
1000
0000
,  // measure 28
0001
0001
0001
0000
,  // measure 29
1000
0000
0010
0010
,  // measure 30
0010
0000
0100
0000
,  // measure 31
0001
0000
0100
0000
,  // measure 32
0001
0000
1000
0000
,  // measure 33
0010
0000
0000
0000
,  // measure 34
0000
0110
0000
0110
,  // measure 35
0000
0110
0000
0000
,  // measure 36
0000
1001
0000
1001
,  // measure 37
0000
1001
0000
0000
,  // measure 38
0000
0110
0000
0110
,  // measure 39
0000
0110
0000
0000
,  // measure 40
0000
1001
0000
1001
,  // measure 41
0000
0000
0000
0000
,  // measure 42
0100
0000
0000
0000
,  // measure 43
0000
0001
0001
0001
,  // measure 44
0000
0010
0000
0100
,  // measure 45
0000
1000
1000
1000
,  // measure 46
0000
0001
0000
1000
,  // measure 47
0000
0010
0010
0010
,  // measure 48
0000
0100
0000
0010
,  // measure 49
0000
0000
0000
0000
,  // measure 50
1000
1000
1000
0000
,  // measure 51
0100
0000
0001
0000
,  // measure 52
0010
0010
0010
0000
,  // measure 53
0001
0000
1000
1000
,  // measure 54
1000
0000
0001
0001
,  // measure 55
0001
0000
0000
0000
,  // measure 56
0100
0000
0010
0000
,  // measure 57
1001
0000
0110
0000
,  // measure 58
0001
0000
0001
0000
,  // measure 59
0010
0000
0010
0000
,  // measure 60
0100
0000
0100
0000
,  // measure 61
1000
0000
1000
0000
,  // measure 62
0010
0000
0000
0000
,  // measure 63
1000
0000
0000
0000
,  // measure 64
0001
0000
0000
0000
,  // measure 65
0100
0000
0000
0000
,  // measure 66
1001
0000
0000
0000
,  // measure 67
0000
0000
0000
0000
,  // measure 68
0000
0000
0000
0000
,  // measure 69
0000
0000
0000
0000
,  // measure 70
0000
0000
0000
0000
,  // measure 71
0000
0000
0000
0000
,  // measure 72
0000
0000
0000
0000
,  // measure 73
0000
0000
0000
0000
,  // measure 74
0110
0000
0000
0000
,  // measure 75
1001
0000
0000
0010
,  // measure 76
0010
0000
0000
0000
,  // measure 77
1000
1000
1000
0000
,  // measure 78
0001
0000
0010
0000
,  // measure 79
0001
0000
0100
0000
,  // measure 80
0010
0000
1000
0000
,  // measure 81
0110
0000
0000
0000
,  // measure 82
0001
0000
0001
0000
,  // measure 83
0010
0000
0010
0000
,  // measure 84
0001
0000
0100
0000
,  // measure 85
0010
0000
1000
0000
,  // measure 86
0100
0000
0100
0000
,  // measure 87
0010
0000
0010
0000
,  // measure 88
0001
0000
1000
0000
,  // measure 89
0001
0000
0000
0000
,  // measure 90
0100
0000
0100
0000
,  // measure 91
0010
0000
0010
0000
,  // measure 92
1000
0000
1000
0000
,  // measure 93
0001
0000
0001
0000
,  // measure 94
0010
0000
1000
0000
,  // measure 95
0001
0000
0010
0000
,  // measure 96
0100
0000
0110
0000
,  // measure 97
1000
1000
0000
0000
,  // measure 98
1001
0000
0000
0000
;
